osu file format v14

[General]
AudioFilename: Priority One & TwoThirds - City Needs Sleep (Fox Stevenson Remix).mp3
AudioLeadIn: 0
PreviewTime: 66013
Countdown: 0
SampleSet: Soft
StackLeniency: 0.7
Mode: 0
LetterboxInBreaks: 0
WidescreenStoryboard: 0

[Editor]
Bookmarks: 22160,33131,44102,55074,60560,63302,64674,66045,74263,77006,85224,86596,87967,96196,98939,107167,108539,109910,120892,131861,153804,164776,167690,170261,173004,174376,175747,183975,184660,186717,194946,196318,197689,216889,219632,238832,241575
DistanceSpacing: 1.1
BeatDivisor: 2
GridSize: 4
TimelineZoom: 1

[Metadata]
Title:City Needs Sleep (Fox Stevenson Remix)
TitleUnicode:City Needs Sleep (Fox Stevenson Remix)
Artist:Priority One & TwoThirds
ArtistUnicode:Priority One & TwoThirds
Creator:Log Off Now
Version:Collab Normal
Source:
Tags:liquid dnb drum and bass liquicity alchemy RyoKazuka HB24
BeatmapID:816924
BeatmapSetID:361719

[Difficulty]
HPDrainRate:4
CircleSize:3.5
OverallDifficulty:4
ApproachRate:5
SliderMultiplier:1.2
SliderTickRate:1

[Events]
//Background and Video events
0,0,"background_1_1366.jpg",0,0
//Break Periods
2,132042,152585
//Storyboard Layer 0 (Background)
//Storyboard Layer 1 (Fail)
//Storyboard Layer 2 (Pass)
//Storyboard Layer 3 (Foreground)
//Storyboard Sound Samples

[TimingPoints]
22128,342.857142857143,4,2,0,75,1,0
22128,-117.647058823529,4,2,0,75,0,0
44070,-100,4,3,1,50,0,0
55042,-100,4,1,0,65,0,0
66013,-100,4,1,69,75,0,1
85213,-100,4,1,0,65,0,0
87956,-100,4,1,69,75,0,1
107156,-100,4,1,0,65,0,0
109899,-117.647058823529,4,2,0,50,0,0
120528,-117.647058823529,4,2,0,50,0,0
153785,-100,4,3,2,50,0,0
164755,-100,4,1,0,65,0,0
175728,-100,4,1,69,75,0,1
194928,-100,4,1,0,65,0,0
197670,-100,4,1,69,75,0,1
219613,-117.647058823529,4,2,0,50,0,0

[Colours]
Combo1 : 246,180,66
Combo2 : 193,255,255
Combo3 : 178,144,134
Combo4 : 215,40,57

[HitObjects]
47,237,22128,6,0,L|192:213,1,102.000001945496,2|0,0:0|0:0,0:0:0:0:
203,212,22642,2,0,P|210:295|248:326,1,102.000001945496,2|0,0:0|0:0,0:0:0:0:
256,348,23156,1,2,0:0:0:0:
419,120,24013,2,0,L|466:66,2,51.0000009727478,2|2|2,0:0|0:0|0:0,0:0:0:0:
369,147,24528,2,0,P|334:140|306:131,1,51.0000009727478,2|0,0:0|0:0,0:0:0:0:
270,109,24870,6,0,P|213:85|84:136,1,204.000003890991,2|0,0:0|0:0,0:0:0:0:
16,220,25899,1,2,0:0:0:0:
288,280,26756,2,0,L|356:329,2,51.0000009727478,2|2|2,0:0|0:0|0:0,0:0:0:0:
245,242,27270,2,0,P|245:190|253:168,1,51.0000009727478,2|0,0:0|0:0,0:0:0:0:
376,163,27613,6,0,P|382:62|364:-1,2,153.000002918243,2|2|2,0:0|0:0|0:0,0:0:0:0:
141,317,29499,2,0,L|85:354,2,51.0000009727478,2|2|2,0:0|0:0|0:0,0:0:0:0:
196,306,30013,2,0,P|250:303|260:300,1,51.0000009727478,2|0,0:0|0:0,0:0:0:0:
298,281,30356,6,0,P|369:272|433:290,1,102.000001945496,2|0,0:0|0:0,0:0:0:0:
440,309,30870,2,0,L|459:189,1,102.000001945496,2|0,0:0|0:0,0:0:0:0:
486,160,31385,1,2,0:0:0:0:
215,85,32242,2,0,P|161:65|144:55,2,51.0000009727478,2|2|2,0:0|0:0|0:0,0:0:0:0:
258,120,32756,2,0,P|262:162|258:189,1,51.0000009727478,2|2,0:0|0:0,0:0:0:0:
249,225,33099,6,0,P|149:240|90:220,2,153.000002918243,2|2|2,0:0|0:0|0:0,0:0:0:0:
471,53,34985,2,0,L|509:98,2,51.0000009727478,2|2|2,0:0|0:0|0:0,0:0:0:0:
416,38,35499,2,0,P|367:38|324:57,1,51.0000009727478,2|0,0:0|0:0,0:0:0:0:
325,78,35842,6,0,P|225:92|167:77,2,153.000002918243,2|2|2,0:0|0:0|0:0,0:0:0:0:
165,309,37728,2,0,L|106:336,2,51.0000009727478,2|2|2,0:0|0:0|0:0,0:0:0:0:
202,267,38242,2,0,P|202:210|195:190,1,51.0000009727478,2|0,0:0|0:0,0:0:0:0:
162,177,38585,6,0,P|154:75|163:16,2,153.000002918243,2|2|2,0:0|0:0|0:0,0:0:0:0:
413,300,40470,2,0,L|486:353,2,51.0000009727478,2|2|2,0:0|0:0|0:0,0:0:0:0:
358,286,40985,2,0,L|273:295,1,51.0000009727478,2|0,0:0|0:0,0:0:0:0:
256,314,41328,6,0,P|156:333|93:307,2,153.000002918243,2|2|2,0:0|0:0|0:0,0:0:0:0:
74,100,43213,2,0,L|11:51,2,51.0000009727478,2|2|2,0:0|0:0|0:0,0:0:0:0:
111,142,43728,2,0,P|149:144|196:138,1,51.0000009727478,2|2,0:0|0:0,0:0:0:0:
224,122,44070,6,0,P|288:113|354:127,1,120,2|0,0:0|1:0,0:0:0:0:
367,184,44585,2,0,P|331:232|283:267,1,120,0|4,0:0|0:0,0:0:0:0:
224,297,45099,1,0,1:0:0:0:
121,214,45442,2,0,P|102:146|91:86,2,120,4|0|0,0:0|1:0|0:0,0:0:0:0:
172,255,46299,2,0,P|233:254|245:253,1,60,4|0,0:0|1:0,0:0:0:0:
281,210,46642,1,0,0:0:0:0:
346,203,46813,6,0,P|379:313|349:377,2,180,4|0|0,0:0|0:0|1:0,0:0:0:0:
229,140,48185,2,0,P|215:81|233:19,2,120,4|0|0,0:0|1:0|0:0,0:0:0:0:
265,195,49042,1,4,0:0:0:0:
229,250,49213,1,0,1:0:0:0:
332,332,49556,6,0,L|468:303,1,120,6|0,0:0|1:0,0:0:0:0:
477,246,50070,2,0,P|456:180|471:125,1,120,0|4,0:0|0:0,0:0:0:0:
496,72,50585,1,0,1:0:0:0:
366,47,50928,6,0,P|305:55|225:41,1,120,4|0,0:0|1:0,0:0:0:0:
115,51,51613,2,0,P|116:107|108:127,1,60,0|4,0:0|0:0,0:0:0:0:
56,141,51956,2,0,P|51:170|56:200,1,60,0|0,1:0|0:0,0:0:0:0:
94,253,52299,6,0,P|178:250|233:245,1,120,4|0,0:0|1:0,0:0:0:0:
270,213,52813,2,0,P|268:297|321:348,1,120,0|4,0:0|0:0,0:0:0:0:
349,345,53328,1,0,1:0:0:0:
426,238,53670,2,0,P|428:154|375:103,2,120,4|0|0,0:0|1:0|0:0,0:0:0:0:
370,274,54528,2,0,P|330:277|306:273,1,60,4|0,0:0|1:0,0:0:0:0:
254,238,54870,1,0,0:0:0:0:
189,225,55042,6,0,P|70:222|19:188,2,180
249,107,56413,2,0,L|383:76,1,120
466,165,57099,2,0,L|349:192,1,120
254,285,57785,6,0,L|137:312,1,120
72,328,58299,2,0,P|64:241|19:205,1,120
15,159,58813,1,0,0:0:0:0:
130,94,59156,2,0,P|196:75|280:63,1,120
350,148,59842,2,0,P|292:164|233:175,1,120
130,94,60528,6,0,P|160:216|142:276,2,180
258,63,61899,2,0,L|422:49,1,120
473,144,62585,2,0,L|353:154,1,120
256,192,63270,12,0,65328,0:0:0:0:
376,80,66013,6,0,P|432:144|412:200,1,120,0|8,0:0|0:0,0:0:0:0:
376,212,66528,2,0,P|300:196|280:148,1,120
260,100,67042,1,8,0:0:0:0:
136,140,67385,2,0,L|92:212,2,60,0|0|8,0:0|0:0|0:0,0:0:0:0:
20,80,68070,2,0,L|51:28,2,60,0|0|8,0:0|0:0|0:0,0:0:0:0:
136,140,68756,6,0,P|93:193|44:216,1,120,0|8,0:0|0:0,0:0:0:0:
16,272,69270,2,0,P|24:336|84:368,1,120
132,344,69785,1,8,0:0:0:0:
184,224,70128,2,0,L|136:176,2,60,0|0|8,0:0|0:0|0:0,0:0:0:0:
244,252,70642,1,0,0:0:0:0:
296,212,70813,2,0,L|312:148,2,60,0|0|8,0:0|0:0|0:0,0:0:0:0:
320,344,71499,6,0,P|352:360|464:300,1,120,0|8,0:0|0:0,0:0:0:0:
432,280,72013,2,0,P|379:253|324:273,1,120
268,304,72528,1,8,0:0:0:0:
168,220,72870,1,0,0:0:0:0:
192,160,73042,2,0,L|144:108,1,60,0|8,0:0|0:0,0:0:0:0:
24,144,73556,1,0,0:0:0:0:
12,208,73728,2,0,L|52:256,1,60,0|8,0:0|0:0,0:0:0:0:
108,284,74070,1,0,0:0:0:0:
176,284,74242,6,0,L|212:220,2,60,0|2|8,0:0|3:0|0:0,0:0:0:0:
228,328,74756,1,0,0:0:0:0:
284,296,74928,1,2,3:0:0:0:
300,164,75270,2,0,L|240:124,1,60,8|2,0:0|3:0,0:0:0:0:
196,92,75613,2,0,P|128:40|72:36,2,120,2|8|2,3:0|0:0|3:0,0:0:0:0:
324,128,76642,2,0,L|344:196,1,60,0|8,0:0|0:0,0:0:0:0:
340,252,76985,6,0,P|276:272|240:316,1,120,0|8,0:0|0:0,0:0:0:0:
180,336,77499,2,0,P|120:340|72:284,1,120
48,244,78013,2,0,P|38:186|72:138,1,120,8|0,0:0|0:0,0:0:0:0:
136,156,78528,2,0,L|208:180,1,60,0|8,0:0|0:0,0:0:0:0:
316,128,79042,1,0,0:0:0:0:
380,116,79213,2,0,L|444:132,1,60,0|8,0:0|0:0,0:0:0:0:
376,252,79728,6,0,P|372:304|304:344,1,120,0|8,0:0|0:0,0:0:0:0:
256,352,80242,2,0,P|198:358|155:319,1,120
164,252,80756,2,0,P|179:195|148:146,1,120,8|0,0:0|0:0,0:0:0:0:
108,96,81270,1,0,0:0:0:0:
160,56,81442,2,0,L|218:67,1,60,8|0,0:0|0:0,0:0:0:0:
276,184,81956,1,0,0:0:0:0:
216,212,82128,1,8,0:0:0:0:
92,260,82470,6,0,P|128:308|228:288,1,120,0|8,0:0|0:0,0:0:0:0:
244,288,82985,2,0,P|284:220|256:160,1,120
260,120,83499,2,0,P|200:56|116:64,1,120,8|0,0:0|0:0,0:0:0:0:
144,112,84013,1,0,0:0:0:0:
108,168,84185,2,0,P|54:192|33:247,1,120,8|0,0:0|0:0,0:0:0:0:
88,284,84699,1,0,0:0:0:0:
140,328,84870,2,0,P|192:364|272:336,1,120,8|0,0:0|0:0,0:0:0:0:
348,272,85556,6,0,L|484:356,2,120
220,232,86585,1,0,0:0:0:0:
196,168,86756,2,0,L|256:100,1,60
200,68,87099,2,0,L|132:8,1,60
112,80,87442,2,0,L|64:132,1,60
196,168,87956,6,0,P|255:167|304:199,1,120,0|8,0:0|0:0,0:0:0:0:
324,264,88470,2,0,P|383:265|432:233,1,120
424,168,88985,2,0,P|376:116|284:96,1,120,8|0,0:0|0:0,0:0:0:0:
280,136,89499,1,0,0:0:0:0:
216,124,89670,2,0,L|152:100,2,60,8|0|0,0:0|0:0|0:0,0:0:0:0:
236,188,90185,2,0,L|179:209,1,60,0|8,0:0|0:0,0:0:0:0:
112,324,90699,6,0,P|172:344|244:316,1,120,0|8,0:0|0:0,0:0:0:0:
280,292,91213,2,0,P|299:236|273:184,1,120
324,132,91728,2,0,P|380:132|420:84,1,120,8|0,0:0|0:0,0:0:0:0:
348,60,92242,2,0,L|296:20,1,60,0|8,0:0|0:0,0:0:0:0:
248,64,92585,2,0,L|172:124,1,60
136,124,92928,2,0,L|80:80,1,60,0|8,0:0|0:0,0:0:0:0:
108,200,93442,6,0,P|164:215|217:189,1,120,0|8,0:0|0:0,0:0:0:0:
284,192,93956,2,0,P|348:208|400:164,1,120
456,192,94470,1,8,0:0:0:0:
364,100,94813,2,0,L|304:80,2,60,0|0|8,0:0|0:0|0:0,0:0:0:0:
236,132,95499,2,0,L|176:152,2,60,0|0|8,0:0|0:0|0:0,0:0:0:0:
364,168,96185,5,0,0:0:0:0:
412,216,96356,2,0,L|392:284,1,60,2|0,3:0|0:0,3:0:0:0:
276,216,96870,1,2,3:0:0:0:
292,156,97042,2,0,L|228:108,1,60,0|8,0:0|0:0,0:0:0:0:
180,112,97385,1,2,3:0:0:0:
120,88,97556,2,0,L|4:28,2,120,0|8|0,0:0|0:0|0:0,0:0:0:0:
44,212,98585,1,8,0:0:0:0:
132,312,98928,6,0,P|165:263|158:205,1,120,0|8,0:0|0:0,0:0:0:0:
148,140,99442,2,0,P|136:76|216:20,1,120
232,24,99956,2,0,P|308:36|340:76,1,120,8|0,0:0|0:0,0:0:0:0:
340,132,100470,2,0,L|380:204,2,60,0|8|0,0:0|0:0|0:0,0:0:0:0:
268,140,100985,1,0,0:0:0:0:
248,204,101156,2,0,L|328:240,1,60,0|8,0:0|0:0,0:0:0:0:
436,232,101670,6,0,P|452:184|416:112,1,120,0|8,0:0|0:0,0:0:0:0:
360,120,102185,2,0,P|336:172|356:232,1,120
396,280,102699,1,8,0:0:0:0:
264,268,103042,1,0,0:0:0:0:
248,204,103213,2,0,L|200:140,2,60,0|8|0,0:0|0:0|0:0,0:0:0:0:
220,332,103899,2,0,L|152:316,1,60,0|8,0:0|0:0,0:0:0:0:
148,188,104413,6,0,P|140:136|184:88,1,120,0|8,0:0|0:0,0:0:0:0:
248,80,104928,2,0,P|304:112|300:196,1,120
284,220,105442,1,8,0:0:0:0:
412,196,105785,2,0,L|428:120,2,60,0|0|8,0:0|0:0|0:0,0:0:0:0:
320,292,106470,2,0,L|336:368,2,60,0|0|8,0:0|0:0|0:0,0:0:0:0:
228,196,107156,5,0,0:0:0:0:
180,236,108528,1,0,0:0:0:0:
84,144,108870,1,0,0:0:0:0:
180,49,109213,1,0,0:0:0:0:
273,142,109556,1,0,0:0:0:0:
333,236,109899,6,0,P|305:288|211:298,2,153.000002918243
368,129,111270,1,0,0:0:0:0:
281,57,111613,2,0,L|137:67,1,102.000001945496
128,88,112128,2,0,P|131:126|125:154,1,51.0000009727478
87,175,112470,1,0,0:0:0:0:
91,231,112642,6,0,L|159:359,1,102.000001945496
192,339,113156,2,0,P|238:313|293:320,1,102.000001945496
337,339,113670,1,0,0:0:0:0:
434,282,114013,2,0,P|433:177|429:149,2,102.000001945496
388,315,114870,1,0,0:0:0:0:
337,339,115042,2,0,P|305:342|256:333,1,51.0000009727478
238,311,115385,6,0,P|136:305|84:312,2,153.000002918243
348,329,116756,2,0,P|340:263|351:212,1,102.000001945496
393,199,117270,1,0,0:0:0:0:
435,162,117442,2,0,P|432:104|424:83,1,51.0000009727478
380,92,117785,2,0,P|376:66|378:41,1,51.0000009727478
430,20,118128,6,0,P|328:30|273:17,2,153.000002918243,2|0|0,0:3|0:0|0:0,0:0:0:0:
466,63,119328,2,0,L|473:135,1,51.0000009727478,2|2,0:3|0:3,0:3:0:0:
426,147,119670,2,0,L|419:219,1,51.0000009727478
439,250,120013,1,0,0:0:0:0:
399,290,120185,2,0,L|267:308,2,102.000001945496,2|0|0,3:0|0:0|0:0,0:0:0:0:
439,250,121042,5,0,0:0:0:0:
421,197,121213,1,0,0:0:0:0:
380,157,121385,2,0,P|278:164|248:150,1,102.000001945496
233,134,121899,2,0,L|245:243,1,102.000001945496
217,284,122413,1,0,0:0:0:0:
186,331,122585,2,0,L|119:336,1,51.0000009727478
95,295,122928,2,0,L|28:300,1,51.0000009727478
17,249,123270,1,0,0:0:0:0:
97,170,123613,6,0,P|106:68|97:11,2,153.000002918243
17,249,124985,2,0,L|159:245,1,102.000001945496
162,282,125499,1,0,0:0:0:0:
215,299,125670,2,0,P|258:300|285:293,1,51.0000009727478
289,247,126013,2,0,P|314:244|339:246,1,51.0000009727478
376,288,126356,6,0,P|367:147|376:117,2,153.000002918243
416,327,127556,1,0,0:0:0:0:
370,359,127728,2,0,L|228:378,2,102.000001945496
416,327,128585,2,0,P|418:258|422:240,1,51.0000009727478
450,232,128928,1,0,0:0:0:0:
476,182,129099,6,0,L|491:28,2,153.000002918243,2|0|0,0:3|0:0|0:0,0:0:0:0:
373,227,130470,1,2,0:3:0:0:
269,182,130813,1,2,0:3:0:0:
166,227,131156,1,2,0:3:0:0:
63,182,131499,1,0,0:0:0:0:
79,292,131842,5,4,0:3:0:0:
287,138,153785,6,0,P|396:100|420:33,2,180,2|0|0,0:0|0:0|0:0,0:0:0:0:
91,103,155328,2,0,L|118:308,1,180
310,316,156356,6,0,L|283:111,1,180
91,103,157385,1,0,0:0:0:0:
99,300,157899,2,0,P|190:295|232:307,1,120,2|2,0:0|0:0,0:0:0:0:
272,338,158413,2,0,L|304:198,1,120
354,184,158928,1,2,0:0:0:0:
280,74,159270,6,0,P|163:87|90:62,2,180
473,118,160813,2,0,L|446:326,1,180
256,252,161842,6,0,L|283:44,1,180
82,49,162870,1,0,0:0:0:0:
72,247,163385,2,0,P|144:254|188:238,1,120,2|2,0:0|0:0,0:0:0:0:
234,191,163899,2,0,P|290:173|349:182,1,120
401,223,164413,1,2,0:0:0:0:
319,327,164756,6,0,P|202:346|126:333,2,180
268,197,166128,1,0,0:0:0:0:
259,137,166299,2,0,P|376:118|452:131,2,180
244,201,167499,6,0,L|87:226,1,120
32,125,168185,2,0,L|150:106,1,120
244,201,168870,2,0,P|268:315|244:371,2,180
138,120,170242,6,0,L|303:73,1,120
359,168,170928,2,0,L|243:200,1,120
138,120,171613,1,0,0:0:0:0:
34,201,171956,1,0,0:0:0:0:
139,280,172299,1,0,0:0:0:0:
243,200,172642,1,0,0:0:0:0:
256,192,172985,12,0,175042,0:0:0:0:
304,240,175728,6,0,P|328:208|340:100,1,120,0|8,0:0|0:0,0:0:0:0:
320,68,176242,2,0,P|292:44|184:64,1,120
188,104,176756,1,8,0:0:0:0:
108,212,177099,2,0,L|84:280,2,60,0|0|8,0:0|0:0|0:0,0:0:0:0:
176,208,177613,1,0,0:0:0:0:
224,164,177785,2,0,L|288:152,2,60,0|0|8,0:0|0:0|0:0,0:0:0:0:
352,132,178470,6,0,P|408:136|392:204,1,120,0|8,0:0|0:0,0:0:0:0:
292,252,179156,2,0,L|232:264,2,60,0|0|8,0:0|0:0|0:0,0:0:0:0:
340,296,179670,1,0,0:0:0:0:
288,340,179842,2,0,L|208:356,1,60
168,324,180185,1,8,0:0:0:0:
112,288,180356,2,0,P|68:248|52:180,1,120
72,128,180870,1,8,0:0:0:0:
176,48,181213,6,0,P|230:69|249:124,1,120,0|8,0:0|0:0,0:0:0:0:
216,180,181728,1,0,0:0:0:0:
364,48,182242,2,0,P|309:69|290:124,1,120,8|0,0:0|0:0,0:0:0:0:
320,184,182757,1,0,0:0:0:0:
292,244,182928,2,0,L|328:296,2,60,8|0|0,0:0|0:0|0:0,0:0:0:0:
228,236,183442,1,0,0:0:0:0:
164,220,183613,2,0,P|108:256|100:308,1,120,8|0,0:0|0:0,0:0:0:0:
224,348,184299,1,8,0:0:0:0:
352,312,184642,6,0,L|391:266,1,60,2|0,0:3|0:0,0:0:0:0:
356,212,184985,1,8,0:0:0:0:
380,152,185156,2,0,L|419:106,1,60,2|0,0:3|0:0,0:0:0:0:
288,88,185670,1,8,0:0:0:0:
160,60,186013,1,2,0:3:0:0:
208,184,186356,1,8,0:0:0:0:
324,124,186699,6,0,P|381:136|424:177,1,120,0|8,0:0|0:0,0:0:0:0:
460,236,187213,2,0,P|472:296|444:352,1,120
384,360,187728,1,8,0:0:0:0:
320,244,188070,2,0,L|380:176,2,60,0|0|8,0:0|0:0|0:0,0:0:0:0:
260,272,188585,1,0,0:0:0:0:
208,312,188756,2,0,L|236:364,2,60,0|0|8,0:0|0:0|0:0,0:0:0:0:
136,200,189442,6,0,P|161:136|228:120,1,120,0|8,0:0|0:0,0:0:0:0:
336,104,190128,2,0,L|367:154,1,60
344,220,190470,1,8,0:0:0:0:
236,288,190813,2,0,L|184:319,1,60
136,272,191156,1,8,0:0:0:0:
84,232,191328,2,0,P|59:178|79:123,1,120
132,84,191842,1,8,0:0:0:0:
220,184,192185,6,0,P|228:112|268:60,1,120,0|8,0:0|0:0,0:0:0:0:
312,44,192699,2,0,P|372:24|428:36,1,120
452,96,193213,2,0,P|456:164|408:208,1,120,8|0,0:0|0:0,0:0:0:0:
372,240,193728,2,0,P|312:264|248:248,1,120
196,236,194242,1,0,0:0:0:0:
308,156,194585,1,8,0:0:0:0:
436,196,194928,5,0,0:0:0:0:
484,72,195270,1,0,0:0:0:0:
356,40,195613,1,0,0:0:0:0:
308,156,195956,1,0,0:0:0:0:
236,272,196299,1,0,0:0:0:0:
216,208,196470,2,0,L|159:186,1,60
164,120,196813,2,0,L|108:97,1,60
80,40,197156,2,0,L|24:17,1,60
38,148,197670,6,0,P|36:267|58:326,2,180,0|0|8,0:0|0:0|0:0,0:0:0:0:
85,102,198870,1,0,0:0:0:0:
128,51,199042,2,0,P|188:50|207:53,1,60
228,102,199385,2,0,P|257:103|287:100,1,60,8|0,0:0|0:0,0:0:0:0:
335,54,199728,1,0,0:0:0:0:
412,160,200070,2,0,P|417:202|412:239,1,60,8|0,0:0|0:0,0:0:0:0:
398,283,200413,6,0,P|313:296|265:278,1,120,0|8,0:0|0:0,0:0:0:0:
199,183,201099,2,0,P|136:184|124:188,1,60
130,248,201442,2,0,P|100:251|70:248,1,60,8|0,0:0|0:0,0:0:0:0:
33,192,201785,2,0,P|26:74|60:13,2,180,0|0|8,0:0|0:0|0:0,0:0:0:0:
87,312,203156,6,0,L|244:327,1,120,0|8,0:0|0:0,0:0:0:0:
266,351,203670,2,0,P|266:243|296:197,1,120
317,188,204185,1,8,0:0:0:0:
452,44,204699,1,0,0:0:0:0:
254,55,205213,2,0,P|138:72|79:52,1,180
44,108,205899,5,0,0:0:0:0:
36,173,206070,2,0,P|36:238|40:256,1,60,0|8,0:0|0:0,0:0:0:0:
89,271,206413,2,0,P|90:300|88:330,1,60
26,355,206756,2,0,P|145:354|222:354,1,180
356,225,207785,2,0,P|266:225|176:226,1,180,0|8,0:0|0:0,0:0:0:0:
45,205,208642,6,0,L|93:69,1,120,0|8,0:0|0:0,0:0:0:0:
148,72,209156,2,0,P|231:82|269:69,1,120
321,37,209670,1,8,0:0:0:0:
437,99,210013,2,0,P|439:164|437:179,1,60
375,175,210356,2,0,P|374:204|377:234,1,60,8|0,0:0|0:0,0:0:0:0:
422,283,210699,2,0,L|238:306,1,180
65,217,211728,6,0,L|249:194,1,180,8|0,0:0|0:0,0:0:0:0:
286,144,212413,1,0,0:0:0:0:
335,99,212585,2,0,L|414:84,1,60
440,135,212928,2,0,P|454:198|465:227,1,60,0|8,0:0|0:0,0:0:0:0:
450,259,213270,1,0,0:0:0:0:
335,325,213613,2,0,P|251:341|238:340,1,60,0|8,0:0|0:0,0:0:0:0:
146,318,214128,6,0,P|118:183|114:131,2,180,0|0|8,0:0|0:0|0:0,0:0:0:0:
330,247,215670,2,0,P|319:157|298:70,1,180
256,192,216870,12,8,219270,0:0:0:0:
352,112,219956,5,0,0:0:0:0:
264,180,220299,2,0,L|228:248,2,51.0000009727478
164,128,220985,2,0,L|92:152,2,51.0000009727478
260,68,221670,2,0,L|283:22,2,51.0000009727478
352,132,222356,6,0,P|400:188|408:260,1,102.000001945496
316,280,223042,2,0,L|340:336,2,51.0000009727478
216,232,223728,1,0,0:0:0:0:
164,248,223899,2,0,P|124:256|96:244,1,51.0000009727478
76,216,224242,1,0,0:0:0:0:
108,108,224585,2,0,P|148:100|176:112,1,51.0000009727478
260,152,225099,5,0,0:0:0:0:
348,224,225442,1,0,0:0:0:0:
236,244,225785,2,0,L|176:228,2,51.0000009727478
328,304,226470,2,0,L|377:317,2,51.0000009727478
220,340,227156,2,0,L|160:324,2,51.0000009727478
160,244,227842,6,0,P|123:208|104:162,1,102.000001945496
192,92,228528,2,0,L|216:36,2,51.0000009727478
284,160,229214,1,0,0:0:0:0:
336,176,229385,2,0,P|356:184|388:212,1,51.0000009727478
408,252,229728,1,0,0:0:0:0:
316,320,230071,2,0,P|292:328|266:325,1,51.0000009727478
224,292,230413,1,0,0:0:0:0:
176,264,230585,6,0,P|108:200|112:160,1,102.000001945496
96,144,231099,2,0,P|128:92|176:68,1,102.000001945496
216,60,231613,2,0,P|284:60|236:296,1,408.000007781983
144,280,233328,6,0,P|176:224|208:208,1,102.000001945496
164,172,233842,2,0,P|100:160|52:116,1,102.000001945496
104,96,234356,2,0,P|156:56|420:208,1,408.000007781983
380,296,236070,6,0,P|330:302|280:296,1,102.000001945496
224,284,236585,1,0,0:0:0:0:
128,216,236928,1,0,0:0:0:0:
112,156,237099,2,0,P|296:40|480:80,1,408.000007781983
444,184,238813,6,0,P|397:203|347:198,1,102.000001945496
292,188,239328,2,0,P|241:182|195:202,1,102.000001945496
148,232,239842,1,0,0:0:0:0:
