osu file format v14

[General]
AudioFilename: Unbalanced Love.mp3
AudioLeadIn: 0
PreviewTime: -1
Countdown: 0
SampleSet: Normal
StackLeniency: 0.5
Mode: 0
LetterboxInBreaks: 0
WidescreenStoryboard: 0

[Editor]
DistanceSpacing: 1
BeatDivisor: 4
GridSize: 4
TimelineZoom: 1

[Metadata]
Title:Unbalanced Love
TitleUnicode:Unbalanced Love
Artist:Printemps
ArtistUnicode:Printemps
Creator:M0ntell024
Version:Easy
Source:ラブライブ! School idol project
Tags:love live u's 高坂穂乃果 kousaka honoka 南ことり minami kotori 小泉花陽 koizumi hanayou 新田恵海 nitta emi 内田彩 uchida aya 久保ユリカ kubo
BeatmapID:672426
BeatmapSetID:299731

[Difficulty]
HPDrainRate:2
CircleSize:2.3
OverallDifficulty:1
ApproachRate:2
SliderMultiplier:1.5
SliderTickRate:2

[Events]
//Background and Video events
0,0,"Printemps.(Love.Live!).full.1696004.jpg",0,0
//Break Periods
2,18370,24415
2,119834,125879
2,203736,204903
//Storyboard Layer 0 (Background)
//Storyboard Layer 1 (Fail)
//Storyboard Layer 2 (Pass)
//Storyboard Layer 3 (Foreground)
//Storyboard Sound Samples

[TimingPoints]
0,487.80487804878,4,1,0,100,1,0
2635,-100,4,1,0,100,0,0
18292,487.80487804878,4,1,0,100,1,1
33535,-100,4,1,0,100,0,0
78657,487.80487804878,4,1,0,100,1,1
93900,-100,4,1,0,100,0,0
94266,487.80487804878,4,1,0,100,1,1
119753,-100,4,1,0,100,0,0
154753,487.80487804878,4,1,0,100,1,1
169874,-100,4,1,0,100,0,0
207435,487.80487804878,4,1,0,100,1,1
222556,-100,4,1,0,100,0,0
223044,487.80487804878,4,1,0,100,1,1
238653,-100,4,1,0,100,0,0

[Colours]
Combo1 : 0,128,64
Combo2 : 0,202,0
Combo3 : 18,124,255
Combo4 : 242,24,57
Combo5 : 255,192,0
Combo6 : 240,240,240
Combo7 : 64,0,128
Combo8 : 0,0,160

[HitObjects]
256,180,2560,5,0,2:2:0:0:
256,176,6463,5,8,2:2:0:0:
256,256,7439,1,8,2:2:0:0:
372,260,8414,2,0,P|372:104|256:112,1,300,0|2,2:2|2:2,2:2:0:0:
116,128,10365,5,0,2:2:0:0:
256,128,12317,1,0,2:2:0:0:
444,120,14268,1,8,2:2:0:0:
444,216,15243,1,8,2:2:0:0:
256,192,15731,12,2,18170,2:2:0:0:
40,36,25975,6,0,L|40:336,1,300,0|2,2:2|2:2,2:2:0:0:
152,336,27926,2,0,L|152:36,1,300,0|2,2:2|2:2,2:2:0:0:
244,36,29878,2,0,L|244:336,1,300,0|2,2:2|2:2,2:2:0:0:
320,216,31829,1,0,2:2:0:0:
320,80,32804,1,4,2:2:0:0:
440,48,33780,5,8,2:2:0:0:
440,180,34756,1,8,2:2:0:0:
440,312,35731,1,8,2:2:0:0:
292,316,36707,1,8,2:2:0:0:
196,320,37682,5,8,2:2:0:0:
200,180,38658,1,8,2:2:0:0:
200,48,39634,1,8,2:2:0:0:
56,48,40609,1,8,2:2:0:0:
256,192,41096,12,2,42803,2:2:0:0:
252,192,43536,5,8,2:2:0:0:
372,192,44512,1,8,2:2:0:0:
488,192,45487,1,8,2:2:0:0:
488,312,46463,1,8,2:2:0:0:
320,320,47439,1,8,2:2:0:0:
216,216,48414,1,8,2:2:0:0:
240,72,49390,2,0,P|280:232|464:116,1,450,0|2,2:2|2:2,2:2:0:0:
360,100,51341,5,8,2:2:0:0:
236,144,52317,1,8,2:2:0:0:
116,220,53292,1,8,2:2:0:0:
224,296,54268,1,8,2:2:0:0:
360,248,55243,1,8,2:2:0:0:
296,152,56219,1,8,2:2:0:0:
292,28,57195,2,0,B|60:136|60:136|176:320,1,450,0|2,2:2|2:2,2:2:0:0:
272,308,59146,5,8,2:2:0:0:
328,252,60121,1,8,2:2:0:0:
368,184,61097,1,8,2:2:0:0:
400,112,62073,1,8,2:2:0:0:
344,56,63048,1,8,2:2:0:0:
288,112,64024,1,8,2:2:0:0:
240,176,65000,2,0,B|124:280|124:280|424:280,1,450,0|2,2:2|2:2,2:2:0:0:
404,160,66951,5,8,2:2:0:0:
324,92,67926,1,8,2:2:0:0:
240,152,68902,1,8,2:2:0:0:
344,232,69878,1,8,2:2:0:0:
216,288,70853,5,2,2:2:0:0:
212,168,72804,5,2,2:2:0:0:
272,96,74756,5,8,2:2:0:0:
380,120,75731,1,8,2:2:0:0:
252,192,76707,1,8,2:2:0:0:
104,160,77682,85,0,2:2:0:0:
184,80,78170,1,4,2:2:0:0:
336,24,78658,6,0,B|336:208|336:208|228:280,1,300,0|2,2:2|2:2,2:2:0:0:
168,284,80121,1,8,2:2:0:0:
180,200,80609,2,0,B|180:44|180:44|332:44,1,300,0|2,2:2|2:2,2:2:0:0:
420,44,82560,5,8,2:2:0:0:
424,136,83536,1,8,2:2:0:0:
424,220,84512,2,0,B|424:296|424:296|192:300,1,300,0|2,2:2|2:2,2:2:0:0:
192,216,86463,6,0,B|36:144|36:144|144:52,1,300,0|2,2:2|2:2,2:2:0:0:
236,64,87926,1,8,2:2:0:0:
352,68,88414,2,0,B|356:184|356:184|196:320,1,300,0|2,2:2|2:2,2:2:0:0:
140,244,90365,5,8,2:2:0:0:
96,124,91341,1,8,2:2:0:0:
200,112,92317,2,0,B|292:108|292:108|432:272,1,300,0|2,2:2|2:2,2:2:0:0:
412,316,94268,6,0,B|248:316|248:316|248:180,1,300,0|2,2:2|2:2,2:2:0:0:
168,184,96219,2,0,B|168:24|168:24|308:24,1,300,0|2,2:2|2:2,2:2:0:0:
416,48,98170,6,0,L|416:216,2,150,0|2|0,2:2|2:2|2:2,2:2:0:0:
360,164,99631,1,8,2:2:0:0:
264,244,100121,2,0,L|264:88,2,150,0|2|0,2:2|2:2|2:2,2:2:0:0:
124,248,101583,1,8,2:2:0:0:
236,184,102073,6,0,B|236:348|236:348|376:348,1,300,0|8,2:2|2:2,2:2:0:0:
492,264,104024,2,0,B|492:72|492:72|356:72,1,300,0|8,2:2|2:2,2:2:0:0:
376,168,105975,5,8,2:2:0:0:
364,252,106951,1,8,2:2:0:0:
272,272,107926,1,8,2:2:0:0:
184,216,108414,2,0,P|132:152|192:116,2,150,0|2|0,2:2|2:2|2:2,2:2:0:0:
252,248,109878,5,8,2:2:0:0:
260,160,110365,1,8,2:2:0:0:
360,180,110853,2,0,L|360:8,1,150,0|2,2:2|2:2,2:2:0:0:
284,28,111829,5,8,2:2:0:0:
216,60,112317,1,8,2:2:0:0:
136,72,112804,2,0,L|136:240,1,150,0|2,2:2|2:2,2:2:0:0:
156,288,113780,5,8,2:2:0:0:
240,316,114268,1,8,2:2:0:0:
312,284,114756,1,8,2:2:0:0:
256,192,115243,12,2,119634,2:2:0:0:
464,24,127439,6,0,B|464:188|464:188|304:188|304:188|304:36|304:36|176:36|176:36|176:200|176:200,1,750,0|2,2:2|2:2,2:2:0:0:
184,276,130365,5,0,2:2:0:0:
324,276,130853,1,2,2:2:0:0:
448,280,131341,2,0,B|448:116|448:116|296:120|296:120|296:272|296:272|156:272|156:272,1,600,0|2,2:2|2:2,2:2:0:0:
88,264,133780,1,8,2:2:0:0:
88,208,134268,1,10,2:2:0:0:
88,128,134756,1,0,2:2:0:0:
88,40,135243,6,0,B|252:40|252:40|252:180,1,300,0|2,2:2|2:2,2:2:0:0:
360,176,136705,2,0,B|360:332|360:332|200:332,1,300,0|8,2:2|2:2,2:2:0:0:
152,256,138170,2,0,B|272:120|272:120|364:228,1,300,0|2,2:2|2:2,2:2:0:0:
408,272,139634,2,0,L|100:272,1,300,0|8,2:2|2:2,2:2:0:0:
104,176,141097,2,0,L|408:172,1,300,0|2,2:2|2:2,2:2:0:0:
380,76,143048,5,8,2:2:0:0:
256,76,144024,1,8,2:2:0:0:
132,64,144999,2,0,L|132:228,1,150,0|2,2:2|2:2,2:2:0:0:
236,208,145975,2,0,L|392:208,1,150,0|4,2:2|2:2,2:2:0:0:
288,96,146951,6,0,B|396:164|444:240|452:324|388:368|244:364|160:352|76:264|76:264,1,600,0|4,2:2|2:2,2:2:0:0:
96,184,149878,2,0,P|88:72|256:76,2,300,8|2|8,2:2|2:2|2:2,2:2:0:0:
224,184,153780,5,8,2:2:0:0:
336,168,154268,1,8,2:2:0:0:
328,68,154756,6,0,P|432:156|324:272,1,300,0|2,2:2|2:2,2:2:0:0:
252,268,156219,2,0,P|144:160|256:92,1,300,0|2,2:2|2:2,2:2:0:0:
296,176,157682,1,8,2:2:0:0:
304,288,158658,5,8,2:2:0:0:
200,304,159634,1,0,2:2:0:0:
84,312,160609,2,0,B|84:160|84:160|248:160,1,300,0|2,2:2|2:2,2:2:0:0:
256,240,162560,6,0,B|340:156|384:184|484:344,1,300,0|2,2:2|2:2,2:2:0:0:
348,328,164024,1,10,2:2:0:0:
252,320,164512,2,2,B|132:316|156:236|308:124,1,300,2|2,2:2|2:2,2:2:0:0:
336,224,165975,1,8,2:2:0:0:
416,224,166463,6,0,L|416:64,1,150,0|2,2:2|2:2,2:2:0:0:
364,96,167435,2,0,L|212:152,1,150,0|2,2:2|2:2,2:2:0:0:
152,184,168414,2,0,L|152:340,1,150,0|2,2:2|2:2,2:2:0:0:
272,320,169390,1,8,2:2:0:0:
348,272,169878,5,8,2:2:0:0:
356,96,170365,2,0,L|220:196,1,150,0|2,2:2|2:2,2:2:0:0:
112,144,171341,2,0,L|264:48,1,150,0|8,2:2|2:2,2:2:0:0:
312,120,172317,2,0,L|432:240,1,150,0|2,2:2|2:2,2:2:0:0:
332,312,173292,1,8,2:2:0:0:
280,268,173780,2,0,L|136:160,1,150,0|2,2:2|2:2,2:2:0:0:
180,152,174752,2,0,L|336:116,1,150,0|8,2:2|2:2,2:2:0:0:
384,164,175731,2,0,L|284:300,2,150,4|2|4,2:2|2:2|2:2,2:2:0:0:
288,164,177192,2,0,L|132:160,1,150,0|2,2:2|2:2,2:2:0:0:
68,176,178167,6,0,L|72:24,1,150,0|2,2:2|2:2,2:2:0:0:
184,32,179146,2,0,L|184:212,2,150,2|8|2,2:2|2:2|2:2,2:2:0:0:
284,116,180609,2,0,P|368:120|392:48,2,150,2|8|2,2:2|2:2|2:2,2:2:0:0:
260,36,182073,2,0,P|152:16|120:64,1,150,0|2,2:2|2:2,2:2:0:0:
160,144,183048,2,0,P|232:184|328:184,1,150,0|8,2:2|2:2,2:2:0:0:
416,168,184024,2,0,L|296:56,2,150,8|2|8,2:2|2:2|2:2,2:2:0:0:
416,272,185487,6,0,L|240:272,2,150,0|2|0,2:2|2:2|2:2,2:2:0:0:
416,172,186951,2,0,L|252:172,2,150,0|2|0,2:2|2:2|2:2,2:2:0:0:
412,76,188414,2,0,L|252:80,2,150,0|2|0,2:2|2:2|2:2,2:2:0:0:
416,160,189878,2,0,B|416:336|416:336|268:336|268:336|268:184,1,450,0|2,2:2|2:2,2:2:0:0:
236,244,191829,2,0,B|232:284|224:308|216:328|184:352|160:372,1,150,0|4,2:2|2:2,2:2:0:0:
256,192,192804,12,2,197195,2:2:0:0:
248,188,197682,5,8,2:2:0:0:
256,280,199634,1,8,2:2:0:0:
116,296,201585,1,8,2:2:0:0:
100,148,203536,1,8,2:2:0:0:
152,152,206463,5,8,2:2:0:0:
256,148,206951,1,8,2:2:0:0:
328,68,207439,6,0,P|432:156|324:272,1,300,0|2,2:2|2:2,2:2:0:0:
252,268,208902,2,0,P|144:160|256:92,1,300,0|2,2:2|2:2,2:2:0:0:
296,176,210365,1,8,2:2:0:0:
276,272,211341,5,8,2:2:0:0:
172,320,212317,1,8,2:2:0:0:
80,320,213292,2,0,B|80:168|80:168|244:168,1,300,0|2,2:2|2:2,2:2:0:0:
264,120,215243,6,0,L|400:184,1,150,0|2,2:2|2:2,2:2:0:0:
436,104,216219,2,0,L|300:36,1,150,0|8,2:2|2:2,2:2:0:0:
216,44,217195,2,0,L|128:180,1,150,0|2,2:2|2:2,2:2:0:0:
200,232,218170,2,0,L|356:276,1,150,0|8,2:2|2:2,2:2:0:0:
432,264,219146,1,8,2:2:0:0:
436,164,220121,1,8,2:2:0:0:
344,136,221097,1,8,2:2:0:0:
240,164,222073,1,8,2:2:0:0:
120,168,223048,6,0,P|128:304|148:316,1,150,0|2,2:2|2:2,2:2:0:0:
204,276,224024,2,0,P|284:260|308:168,1,150,0|2,2:2|2:2,2:2:0:0:
264,144,224999,2,0,P|312:76|404:88,1,150,0|2,2:2|2:2,2:2:0:0:
436,136,225975,2,0,P|444:232|376:256,1,150,0|2,2:2|2:2,2:2:0:0:
300,312,226951,1,8,2:2:0:0:
188,280,227439,2,0,L|72:168,1,150,0|2,2:2|2:2,2:2:0:0:
156,104,228414,2,0,L|272:208,1,150,0|2,2:2|2:2,2:2:0:0:
348,132,229390,1,8,2:2:0:0:
432,40,229878,1,4,2:2:0:0:
432,128,230365,6,0,L|428:292,1,150,0|2,2:2|2:2,2:2:0:0:
336,280,231341,2,0,L|336:112,1,150,0|2,2:2|2:2,2:2:0:0:
232,128,232317,2,0,L|232:296,1,150,0|2,2:2|2:2,2:2:0:0:
136,284,233292,2,0,L|136:120,1,150,0|2,2:2|2:2,2:2:0:0:
136,32,234268,1,8,2:2:0:0:
256,32,234756,2,0,L|412:32,1,150,0|2,2:2|2:2,2:2:0:0:
412,140,235731,1,8,2:2:0:0:
412,244,236219,1,8,2:2:0:0:
348,320,236707,2,0,L|184:320,1,150,0|2,2:2|2:2,2:2:0:0:
208,232,237682,2,0,L|368:240,1,150,0|2,2:2|2:2,2:2:0:0:
440,344,238658,6,0,L|272:344,1,150,0|8,2:2|2:2,2:2:0:0:
220,344,239634,2,0,L|56:344,1,150,0|8,2:2|2:2,2:2:0:0:
72,264,240609,2,0,L|176:148,1,150,0|8,2:2|2:2,2:2:0:0:
120,64,241585,1,8,2:2:0:0:
232,60,242073,1,8,2:2:0:0:
340,64,242560,1,8,2:2:0:0:
364,152,243048,1,8,2:2:0:0:
440,208,243536,1,8,2:2:0:0:
476,312,244024,1,8,2:2:0:0:
376,348,244507,1,2,2:2:0:0:
360,240,244999,2,0,L|272:292,2,75,0|2|0,2:2|2:2|2:2,2:2:0:0:
312,204,245975,5,8,2:2:0:0:
236,132,246475,1,8,2:2:0:0:
320,96,246951,1,8,2:2:0:0:
392,100,247439,1,8,2:2:0:0:
440,44,247926,1,8,2:2:0:0:
456,132,248414,1,8,2:2:0:0:
464,212,248902,1,8,2:2:0:0:
460,292,249390,1,8,2:2:0:0:
368,324,249878,1,8,2:2:0:0:
276,332,250365,1,8,2:2:0:0:
212,276,250853,1,8,2:2:0:0:
288,200,251341,1,8,2:2:0:0:
252,104,251829,1,8,2:2:0:0:
204,196,252312,2,0,B|128:148|80:200|64:288|120:340|232:328,1,300,2|6,2:2|2:2,2:2:0:0:
256,192,253780,12,2,264024,2:2:0:0:
