osu file format v14

[General]
AudioFilename: Untitled.mp3
AudioLeadIn: 0
PreviewTime: 152665
Countdown: 0
SampleSet: Soft
StackLeniency: 0.7
Mode: 0
LetterboxInBreaks: 1
WidescreenStoryboard: 0

[Editor]
DistanceSpacing: 1.2
BeatDivisor: 4
GridSize: 8
TimelineZoom: 2.3

[Metadata]
Title:Pure Girls Project
TitleUnicode:Pure Girls Project
Artist:Printemps
ArtistUnicode:Printemps
Creator:jloughman14
Version:Hard
Source:Love Live! School Idol Project
Tags:Hanayo Koizumi Honoka Kousaka Kotori Minami
BeatmapID:662673
BeatmapSetID:294808

[Difficulty]
HPDrainRate:5.6
CircleSize:4
OverallDifficulty:6
ApproachRate:8
SliderMultiplier:1.4
SliderTickRate:1

[Events]
//Background and Video events
0,0,"hanayobackgrounf ous.jpg",0,0
//Break Periods
2,86916,94969
2,164542,172574
2,187895,191256
//Storyboard Layer 0 (Background)
//Storyboard Layer 1 (Fail)
//Storyboard Layer 2 (Pass)
//Storyboard Layer 3 (Foreground)
//Storyboard Sound Samples

[TimingPoints]
869,359.281437125748,4,2,0,70,1,0
55479,-100,4,2,0,70,0,1
84222,-100,4,2,0,70,0,0
133084,-100,4,2,0,70,0,1
161827,-100,4,2,0,70,0,0
164342,-100,4,2,0,75,0,0
164431,-100,4,2,0,70,0,0
192006,-100,4,2,0,40,0,0
203503,-100,4,2,0,60,0,0
209252,-100,4,2,0,70,0,0
213563,-100,4,2,0,70,0,1
233773,-100,4,2,0,70,0,0
233863,-100,4,2,0,70,0,1
247695,-100,4,2,0,70,0,0
260988,-100,4,2,0,75,0,0
263324,-100,4,2,0,70,0,0
267455,-100,4,2,0,75,0,0

[Colours]
Combo1 : 255,128,128
Combo2 : 0,128,192
Combo3 : 255,128,64
Combo4 : 151,9,30
Combo5 : 255,213,85
Combo6 : 0,128,64

[HitObjects]
168,200,4282,6,0,P|168:156|188:116,1,70,4|0,2:0|2:0,2:0:0:0:
252,172,4641,2,0,P|260:128|240:84,1,70,4|0,2:0|2:0,2:0:0:0:
192,44,5000,1,4,2:0:0:0:
256,192,5180,12,0,6617,0:0:0:0:
80,336,6976,6,0,L|80:256,1,70,8|0,0:0|0:0,0:0:0:0:
80,176,7336,1,0,0:0:0:0:
80,16,7695,2,0,L|240:16,1,140,8|0,0:0|0:0,0:0:0:0:
384,16,8413,2,0,L|384:96,1,70,8|0,0:0|0:0,0:0:0:0:
384,176,8773,1,0,0:0:0:0:
384,336,9132,2,0,B|336:304|304:256|304:208,1,140,8|0,0:0|0:0,0:0:0:0:
304,64,9851,6,0,L|224:64,1,70,8|0,0:0|0:0,0:0:0:0:
160,112,10210,1,0,0:0:0:0:
144,272,10569,2,0,L|144:352,1,70,8|0,0:0|0:0,0:0:0:0:
224,352,10928,1,0,0:0:0:0:
352,240,11288,2,0,L|432:240,1,70,8|0,0:0|0:0,0:0:0:0:
448,160,11647,1,0,0:0:0:0:
352,32,12006,2,0,P|272:32|216:56,1,140,8|0,0:0|0:0,0:0:0:0:
64,128,12725,1,8,0:0:0:0:
48,272,13084,6,0,P|96:304|128:304,1,70
192,304,13443,1,8,0:0:0:0:
368,304,13803,2,0,P|400:288|416:256,1,70
416,176,14162,1,8,0:0:0:0:
304,64,14521,2,0,P|272:80|256:112,1,70
176,112,14880,1,8,0:0:0:0:
0,112,15240,1,0,0:0:0:0:
80,256,15599,6,0,L|176:256,1,70,8|0,0:0|0:0,0:0:0:0:
320,256,16138,1,4,0:0:0:0:
480,256,16497,1,4,0:0:0:0:
48,96,18114,5,8,0:0:0:0:
112,48,18294,1,0,0:0:0:0:
192,48,18473,2,0,B|240:48|272:80|288:112|288:160,2,140,0|8|0,0:0|0:0|0:0,0:0:0:0:
32,96,19551,1,8,0:0:0:0:
96,144,19731,1,0,0:0:0:0:
176,144,19910,2,0,B|240:144|272:96|256:32,2,140,0|8|0,0:0|0:0|0:0,0:0:0:0:
32,176,20988,1,8,0:0:0:0:
112,176,21168,1,0,0:0:0:0:
192,176,21348,2,0,L|288:176,2,70,0|0|8,0:0|0:0|0:0,0:0:0:0:
352,176,22066,5,0,0:0:0:0:
352,336,22425,2,0,B|272:336|224:288|224:192,1,210,8|0,0:0|0:0,0:0:0:0:
224,160,23054,1,0,0:0:0:0:
224,112,23144,2,0,B|224:64|192:32|112:32|64:64|64:128,1,210,8|0,0:0|0:0,0:0:0:0:
64,176,23863,1,8,0:0:0:0:
64,256,24042,1,0,0:0:0:0:
64,336,24222,1,0,0:0:0:0:
144,336,24401,5,0,0:0:0:0:
144,256,24581,1,8,0:0:0:0:
144,176,24761,1,0,0:0:0:0:
112,96,24940,1,0,0:0:0:0:
192,96,25120,2,0,L|272:96,1,70,0|8,0:0|0:0,0:0:0:0:
432,96,25659,1,0,0:0:0:0:
432,176,25839,1,0,0:0:0:0:
432,256,26018,1,8,0:0:0:0:
432,336,26198,1,0,0:0:0:0:
352,336,26377,5,0,0:0:0:0:
352,256,26557,1,0,0:0:0:0:
352,176,26737,1,8,0:0:0:0:
192,176,27096,2,0,L|96:176,1,70
32,176,27455,1,8,0:0:0:0:
32,352,27815,2,0,L|112:352,1,70
192,352,28174,1,12,0:0:0:0:
360,352,28533,2,4,B|312:308|312:264|352:216,1,140,4|12,0:0|0:0,0:0:0:0:
408,282,29252,2,4,P|432:218|376:154,1,140,4|12,0:0|0:0,0:0:0:0:
480,48,29970,5,8,0:0:0:0:
400,48,30150,1,0,0:0:0:0:
324,48,30329,2,0,P|296:68|276:104,1,70,8|0,0:0|0:0,0:0:0:0:
193,98,30689,2,0,P|173:70|137:50,1,70,8|0,0:0|0:0,0:0:0:0:
112,136,31048,1,0,0:0:0:0:
156,208,31228,1,0,0:0:0:0:
236,224,31407,2,0,P|288:248|312:280,1,70,8|0,0:0|0:0,0:0:0:0:
368,300,31767,2,0,P|432:312|456:304,1,70,8|0,0:0|0:0,0:0:0:0:
412,232,32126,2,0,P|372:216|336:228,1,70,8|0,0:0|0:0,0:0:0:0:
276,268,32485,5,0,0:0:0:0:
204,284,32665,1,0,0:0:0:0:
136,308,32844,2,0,P|76:280|64:248,1,70,8|0,0:0|0:0,0:0:0:0:
76,196,33204,2,0,P|92:160|132:136,1,70,8|0,0:0|0:0,0:0:0:0:
156,216,33563,2,0,P|196:176|204:132,1,70,8|0,0:0|0:0,0:0:0:0:
115,141,33922,2,0,P|147:97|171:85,1,70
240,60,34281,2,0,P|276:60|312:96,1,70,8|0,0:0|0:0,0:0:0:0:
368,132,34641,1,0,0:0:0:0:
96,304,35180,6,0,L|64:240,1,70,0|8,0:0|0:0,0:0:0:0:
144,272,35539,2,0,L|128:192,1,70,0|8,0:0|0:0,0:0:0:0:
192,272,35898,2,0,L|208:192,1,70,0|8,0:0|0:0,0:0:0:0:
240,288,36258,2,0,L|272:224,1,70,0|8,0:0|0:0,0:0:0:0:
288,304,36617,2,0,L|352:256,1,70,0|8,0:0|0:0,0:0:0:0:
464,144,37156,5,0,0:0:0:0:
400,96,37336,1,0,0:0:0:0:
240,96,37695,2,0,L|160:96,2,70
320,96,38234,1,8,0:0:0:0:
320,256,38593,1,0,0:0:0:0:
240,256,38773,1,0,0:0:0:0:
160,256,38952,1,8,0:0:0:0:
32,144,39312,5,0,0:0:0:0:
112,144,39491,1,0,0:0:0:0:
288,144,39851,1,0,0:0:0:0:
368,144,40030,2,0,B|432:144|464:176|464:240,1,140,0|8,0:0|0:0,0:0:0:0:
464,304,40569,5,0,0:0:0:0:
384,304,40749,2,8,L|288:304,1,70
224,304,41108,1,4,0:0:0:0:
64,304,41467,2,8,L|128:240,1,70
176,192,41827,1,4,0:0:0:0:
320,112,42186,2,8,L|256:64,1,70
192,16,42545,1,4,0:0:0:0:
48,112,42904,5,4,0:0:0:0:
48,192,43084,1,4,0:0:0:0:
192,272,43443,1,0,0:0:0:0:
272,272,43623,2,8,L|368:272,1,70
432,272,43982,1,4,0:0:0:0:
432,96,44342,6,8,L|352:96,1,70
272,96,44701,1,4,0:0:0:0:
112,96,45060,1,8,0:0:0:0:
176,160,45240,2,0,L|240:224,1,70,8|4,0:0|0:0,0:0:0:0:
368,288,45779,1,8,0:0:0:0:
208,288,46138,1,8,0:0:0:0:
288,144,46497,1,8,0:0:0:0:
128,160,46857,6,0,B|128:208|96:224|48:224,2,105,4|0|0,0:0|0:0|0:0,0:0:0:0:
208,160,47575,2,0,B|208:208|224:224|272:224,2,105,4|0|0,0:0|0:0|0:0,0:0:0:0:
160,96,48294,2,0,L|160:208,2,105,4|0|0,0:0|0:0|0:0,0:0:0:0:
320,80,49192,1,0,0:0:0:0:
368,144,49371,1,0,0:0:0:0:
320,208,49551,1,0,0:0:0:0:
272,144,49731,1,4,0:0:0:0:
144,128,51168,5,4,0:0:0:0:
144,288,51527,2,0,P|192:288|208:256,2,70
64,144,52246,2,0,P|80:112|112:96,2,70,0|0|4,0:0|0:0|0:0,0:0:0:0:
224,192,52964,1,0,0:0:0:0:
400,192,53324,1,4,0:0:0:0:
304,64,53683,1,0,0:0:0:0:
304,224,54042,1,4,0:0:0:0:
152,173,54401,1,0,0:0:0:0:
64,192,54581,2,0,B|64:112|112:64|208:64|256:160,1,280
304,224,55479,5,8,0:0:0:0:
352,288,55659,1,0,0:0:0:0:
400,352,55839,1,0,0:0:0:0:
480,208,56198,2,0,P|448:144|384:112,1,140,8|0,0:0|0:0,0:0:0:0:
224,96,56916,1,8,0:0:0:0:
176,160,57096,1,0,0:0:0:0:
128,224,57276,1,0,0:0:0:0:
256,336,57635,2,0,L|320:208,1,140,8|0,0:0|0:0,0:0:0:0:
432,80,58354,5,8,0:0:0:0:
352,80,58533,1,0,0:0:0:0:
272,80,58713,1,0,0:0:0:0:
112,80,59072,2,0,L|32:208,1,140,8|0,0:0|0:0,0:0:0:0:
144,336,59791,1,12,0:0:0:0:
256,208,60150,1,4,0:0:0:0:
96,192,60509,1,12,0:0:0:0:
224,304,60868,1,4,0:0:0:0:
352,192,61228,1,8,0:0:0:0:
352,112,61407,1,0,0:0:0:0:
352,32,61587,1,0,0:0:0:0:
192,32,61946,6,0,B|224:80|144:128|224:176,1,140,8|0,0:0|0:0,0:0:0:0:
192,336,62665,1,8,0:0:0:0:
272,336,62845,1,0,0:0:0:0:
352,336,63024,1,0,0:0:0:0:
496,240,63383,2,0,L|352:240,1,140,8|0,0:0|0:0,0:0:0:0:
192,224,64102,1,0,0:0:0:0:
64,128,64461,1,8,0:0:0:0:
224,80,64821,1,0,0:0:0:0:
352,192,65180,2,0,L|416:240,1,70,8|4,0:0|0:0,0:0:0:0:
416,64,65719,5,0,0:0:0:0:
448,176,65898,1,8,0:0:0:0:
496,64,66078,1,0,0:0:0:0:
384,134,66258,1,0,0:0:0:0:
512,138,66437,1,0,0:0:0:0:
450,114,66617,1,12,0:0:0:0:
304,32,66976,5,8,0:0:0:0:
224,32,67156,1,0,0:0:0:0:
144,32,67336,1,0,0:0:0:0:
144,192,67695,2,0,L|304:192,1,140,8|0,0:0|0:0,0:0:0:0:
144,112,68413,1,8,0:0:0:0:
224,112,68593,1,0,0:0:0:0:
304,112,68773,1,0,0:0:0:0:
144,256,69132,2,0,L|304:256,1,140,8|0,0:0|0:0,0:0:0:0:
448,320,69851,5,8,0:0:0:0:
448,240,70030,1,0,0:0:0:0:
448,160,70210,1,0,0:0:0:0:
280,160,70569,2,0,P|312:204|288:304,1,140,8|0,0:0|0:0,0:0:0:0:
160,192,71288,1,0,0:0:0:0:
64,64,71647,1,8,0:0:0:0:
224,64,72006,1,0,0:0:0:0:
336,192,72366,1,8,0:0:0:0:
448,64,72725,5,8,0:0:0:0:
336,192,73084,1,8,0:0:0:0:
176,192,73443,1,8,0:0:0:0:
256,336,73803,1,8,0:0:0:0:
256,176,74162,1,8,0:0:0:0:
256,16,74521,2,12,L|160:16,1,70
32,80,75060,1,0,0:0:0:0:
48,112,75150,1,0,0:0:0:0:
64,144,75240,1,0,0:0:0:0:
80,176,75330,5,0,0:0:0:0:
96,208,75419,1,0,0:0:0:0:
112,240,75509,1,0,0:0:0:0:
128,272,75599,1,4,0:0:0:0:
288,272,75958,1,8,0:0:0:0:
464,272,76318,1,0,0:0:0:0:
288,272,76677,2,0,L|384:272,1,70,8|0,0:0|0:0,0:0:0:0:
352,16,77395,1,8,0:0:0:0:
176,16,77755,5,0,0:0:0:0:
256,160,78114,1,8,0:0:0:0:
416,176,78473,2,0,L|416:272,1,70
336,240,78833,2,0,L|336:160,1,70,8|0,0:0|0:0,0:0:0:0:
256,176,79192,2,0,L|256:256,1,70
176,240,79551,2,0,L|176:160,1,70,8|0,0:0|0:0,0:0:0:0:
176,80,79910,1,0,0:0:0:0:
352,80,80270,5,8,0:0:0:0:
16,80,80988,2,0,L|16:160,1,70,8|0,0:0|0:0,0:0:0:0:
16,240,81348,1,4,0:0:0:0:
80,80,81707,1,8,0:0:0:0:
80,160,81886,2,0,L|80:240,1,70,0|4,0:0|0:0,0:0:0:0:
160,80,82425,1,8,0:0:0:0:
160,160,82605,2,0,L|160:240,1,70
160,320,82964,2,0,L|256:320,1,70,0|8,0:0|0:0,0:0:0:0:
240,240,83324,6,0,L|240:160,1,70
352,48,83863,1,12,0:0:0:0:
192,48,84222,1,4,0:0:0:0:
176,192,95719,6,0,L|272:192,1,70,8|0,0:0|0:0,0:0:0:0:
336,192,96078,1,0,0:0:0:0:
416,192,96258,1,0,0:0:0:0:
208,48,96797,1,0,0:0:0:0:
128,48,96976,2,0,L|48:48,1,70,0|8,0:0|0:0,0:0:0:0:
64,304,97695,6,0,L|144:304,1,70
224,304,98054,1,0,0:0:0:0:
304,304,98234,1,0,0:0:0:0:
304,144,98593,1,8,0:0:0:0:
144,144,98952,1,0,0:0:0:0:
192,80,99132,1,0,0:0:0:0:
240,144,99312,1,0,0:0:0:0:
400,96,99671,6,0,L|400:256,1,140,0|8,0:0|0:0,0:0:0:0:
160,288,100569,1,0,0:0:0:0:
144,256,100659,1,0,0:0:0:0:
128,224,100749,1,0,0:0:0:0:
352,96,101288,2,0,L|384:176,1,70,0|8,0:0|0:0,0:0:0:0:
272,48,101827,1,4,0:0:0:0:
304,128,102006,2,0,L|336:192,1,70
208,80,102545,1,4,0:0:0:0:
256,160,102725,2,0,L|288:224,1,70
144,96,103264,1,4,0:0:0:0:
144,176,103443,6,0,B|144:256|208:288|240:288,1,140
304,288,103982,1,0,0:0:0:0:
384,288,104162,1,0,0:0:0:0:
464,288,104342,2,0,L|464:192,1,70
416,64,104701,5,0,0:0:0:0:
448,176,104880,1,0,0:0:0:0:
496,64,105060,1,0,0:0:0:0:
384,134,105240,1,0,0:0:0:0:
512,138,105419,1,0,0:0:0:0:
450,114,105599,1,0,0:0:0:0:
352,80,105779,1,4,0:0:0:0:
224,112,106138,6,4,L|64:112,1,140
80,288,106857,2,4,L|224:288,1,140
32,336,107575,5,0,0:0:0:0:
112,336,107755,1,0,0:0:0:0:
188,336,107934,2,8,P|216:316|236:280,1,70
320,288,108294,2,8,P|348:312|400:336,1,70
388,252,108653,1,0,0:0:0:0:
336,200,108832,1,0,0:0:0:0:
276,160,109012,2,8,P|224:136|200:104,1,70
144,84,109372,2,8,P|80:72|56:80,1,70
100,152,109731,2,8,P|140:168|176:156,1,70
228,108,110090,5,0,0:0:0:0:
300,76,110270,1,0,0:0:0:0:
376,76,110449,2,8,P|436:104|448:136,1,70
436,188,110809,2,8,P|420:224|380:248,1,70
356,168,111168,2,8,P|316:208|308:252,1,70
392,240,111527,2,0,P|360:284|336:296,1,70
272,324,111886,2,0,P|236:324|200:288,1,70,0|8,0:0|0:0,0:0:0:0:
144,252,112246,5,8,0:0:0:0:
96,304,112785,6,8,L|64:240,1,70
144,272,113144,2,8,L|128:192,1,70
192,272,113503,2,8,L|208:192,1,70
240,288,113863,2,8,L|272:224,1,70
288,304,114222,2,8,L|352:256,1,70
384,80,114761,1,8,0:0:0:0:
384,160,114940,5,0,0:0:0:0:
384,336,115300,1,0,0:0:0:0:
304,336,115479,1,8,0:0:0:0:
224,336,115659,1,0,0:0:0:0:
224,80,116198,2,0,L|304:80,2,70,8|0|0,0:0|0:0|0:0,0:0:0:0:
64,80,116916,2,0,L|64:160,1,70,8|0,0:0|0:0,0:0:0:0:
64,320,117455,2,0,L|64:240,1,70,0|8,0:0|0:0,0:0:0:0:
192,352,117994,5,0,0:0:0:0:
256,304,118174,1,0,0:0:0:0:
320,256,118354,1,8,0:0:0:0:
384,208,118533,1,8,0:0:0:0:
448,160,118713,1,8,0:0:0:0:
512,112,118892,1,8,0:0:0:0:
80,48,120150,1,4,0:0:0:0:
80,208,120509,2,0,L|144:272,1,70
32,112,121048,5,8,0:0:0:0:
112,112,121228,1,8,0:0:0:0:
192,112,121407,1,8,0:0:0:0:
272,112,121587,1,8,0:0:0:0:
352,112,121767,1,8,0:0:0:0:
32,192,122485,1,0,0:0:0:0:
288,192,123024,1,4,0:0:0:0:
448,192,123383,1,0,0:0:0:0:
352,48,123743,5,0,0:0:0:0:
352,208,124102,1,0,0:0:0:0:
208,128,124461,2,0,B|160:128|128:160|144:224,2,105,4|0|0,0:0|0:0|0:0,0:0:0:0:
272,176,125180,2,0,B|283:207|251:239|203:239,2,105,4|0|0,0:0|0:0|0:0,0:0:0:0:
272,96,125898,2,0,L|160:96,2,105,4|0|0,0:0|0:0|0:0,0:0:0:0:
128,176,126797,1,0,0:0:0:0:
128,256,126976,1,0,0:0:0:0:
128,336,127156,1,0,0:0:0:0:
128,256,127336,1,12,0:0:0:0:
464,64,128773,5,4,0:0:0:0:
352,192,129132,2,0,P|368:224|400:240,2,70
224,80,129851,2,0,P|192:112|144:96,2,70,0|0|8,0:0|0:0|0:0,0:0:0:0:
96,192,130569,1,0,0:0:0:0:
256,256,130928,1,8,0:0:0:0:
416,192,131288,1,0,0:0:0:0:
256,128,131647,1,8,0:0:0:0:
96,112,132006,1,0,0:0:0:0:
96,192,132186,2,0,B|96:272|160:336|256:320,1,210
400,320,133084,5,8,0:0:0:0:
400,240,133264,1,0,0:0:0:0:
400,160,133443,1,0,0:0:0:0:
224,160,133803,2,0,B|256:192|256:240|224:304,1,140,8|0,0:0|0:0,0:0:0:0:
96,192,134521,1,8,0:0:0:0:
144,128,134701,1,0,0:0:0:0:
192,64,134880,1,0,0:0:0:0:
368,64,135240,2,0,L|368:208,1,140,8|0,0:0|0:0,0:0:0:0:
256,320,135958,5,8,0:0:0:0:
256,240,136138,1,0,0:0:0:0:
256,160,136318,1,0,0:0:0:0:
112,80,136677,2,0,L|256:80,1,140,8|0,0:0|0:0,0:0:0:0:
416,80,137395,1,12,0:0:0:0:
256,160,137755,1,4,0:0:0:0:
112,240,138114,1,12,0:0:0:0:
256,324,138473,1,4,0:0:0:0:
384,216,138833,5,8,0:0:0:0:
336,152,139012,1,0,0:0:0:0:
288,88,139192,1,0,0:0:0:0:
128,64,139551,2,0,B|96:128|176:128|112:208,1,140,8|0,0:0|0:0,0:0:0:0:
16,320,140270,1,8,0:0:0:0:
96,320,140449,1,0,0:0:0:0:
176,320,140629,1,0,0:0:0:0:
327,247,140988,2,0,P|375:303|455:343,1,140,8|0,0:0|0:0,0:0:0:0:
416,160,141707,5,8,0:0:0:0:
416,32,142066,1,0,0:0:0:0:
256,96,142425,1,8,0:0:0:0:
96,160,142785,2,0,L|96:256,1,70
256,272,143324,2,0,L|256:192,1,70
336,192,143683,2,0,L|336:272,1,70,0|8,0:0|0:0,0:0:0:0:
416,272,144042,2,0,L|416:192,1,70
432,32,144581,5,8,0:0:0:0:
352,32,144761,1,0,0:0:0:0:
272,32,144940,1,0,0:0:0:0:
132,32,145300,2,0,L|276:32,1,140,8|0,0:0|0:0,0:0:0:0:
36,32,146018,1,8,0:0:0:0:
132,32,146198,1,0,0:0:0:0:
224,32,146377,1,0,0:0:0:0:
364,32,146737,2,0,L|220:32,1,140,8|0,0:0|0:0,0:0:0:0:
256,192,147455,6,0,L|368:192,2,105,8|0|0,0:0|0:0|0:0,0:0:0:0:
48,336,148533,2,0,P|48:240|80:208,1,140,0|8,0:0|0:0,0:0:0:0:
208,112,149252,1,8,0:0:0:0:
336,208,149611,1,8,0:0:0:0:
208,320,149970,1,8,0:0:0:0:
80,208,150330,1,12,0:0:0:0:
208,320,150689,1,4,0:0:0:0:
208,112,151048,1,12,0:0:0:0:
288,256,151407,5,4,0:0:0:0:
144,160,151767,1,12,0:0:0:0:
304,128,152126,1,4,0:0:0:0:
368,80,152306,1,4,0:0:0:0:
480,32,152665,5,0,0:0:0:0:
464,64,152755,1,0,0:0:0:0:
448,96,152845,1,0,0:0:0:0:
432,128,152934,1,0,0:0:0:0:
416,160,153024,1,0,0:0:0:0:
400,192,153114,1,0,0:0:0:0:
384,224,153204,1,4,0:0:0:0:
224,224,153563,5,8,0:0:0:0:
64,224,153922,1,0,0:0:0:0:
160,96,154282,2,0,L|160:192,1,70,8|0,0:0|0:0,0:0:0:0:
160,256,154641,1,0,0:0:0:0:
320,256,155000,1,8,0:0:0:0:
160,256,155360,1,0,0:0:0:0:
64,112,155719,5,8,0:0:0:0:
224,112,156078,2,0,L|320:112,1,70
288,192,156437,2,0,L|192:192,1,70,8|0,0:0|0:0,0:0:0:0:
224,272,156797,2,0,L|304:272,1,70
304,352,157156,2,0,L|224:352,1,70,8|0,0:0|0:0,0:0:0:0:
144,352,157515,1,0,0:0:0:0:
80,192,157874,5,8,0:0:0:0:
144,32,158234,1,0,0:0:0:0:
304,32,158593,2,0,L|304:128,1,70,8|0,0:0|0:0,0:0:0:0:
304,192,158952,1,4,0:0:0:0:
304,368,159312,1,8,0:0:0:0:
384,368,159491,2,0,L|384:272,1,70,0|4,0:0|0:0,0:0:0:0:
384,128,160030,1,8,0:0:0:0:
304,128,160210,2,0,L|224:128,1,70,0|4,0:0|0:0,0:0:0:0:
224,208,160569,6,0,L|320:208,1,70
304,288,160928,2,0,L|224:288,1,70
64,288,161467,1,0,0:0:0:0:
256,192,161827,12,0,164342,0:0:0:0:
48,48,173324,6,0,B|16:112|32:192|96:240,1,210
151,296,174042,1,0,0:0:0:0:
320,352,174401,2,0,P|352:272|288:96,1,280,0|8,0:0|0:0,0:0:0:0:
208,96,175300,1,0,0:0:0:0:
160,160,175479,1,0,0:0:0:0:
160,240,175659,1,0,0:0:0:0:
224,288,175839,1,8,0:0:0:0:
304,288,176018,1,0,0:0:0:0:
352,224,176198,2,0,B|352:144|352:144|272:96,1,140,0|8,0:0|0:0,0:0:0:0:
230,113,176737,6,0,L|326:113,1,70
131,113,177276,1,8,0:0:0:0:
48,112,177455,2,0,L|48:208,1,70
224,176,177994,2,0,L|224:80,1,70,8|0,0:0|0:0,0:0:0:0:
224,358,178713,1,8,0:0:0:0:
64,288,179072,1,0,0:0:0:0:
144,288,179252,2,0,B|192:288|224:192|256:368|320:192|416:304,1,280
448,288,180060,2,0,L|496:256,2,35,0|8|0,0:0|0:0|0:0,0:0:0:0:
368,192,180509,6,0,L|416:176,3,35
416,144,180868,2,0,L|384:96,4,35,8|0|0|0|0,0:0|0:0|0:0|0:0|0:0,0:0:0:0:
176,176,181587,1,8,0:0:0:0:
64,304,181946,1,4,0:0:0:0:
64,224,182126,1,4,0:0:0:0:
208,304,182485,2,0,L|496:304,1,280,0|8,0:0|0:0,0:0:0:0:
496,224,183383,5,4,0:0:0:0:
496,144,183563,1,4,0:0:0:0:
496,16,183922,2,0,L|336:16,1,140
288,48,184461,2,0,L|224:96,1,70,8|0,0:0|0:0,0:0:0:0:
176,144,184821,1,0,0:0:0:0:
176,304,185180,1,8,0:0:0:0:
256,304,185360,1,0,0:0:0:0:
416,304,185719,1,0,0:0:0:0:
416,144,186078,6,4,B|368:192|320:112|272:192,2,140
240,144,187156,1,0,0:0:0:0:
80,144,187515,1,4,0:0:0:0:
80,64,187695,1,4,0:0:0:0:
32,48,192006,5,0,0:0:0:0:
80,112,192186,1,0,0:0:0:0:
208,128,192545,2,0,L|288:128,1,70,0|8,0:0|0:0,0:0:0:0:
480,48,193443,1,0,0:0:0:0:
432,112,193623,1,0,0:0:0:0:
272,128,193982,2,0,L|192:128,1,70,0|8,0:0|0:0,0:0:0:0:
64,320,194880,5,0,0:0:0:0:
112,256,195060,1,0,0:0:0:0:
272,256,195419,2,0,L|192:256,1,70,0|8,0:0|0:0,0:0:0:0:
464,48,196318,1,0,0:0:0:0:
304,48,196677,1,0,0:0:0:0:
304,208,197036,1,0,0:0:0:0:
464,208,197395,1,0,0:0:0:0:
368,352,197755,5,0,0:0:0:0:
288,352,197934,1,0,0:0:0:0:
112,352,198294,2,0,L|112:272,1,70,0|8,0:0|0:0,0:0:0:0:
448,352,199192,1,0,0:0:0:0:
448,272,199371,1,0,0:0:0:0:
448,96,199731,2,0,L|448:192,1,70,0|8,0:0|0:0,0:0:0:0:
112,160,200629,5,0,0:0:0:0:
224,32,200988,1,0,0:0:0:0:
256,192,201348,1,0,0:0:0:0:
144,64,201707,2,0,L|208:128,1,70
112,256,202246,2,0,L|192:256,1,70
192,176,202605,2,0,L|112:176,1,70
112,96,202964,2,0,L|192:96,1,70
352,96,203503,5,4,0:0:0:0:
352,352,204042,2,0,L|352:256,1,70,0|8,0:0|0:0,0:0:0:0:
96,64,204940,1,0,0:0:0:0:
96,192,205210,1,0,0:0:0:0:
96,320,205479,2,0,L|96:224,1,70,0|8,0:0|0:0,0:0:0:0:
432,192,206377,5,0,0:0:0:0:
256,192,206737,2,0,L|256:96,2,70,0|0|8,0:0|0:0|0:0,0:0:0:0:
496,16,207815,1,0,0:0:0:0:
336,16,208174,1,0,0:0:0:0:
496,80,208533,1,0,0:0:0:0:
336,80,208892,1,0,0:0:0:0:
336,256,209252,5,8,0:0:0:0:
256,256,209431,2,0,L|160:256,1,70,0|4,0:0|0:0,0:0:0:0:
336,176,209970,1,8,0:0:0:0:
256,176,210150,2,0,L|160:176,1,70,0|4,0:0|0:0,0:0:0:0:
336,96,210689,1,8,0:0:0:0:
256,96,210868,2,0,L|160:96,1,70,0|4,0:0|0:0,0:0:0:0:
256,192,211228,12,8,213204,0:0:0:0:
48,112,213563,5,8,0:0:0:0:
48,192,213743,1,0,0:0:0:0:
48,272,213922,1,0,0:0:0:0:
224,272,214282,2,0,L|336:144,1,140,8|0,0:0|0:0,0:0:0:0:
448,64,215000,1,8,0:0:0:0:
368,64,215180,1,0,0:0:0:0:
288,64,215360,1,0,0:0:0:0:
148,64,215719,2,0,L|308:64,1,140,8|0,0:0|0:0,0:0:0:0:
160,212,216437,5,8,0:0:0:0:
252,240,216617,1,0,0:0:0:0:
292,148,216797,1,0,0:0:0:0:
160,48,217156,2,0,L|224:176,1,140,8|0,0:0|0:0,0:0:0:0:
64,192,217874,1,8,0:0:0:0:
208,112,218234,1,8,0:0:0:0:
256,272,218593,1,8,0:0:0:0:
144,160,218952,1,8,0:0:0:0:
92,308,219312,5,8,0:0:0:0:
140,244,219491,1,0,0:0:0:0:
92,308,219671,1,0,0:0:0:0:
224,352,220030,2,0,L|80:304,1,140,8|0,0:0|0:0,0:0:0:0:
256,352,220749,1,8,0:0:0:0:
188,336,220928,1,0,0:0:0:0:
120,320,221108,1,0,0:0:0:0:
256,352,221467,2,0,L|112:320,1,140,8|0,0:0|0:0,0:0:0:0:
256,224,222186,5,12,0:0:0:0:
256,64,222545,1,4,0:0:0:0:
112,144,222904,1,12,0:0:0:0:
288,144,223264,1,4,0:0:0:0:
368,144,223443,1,4,0:0:0:0:
198,64,223802,1,0,0:0:0:0:
128,64,223982,2,0,L|208:64,1,70
208,144,224342,2,0,L|128:144,1,70,8|0,0:0|0:0,0:0:0:0:
120,224,224701,2,0,L|216:224,1,70
272,224,225060,5,8,0:0:0:0:
336,176,225240,1,0,0:0:0:0:
400,128,225419,1,0,0:0:0:0:
236,76,225779,2,0,L|348:188,1,140,8|0,0:0|0:0,0:0:0:0:
464,64,226497,1,8,0:0:0:0:
464,144,226677,1,0,0:0:0:0:
464,224,226857,1,0,0:0:0:0:
400,64,227216,2,0,L|400:224,1,140,8|0,0:0|0:0,0:0:0:0:
336,64,227934,5,8,0:0:0:0:
336,144,228114,1,0,0:0:0:0:
336,224,228294,1,0,0:0:0:0:
400,64,228653,2,0,L|400:224,1,140,8|0,0:0|0:0,0:0:0:0:
240,192,229371,1,8,0:0:0:0:
112,80,229731,1,0,0:0:0:0:
240,0,230090,1,8,0:0:0:0:
368,96,230449,1,0,0:0:0:0:
256,224,230809,5,12,0:0:0:0:
368,96,231168,1,4,0:0:0:0:
480,224,231527,1,12,0:0:0:0:
368,352,231886,1,4,0:0:0:0:
480,224,232246,1,12,0:0:0:0:
320,224,232605,2,4,L|224:224,1,70
192,144,233144,5,0,0:0:0:0:
208,112,233234,1,0,0:0:0:0:
224,80,233324,1,0,0:0:0:0:
240,48,233413,1,0,0:0:0:0:
272,32,233503,1,0,0:0:0:0:
304,48,233593,1,0,0:0:0:0:
320,80,233683,1,4,0:0:0:0:
400,224,234042,6,0,L|320:272,1,70,8|0,0:0|0:0,0:0:0:0:
384,320,234401,2,0,L|464:272,1,70
464,208,234761,2,0,L|512:272,1,70,8|0,0:0|0:0,0:0:0:0:
416,144,235120,2,0,L|432:64,1,70
352,208,235479,2,0,L|320:272,1,70,8|0,0:0|0:0,0:0:0:0:
304,144,235839,2,0,L|288:64,1,70
400,128,236198,2,0,L|432:224,1,70,8|0,0:0|0:0,0:0:0:0:
336,192,236557,6,0,L|272:224,1,70
416,192,236916,2,0,L|496:192,1,70,8|0,0:0|0:0,0:0:0:0:
384,112,237276,2,0,L|352:32,1,70
288,112,237635,2,0,L|240:176,1,70,8|0,0:0|0:0,0:0:0:0:
192,224,237994,2,0,L|80:32,1,210
48,48,239072,1,8,0:0:0:0:
48,128,239252,2,0,L|48:224,1,70,0|4,0:0|0:0,0:0:0:0:
48,368,239791,1,8,0:0:0:0:
128,368,239970,6,0,L|128:288,1,70,0|4,0:0|0:0,0:0:0:0:
128,128,240509,1,8,0:0:0:0:
208,128,240689,2,0,L|288:128,1,70
160,176,241048,2,0,L|112:240,1,70,0|8,0:0|0:0,0:0:0:0:
160,80,241407,2,0,L|96:32,1,70
272,32,241946,1,8,0:0:0:0:
256,192,242306,12,0,243743,0:0:0:0:
192,192,243922,5,0,0:0:0:0:
240,128,244102,1,8,0:0:0:0:
288,192,244282,1,0,0:0:0:0:
240,256,244461,1,8,0:0:0:0:
160,256,244641,1,0,0:0:0:0:
128,176,244821,1,8,0:0:0:0:
176,112,245000,1,0,0:0:0:0:
256,80,245180,1,8,0:0:0:0:
336,80,245360,6,0,L|432:80,1,70,0|12,0:0|0:0,0:0:0:0:
416,240,245898,2,0,L|320:240,1,70,8|0,0:0|0:0,0:0:0:0:
256,240,246258,1,4,0:0:0:0:
112,160,246617,1,8,0:0:0:0:
176,112,246797,1,0,0:0:0:0:
96,80,246976,1,8,0:0:0:0:
160,32,247156,1,0,0:0:0:0:
240,32,247336,1,8,0:0:0:0:
192,192,247695,1,0,0:0:0:0:
256,192,248054,12,8,249491,0:0:0:0:
208,192,249671,5,0,0:0:0:0:
128,192,249851,1,0,0:0:0:0:
128,32,250210,2,0,L|288:32,1,140,8|0,0:0|0:0,0:0:0:0:
416,112,250928,1,8,0:0:0:0:
416,192,251108,1,0,0:0:0:0:
416,272,251288,1,0,0:0:0:0:
256,272,251647,2,0,L|256:128,1,140,8|0,0:0|0:0,0:0:0:0:
116,128,252366,5,8,0:0:0:0:
196,128,252545,1,0,0:0:0:0:
116,128,252725,1,0,0:0:0:0:
256,128,253084,2,0,L|112:128,1,140,8|0,0:0|0:0,0:0:0:0:
112,304,253803,1,8,0:0:0:0:
192,304,253982,1,0,0:0:0:0:
272,304,254162,1,0,0:0:0:0:
128,224,254521,2,0,L|272:224,1,140,8|0,0:0|0:0,0:0:0:0:
416,160,255240,5,8,0:0:0:0:
480,112,255419,1,0,0:0:0:0:
416,64,255599,1,0,0:0:0:0:
256,128,255958,2,0,L|96:128,1,140,8|0,0:0|0:0,0:0:0:0:
256,208,256677,1,8,0:0:0:0:
256,128,256857,1,0,0:0:0:0:
256,48,257036,1,0,0:0:0:0:
96,48,257395,2,0,L|96:208,1,140,8|0,0:0|0:0,0:0:0:0:
192,336,258114,5,12,0:0:0:0:
256,288,258294,1,0,0:0:0:0:
256,208,258473,1,0,0:0:0:0:
208,144,258653,1,12,0:0:0:0:
192,336,259192,1,12,0:0:0:0:
128,288,259371,1,0,0:0:0:0:
128,208,259551,1,0,0:0:0:0:
176,144,259731,1,12,0:0:0:0:
320,96,260270,5,12,0:0:0:0:
240,96,260449,1,0,0:0:0:0:
160,96,260629,1,0,0:0:0:0:
80,96,260809,1,12,0:0:0:0:
80,176,260988,2,0,L|176:176,2,70
150,176,261527,1,0,0:0:0:0:
80,288,262066,2,0,L|80:368,2,70
80,288,262605,1,0,0:0:0:0:
320,192,263144,5,0,0:0:0:0:
112,192,263324,1,8,0:0:0:0:
240,32,263503,1,8,0:0:0:0:
256,192,263683,12,0,267455,0:0:0:0:
