osu file format v13

[General]
AudioFilename: eien friends.mp3
AudioLeadIn: 310
PreviewTime: 78613
Countdown: 0
SampleSet: Soft
StackLeniency: 0.7
Mode: 0
LetterboxInBreaks: 0
WidescreenStoryboard: 0

[Editor]
DistanceSpacing: 1.7
BeatDivisor: 4
GridSize: 4
TimelineZoom: 4.099998

[Metadata]
Title:Eien Friends
TitleUnicode:永遠フレンズ
Artist:Printemps
ArtistUnicode:Printemps
Creator:Sakaue Nachi
Version:Friends
Source:Love Live! School idol project
Tags:ラブライブ! µ's Kousaka Honoka Minami Kotori Koizumi Hanayo 高坂穂乃果 南ことり 小泉花陽 [CSGA]Ar3sgice 新田恵海 内田彩 久保ユリカ Nitta Emi Uchida Aya Kubo Yurika
BeatmapID:546514
BeatmapSetID:235836

[Difficulty]
HPDrainRate:6
CircleSize:4
OverallDifficulty:7.7
ApproachRate:9
SliderMultiplier:1.8
SliderTickRate:1

[Events]
//Background and Video events
0,0,"bg.jpg",0,0
//Break Periods
2,182467,185129
//Storyboard Layer 0 (Background)
//Storyboard Layer 1 (Fail)
//Storyboard Layer 2 (Pass)
//Storyboard Layer 3 (Foreground)
//Storyboard Sound Samples

[TimingPoints]
729,384.615384615385,4,2,1,50,1,0
1690,-125,4,2,1,50,0,0
14575,-100,4,2,1,70,0,0
39190,-111.111111111111,4,2,2,30,0,0
50825,-111.111111111111,4,2,1,40,0,0
51402,-111.111111111111,4,2,1,60,0,0
51690,-111.111111111111,4,2,1,40,0,0
62171,-111.111111111111,4,2,2,40,0,0
63229,-111.111111111111,4,2,1,40,0,0
63805,-111.111111111111,4,2,2,65,0,0
69959,-111.111111111111,4,2,2,50,0,0
79190,-90.9090909090909,4,2,1,80,0,1
103805,-100,4,2,1,65,0,0
116979,-100,4,2,1,50,0,0
117363,-100,4,2,1,65,0,0
129382,-100,4,2,1,40,0,0
140729,-100,4,2,2,40,0,0
141690,-100,4,2,1,40,0,0
142267,-111.111111111111,4,2,1,65,0,0
148421,-100,4,2,2,50,0,0
157652,-90.9090909090909,4,2,1,80,0,1
182267,-100,4,2,1,65,0,0
185729,-142.857142857143,4,2,1,65,0,0
197652,-100,4,2,1,65,0,0
209959,-100,4,2,1,70,0,1
234575,-111.111111111111,4,2,1,65,0,0
246882,-111.111111111111,4,2,1,40,0,0
248421,-100,4,2,2,50,0,0
249479,-100,4,2,1,50,0,0
249671,-100,4,2,2,50,0,0
249959,-90.9090909090909,4,2,1,80,0,1
274575,-100,4,2,1,65,0,0
299575,-117.647058823529,4,2,1,60,0,0
309979,384.615384615385,4,2,1,50,1,0
311421,-117.647058823529,4,2,1,35,0,0
312286,-117.647058823529,4,2,1,45,0,0
313055,-117.647058823529,4,2,1,60,0,0
314209,-117.647058823529,4,2,1,70,0,0
314882,-117.647058823529,4,2,1,5,0,0

[Colours]
Combo1 : 201,46,46
Combo2 : 196,196,0
Combo3 : 253,204,204

[HitObjects]
143,175,1690,6,0,L|132:266,2,72,0|0|0,0:0|0:0|0:0,0:0:0:0:
143,174,2267,2,0,P|210:154|271:188,1,144,4|0,0:0|0:0,0:0:0:0:
136,266,2844,2,0,P|93:253|62:219,1,72,2|0,0:0|0:0,0:0:0:0:
217,129,3229,2,0,L|232:30,1,72,2|0,0:0|0:0,0:0:0:0:
346,138,3613,2,0,P|384:176|487:172,1,144,2|2,0:0|0:0,0:0:0:0:
466,39,4190,2,0,P|443:66|431:100,1,72,2|2,0:0|0:0,0:0:0:0:
255,314,4767,6,0,P|221:323|193:345,2,72,2|2|0,0:0|0:0|0:0,0:0:0:0:
255,314,5344,2,0,P|329:337|394:306,1,144,2|2,0:0|0:0,0:0:0:0:
432,188,5921,2,0,L|423:106,1,72,2|0,0:0|0:0,0:0:0:0:
378,43,6305,1,0,0:0:0:0:
330,115,6498,1,0,0:0:0:0:
289,38,6690,2,0,B|225:24|225:24|142:33,1,144,2|0,0:0|0:0,0:0:0:0:
43,132,7267,1,0,0:0:0:0:
43,131,7459,2,0,P|112:135|149:194,1,144,2|2,0:0|0:0,0:0:0:0:
165,329,8036,1,2,0:0:0:0:
345,228,8421,6,0,L|438:220,1,72,8|0,0:1|0:0,0:0:0:0:
287,144,8805,2,0,L|183:155,1,72,8|2,0:1|0:0,0:0:0:0:
388,110,9190,2,0,L|395:34,1,72,8|2,0:1|0:0,0:0:0:0:
287,144,9574,2,0,L|278:218,1,72,8|2,0:1|0:0,0:0:0:0:
212,282,9959,5,8,0:1:0:0:
151,210,10152,1,2,0:0:0:0:
287,144,10344,1,8,0:1:0:0:
303,295,10536,1,2,0:0:0:0:
303,295,10632,1,0,0:0:0:0:
303,295,10729,1,8,0:1:0:0:
124,219,10921,1,2,0:0:0:0:
221,183,11113,2,0,L|229:111,1,72,8|0,0:1|0:0,0:0:0:0:
132,304,11498,6,0,L|60:308,1,72,8|0,0:1|0:0,0:0:0:0:
15,190,11882,1,8,0:1:0:0:
205,332,12075,1,2,0:0:0:0:
225,153,12267,2,0,L|218:225,1,72,8|0,0:1|0:0,0:0:0:0:
205,332,12652,1,8,0:1:0:0:
317,106,12844,2,0,L|327:208,1,72,2|8,0:0|0:1,0:0:0:0:
279,294,13229,1,8,0:1:0:0:
400,191,13421,1,8,0:1:0:0:
202,245,13613,1,8,0:1:0:0:
398,295,13805,5,2,3:0:0:0:
425,272,13901,1,2,3:0:0:0:
445,242,13997,1,2,3:0:0:0:
455,208,14093,1,2,3:0:0:0:
455,172,14189,1,8,0:3:0:0:
443,138,14285,1,2,0:0:0:0:
422,109,14381,1,2,0:0:0:0:
394,87,14478,1,2,0:0:0:0:
355,83,14575,6,0,P|310:100|270:96,1,90,4|0,0:0|0:0,0:0:0:0:
86,194,14959,2,0,P|110:152|144:131,1,90,8|2,0:0|0:0,0:0:0:0:
306,212,15344,2,0,P|259:200|228:175,1,90,0|2,0:0|0:0,0:0:0:0:
125,49,15729,1,8,0:0:0:0:
125,49,15921,1,2,0:0:0:0:
86,194,16113,6,0,B|95:245|95:245|88:291,1,90,0|2,0:0|0:0,0:0:0:0:
6,113,16498,1,8,0:0:0:0:
89,282,16690,1,2,0:0:0:0:
249,167,16882,2,0,L|299:90,1,90,0|0,0:0|0:0,0:0:0:0:
208,18,17267,1,8,0:0:0:0:
86,194,17459,1,0,0:0:0:0:
265,219,17652,6,0,L|315:142,1,90,2|0,0:0|0:0,0:0:0:0:
431,264,18036,2,0,L|446:370,1,90,8|2,0:0|0:0,0:0:0:0:
265,219,18421,1,2,0:0:0:0:
350,329,18613,1,0,0:0:0:0:
454,158,18805,1,8,0:0:0:0:
345,244,18998,1,2,0:0:0:0:
362,83,19190,5,2,0:0:0:0:
362,83,19286,1,2,0:0:0:0:
362,83,19382,1,2,0:0:0:0:
265,219,19575,1,8,0:0:0:0:
440,103,19767,2,0,P|396:12|317:17,1,180,2|0,0:0|0:0,0:0:0:0:
192,192,20344,1,8,0:0:0:0:
362,83,20536,1,2,0:0:0:0:
417,259,20729,6,0,P|354:319|265:263,1,180,2|8,0:0|0:0,0:0:0:0:
358,147,21305,1,2,0:0:0:0:
276,287,21498,2,0,L|251:373,1,90,0|2,0:0|0:0,0:0:0:0:
152,273,21882,2,0,L|58:291,1,90,8|2,0:0|0:0,0:0:0:0:
188,189,22267,5,0,0:0:0:0:
160,359,22459,1,2,0:0:0:0:
269,186,22652,1,8,0:0:0:0:
349,345,22844,1,2,0:0:0:0:
152,273,23036,2,0,P|107:274|49:297,1,90,0|2,0:0|0:0,0:0:0:0:
276,271,23421,2,0,P|315:248|355:201,1,90,8|2,0:0|0:0,0:0:0:0:
189,87,23805,6,0,P|104:73|54:142,1,180,2|8,0:0|0:0,0:0:0:0:
109,326,24382,1,2,0:0:0:0:
276,271,24575,2,0,L|285:170,1,90,0|2,0:0|0:0,0:0:0:0:
474,124,24959,1,8,0:0:0:0:
349,268,25152,1,2,0:0:0:0:
486,213,25344,5,0,0:0:0:0:
277,131,25536,1,10,0:0:0:0:
349,268,25729,2,0,L|361:366,1,90,10|10,0:0|0:0,0:0:0:0:
189,330,26113,2,0,L|136:339,1,45,8|0,0:0|0:0,0:0:0:0:
175,207,26305,2,0,L|128:191,1,45,2|0,0:0|0:0,0:0:0:0:
277,131,26498,2,0,L|249:91,1,45,8|0,0:0|0:0,0:0:0:0:
349,268,26690,2,0,L|337:219,1,45,8|0,0:0|0:0,0:0:0:0:
383,353,26882,6,0,P|436:294|408:198,1,180,4|8,0:0|0:0,0:0:0:0:
277,131,27459,1,2,0:0:0:0:
349,268,27652,1,0,0:0:0:0:
226,207,27844,1,2,0:0:0:0:
226,207,27940,1,0,0:0:0:0:
226,207,28036,1,8,0:0:0:0:
298,341,28229,1,2,0:0:0:0:
373,170,28421,5,0,0:0:0:0:
226,207,28613,1,2,0:0:0:0:
396,286,28805,1,8,0:0:0:0:
226,207,28998,1,2,0:0:0:0:
434,136,29190,2,0,P|461:95|470:46,1,90,0|2,0:0|0:0,0:0:0:0:
360,196,29575,1,8,0:0:0:0:
512,249,29767,1,2,0:0:0:0:
371,345,29959,5,2,0:0:0:0:
434,136,30152,1,0,0:0:0:0:
307,266,30344,2,0,L|202:278,1,90,8|2,0:0|0:0,0:0:0:0:
146,114,30729,1,0,0:0:0:0:
264,186,30921,1,2,0:0:0:0:
105,306,31113,2,0,P|107:258|126:203,1,90,8|2,0:0|0:0,0:0:0:0:
240,37,31498,5,0,0:0:0:0:
358,157,31690,1,2,0:0:0:0:
146,114,31882,1,8,0:0:0:0:
335,32,32075,1,2,0:0:0:0:
257,277,32267,2,0,L|263:188,1,90,0|2,0:0|0:0,0:0:0:0:
418,54,32652,1,8,0:0:0:0:
418,54,32748,1,0,0:0:0:0:
418,54,32844,1,8,0:0:0:0:
418,54,32940,1,0,0:0:0:0:
418,54,33036,6,0,P|450:113|455:155,1,90,2|0,0:0|0:0,0:0:0:0:
424,301,33421,1,8,0:0:0:0:
319,194,33613,1,2,0:0:0:0:
319,194,33709,1,0,0:0:0:0:
319,194,33805,2,0,P|275:191|231:205,1,90,0|2,0:0|0:0,0:0:0:0:
103,353,34190,2,0,P|129:307|136:266,1,90,8|2,0:0|0:0,0:0:0:0:
80,132,34575,5,0,0:0:0:0:
177,211,34767,1,2,0:0:0:0:
21,248,34959,1,8,0:0:0:0:
126,57,35152,1,2,0:0:0:0:
256,179,35344,1,0,0:0:0:0:
80,132,35536,1,2,0:0:0:0:
274,64,35729,1,8,0:0:0:0:
241,270,35921,1,8,0:0:0:0:
241,270,36017,1,0,0:0:0:0:
241,270,36113,5,2,0:0:0:0:
196,116,36305,1,0,0:0:0:0:
420,160,36498,1,8,0:0:0:0:
345,306,36690,1,8,0:0:0:0:
216,194,36882,1,0,0:0:0:0:
345,306,37075,1,8,0:0:0:0:
121,314,37267,1,8,0:0:0:0:
272,134,37459,1,8,0:0:0:0:
272,134,37555,1,0,0:0:0:0:
272,134,37652,5,0,0:0:0:0:
388,233,37844,1,8,0:0:0:0:
168,256,38036,1,8,0:0:0:0:
345,306,38229,1,2,0:0:0:0:
137,171,38421,1,8,0:0:0:0:
376,104,38613,1,8,0:0:0:0:
194,331,38805,1,8,0:0:0:0:
433,160,38998,1,8,0:0:0:0:
253,52,39190,6,0,P|203:40|152:45,1,80.9999975280763,4|0,0:0|0:0,0:0:0:0:
291,144,39575,1,8,0:0:0:0:
346,22,39767,1,0,0:0:0:0:
291,144,39959,2,0,L|281:233,1,80.9999975280763,8|0,0:0|0:0,0:0:0:0:
352,338,40344,1,8,0:0:0:0:
421,199,40536,1,0,0:0:0:0:
228,306,40729,6,0,P|186:257|209:157,1,161.999995056153,8|8,0:0|0:0,0:0:0:0:
335,65,41305,1,0,0:0:0:0:
390,180,41498,2,0,L|382:274,1,80.9999975280763,8|0,0:0|0:0,0:0:0:0:
335,65,41882,1,8,0:0:0:0:
292,225,42075,2,0,P|231:272|156:249,1,161.999995056153
75,115,42652,5,8,0:0:0:0:
51,329,42844,2,0,L|61:249,1,80.9999975280763,0|8,0:0|0:0,0:0:0:0:
278,169,43229,1,0,0:0:0:0:
154,108,43421,1,8,0:0:0:0:
188,234,43613,1,0,0:0:0:0:
188,234,43709,1,0,0:0:0:0:
188,234,43805,5,8,0:0:0:0:
259,79,43998,1,0,0:0:0:0:
188,234,44190,2,0,P|147:236|100:237,1,80.9999975280763,8|0,0:0|0:0,0:0:0:0:
259,79,44575,1,8,0:0:0:0:
323,205,44767,1,0,0:0:0:0:
391,59,44959,1,8,0:0:0:0:
239,199,45152,1,0,0:0:0:0:
239,199,45248,1,0,0:0:0:0:
239,199,45344,6,0,L|230:294,1,80.9999975280763,8|0,0:0|0:0,0:0:0:0:
325,61,45729,2,0,P|369:51|417:47,1,80.9999975280763,8|0,0:0|0:0,0:0:0:0:
325,173,46113,1,8,0:0:0:0:
204,84,46305,1,0,0:0:0:0:
268,276,46498,1,8,0:0:0:0:
411,105,46690,1,0,0:0:0:0:
411,105,46786,1,0,0:0:0:0:
411,105,46882,6,0,P|414:55|427:8,1,80.9999975280763,8|0,0:0|0:0,0:0:0:0:
424,193,47267,1,8,0:0:0:0:
325,61,47459,1,0,0:0:0:0:
424,192,47652,2,0,P|433:268|432:295,1,80.9999975280763,8|0,0:0|0:0,0:0:0:0:
307,374,48036,2,0,P|297:297|298:270,1,80.9999975280763,8|0,0:0|0:0,0:0:0:0:
425,113,48421,5,8,0:0:0:0:
380,269,48613,1,0,0:0:0:0:
271,142,48805,2,0,P|227:129|160:131,1,80.9999975280763,8|0,0:0|0:0,0:0:0:0:
101,196,49190,1,8,0:0:0:0:
249,61,49382,1,2,0:0:0:0:
209,270,49575,1,8,0:0:0:0:
134,89,49767,1,2,0:0:0:0:
321,214,49959,2,0,P|359:130|315:65,1,161.999995056153,10|10,0:0|0:0,0:0:0:0:
328,74,50729,5,2,0:0:0:0:
180,115,50921,1,8,0:3:0:0:
180,115,51113,1,8,0:3:0:0:
312,165,51305,1,2,0:0:0:0:
117,227,51498,5,8,0:1:0:0:
296,254,51690,1,0,0:0:0:0:
180,115,51882,2,0,P|133:118|91:133,1,80.9999975280763,8|0,0:3|0:0,0:0:0:0:
296,254,52267,2,0,P|343:251|385:236,1,80.9999975280763,8|0,0:1|0:0,0:0:0:0:
430,62,52652,1,8,0:3:0:0:
273,166,52844,1,0,0:0:0:0:
483,160,53036,6,0,L|319:165,1,161.999995056153,8|8,0:1|0:3,0:0:0:0:
203,266,53613,1,0,0:0:0:0:
273,166,53805,1,8,0:1:0:0:
124,258,53998,1,0,0:0:0:0:
286,140,54190,1,8,0:3:0:0:
188,291,54382,2,0,P|118:290|60:214,1,161.999995056153,8|0,0:1|0:0,0:0:0:0:
131,76,54959,6,0,P|133:118|142:174,1,80.9999975280763,8|0,0:3|0:0,0:0:0:0:
302,242,55344,2,0,P|300:200|291:144,1,80.9999975280763,8|0,0:1|0:0,0:0:0:0:
462,287,55729,1,8,0:3:0:0:
405,135,55921,1,0,0:0:0:0:
358,302,56113,6,0,P|351:338|353:382,1,80.9999975280763,8|0,0:1|0:0,0:0:0:0:
270,146,56498,2,0,P|193:137|147:199,1,161.999995056153,8|8,0:3|0:1,0:0:0:0:
135,347,57075,1,0,0:0:0:0:
224,205,57267,1,8,0:3:0:0:
46,279,57459,1,0,0:0:0:0:
149,132,57652,5,8,0:1:0:0:
229,314,57844,1,0,0:0:0:0:
414,183,58036,2,0,L|244:202,1,161.999995056153,8|8,0:3|0:1,0:0:0:0:
120,141,58613,1,0,0:0:0:0:
318,56,58805,1,8,0:3:0:0:
354,311,58998,2,0,P|357:246|285:169,1,161.999995056153,8|0,0:1|0:0,0:0:0:0:
120,141,59575,6,0,L|33:155,1,80.9999975280763,8|0,0:3|0:0,0:0:0:0:
195,240,59959,1,8,0:1:0:0:
231,75,60152,1,0,0:0:0:0:
288,205,60344,1,8,0:3:0:0:
238,89,60536,1,2,0:0:0:0:
357,109,60729,5,8,0:1:0:0:
214,163,60921,1,2,0:0:0:0:
321,277,61113,1,8,0:3:0:0:
246,102,61305,1,2,0:0:0:0:
384,197,61498,1,8,0:1:0:0:
222,263,61690,1,2,0:0:0:0:
401,290,61882,2,0,P|443:286|492:273,1,80.9999975280763,8|2,0:3|0:0,0:0:0:0:
435,69,62267,5,8,0:0:0:0:
309,167,62459,1,8,0:0:0:0:
309,167,62555,2,0,L|306:111,1,40.4999987640381,8|8,0:0|0:0,0:0:0:0:
208,52,62844,1,8,0:0:0:0:
99,200,63036,2,0,L|106:250,1,40.4999987640381,8|8,0:0|0:0,0:0:0:0:
178,302,63229,1,8,0:3:0:0:
196,144,63421,1,8,0:3:0:0:
291,328,63805,6,0,L|310:160,2,161.999995056153,4|0|2,0:0|0:0|0:0,0:0:0:0:
213,232,64767,1,0,0:0:0:0:
391,178,64959,1,0,0:0:0:0:
291,328,65152,2,0,P|215:349|147:308,1,161.999995056153,2|0,0:0|0:0,0:0:0:0:
216,150,65729,5,2,0:0:0:0:
291,328,65921,1,0,0:0:0:0:
147,310,66113,2,0,L|150:222,1,80.9999975280763,2|0,0:0|0:0,0:0:0:0:
288,93,66498,1,0,0:0:0:0:
238,255,66690,1,0,0:0:0:0:
120,121,66882,6,0,P|62:131|22:151,1,80.9999975280763,2|0,0:0|0:0,0:0:0:0:
314,169,67267,2,0,P|298:112|275:74,1,80.9999975280763,2|0,0:0|0:0,0:0:0:0:
260,246,67652,1,2,0:0:0:0:
413,191,67844,1,0,0:0:0:0:
229,146,68036,1,0,0:0:0:0:
435,263,68229,2,0,P|486:208|448:123,1,161.999995056153,2|0,0:0|0:0,0:0:0:0:
209,179,68805,6,0,P|196:221|195:271,1,80.9999975280763,2|0,0:0|0:0,0:0:0:0:
250,365,69190,1,2,0:0:0:0:
323,237,69382,1,0,0:0:0:0:
199,275,69575,1,0,0:0:0:0:
328,362,69767,1,0,0:0:0:0:
122,298,69959,5,8,0:0:0:0:
250,365,70152,1,0,0:0:0:0:
159,205,70344,1,8,0:0:0:0:
323,237,70536,1,0,0:0:0:0:
298,64,70729,2,0,P|316:115|317:159,1,80.9999975280763,8|0,0:0|0:0,0:0:0:0:
246,261,71113,1,8,0:0:0:0:
412,170,71305,1,0,0:0:0:0:
242,137,71498,5,8,0:0:0:0:
378,296,71690,1,0,0:0:0:0:
175,300,71882,2,0,L|85:308,1,80.9999975280763,8|0,0:0|0:0,0:0:0:0:
0,175,72267,2,0,L|80:167,1,80.9999975280763,8|0,0:0|0:0,0:0:0:0:
112,166,72555,1,8,0:0:0:0:
144,163,72652,1,8,0:0:0:0:
265,123,72844,1,0,0:0:0:0:
322,284,73036,5,8,0:0:0:0:
400,148,73229,1,0,0:0:0:0:
322,284,73421,2,0,L|242:293,1,80.9999975280763,8|0,0:0|0:0,0:0:0:0:
400,148,73805,1,8,0:0:0:0:
475,316,73998,1,0,0:0:0:0:
318,177,74190,2,0,L|331:89,1,80.9999975280763,8|0,0:0|0:0,0:0:0:0:
428,20,74575,5,8,0:0:0:0:
477,119,74767,1,0,0:0:0:0:
242,140,74959,1,8,0:0:0:0:
278,38,75152,1,0,0:0:0:0:
428,218,75344,1,8,0:0:0:0:
242,140,75536,1,0,0:0:0:0:
351,95,75729,1,8,0:0:0:0:
226,277,75921,1,0,0:0:0:0:
81,148,76113,5,8,0:0:0:0:
81,148,76305,1,8,0:0:0:0:
222,27,76498,1,8,0:0:0:0:
222,27,76690,1,8,0:0:0:0:
297,188,76882,5,8,0:0:0:0:
141,16,77075,1,8,0:0:0:0:
58,266,77267,1,8,0:0:0:0:
141,16,77459,1,4,0:0:0:0:
141,16,77844,5,0,0:0:0:0:
66,149,78036,1,8,0:0:0:0:
199,220,78229,1,8,0:0:0:0:
213,195,78325,1,8,0:0:0:0:
228,170,78421,1,8,0:0:0:0:
432,143,78613,5,8,0:0:0:0:
321,254,78805,1,8,0:0:0:0:
462,110,78998,1,8,0:0:0:0:
329,339,79190,6,0,P|278:345|179:239,1,198.000006042481,4|8,0:0|0:0,0:0:0:0:
362,86,79767,1,2,0:0:0:0:
415,241,79959,2,0,L|423:343,1,99.0000030212403,0|2,0:0|0:0,0:0:0:0:
343,179,80344,1,8,0:0:0:0:
462,110,80536,1,2,0:0:0:0:
272,115,80729,5,0,0:0:0:0:
487,187,80921,1,2,0:0:0:0:
432,34,81113,1,8,0:0:0:0:
315,227,81305,1,2,0:0:0:0:
221,42,81498,2,0,L|103:37,1,99.0000030212403,0|2,0:0|0:0,0:0:0:0:
53,192,81882,1,8,0:0:0:0:
234,117,82075,1,2,0:0:0:0:
109,37,82267,5,2,0:0:0:0:
35,240,82459,1,2,0:0:0:0:
246,191,82652,2,0,P|295:181|362:179,1,99.0000030212403,8|2,0:0|0:0,0:0:0:0:
199,292,83036,1,0,0:0:0:0:
234,117,83229,1,2,0:0:0:0:
372,282,83421,1,8,0:0:0:0:
403,37,83613,2,0,L|379:236,1,198.000006042481,2|2,0:0|0:0,0:0:0:0:
273,367,84190,6,0,L|288:257,1,99.0000030212403,8|2,0:0|0:0,0:0:0:0:
153,109,84575,1,0,0:0:0:0:
270,248,84767,1,2,0:0:0:0:
71,304,84959,1,8,0:0:0:0:
250,218,85152,1,2,0:0:0:0:
0,253,85344,6,0,L|200:222,1,198.000006042481,2|8,0:0|0:0,0:0:0:0:
276,63,85921,1,2,0:0:0:0:
409,264,86113,2,0,L|392:158,1,99.0000030212403,0|2,0:0|0:0,0:0:0:0:
276,63,86498,1,8,0:0:0:0:
455,104,86690,1,2,0:0:0:0:
257,192,86882,5,0,0:0:0:0:
344,7,87075,1,2,0:0:0:0:
401,210,87267,2,0,L|419:320,1,99.0000030212403,8|2,0:0|0:0,0:0:0:0:
252,360,87652,2,0,L|274:246,1,99.0000030212403,0|2,0:0|0:0,0:0:0:0:
177,167,88036,1,8,0:0:0:0:
356,107,88229,1,2,0:0:0:0:
258,267,88421,5,0,0:0:0:0:
234,54,88613,1,2,0:0:0:0:
375,235,88805,2,0,P|386:187|388:138,2,99.0000030212403,8|2|0,0:0|0:0|0:0,0:0:0:0:
252,360,89382,1,2,0:0:0:0:
173,258,89575,2,0,L|272:264,1,99.0000030212403,8|2,0:0|0:0,0:0:0:0:
142,169,89959,5,0,0:0:0:0:
305,176,90152,1,8,0:0:0:0:
86,92,90344,1,8,0:0:0:0:
277,85,90536,1,8,0:0:0:0:
310,93,90632,1,8,0:0:0:0:
343,101,90729,1,8,0:0:0:0:
491,69,90921,5,2,0:0:0:0:
474,217,91113,1,8,0:0:0:0:
398,8,91305,1,2,0:0:0:0:
474,216,91498,6,0,P|376:234|298:156,1,198.000006042481,4|8,0:0|0:0,0:0:0:0:
250,53,92075,1,2,0:0:0:0:
148,229,92267,1,0,0:0:0:0:
296,155,92459,1,2,0:0:0:0:
159,38,92652,1,8,0:0:0:0:
69,272,92844,1,2,0:0:0:0:
69,272,92940,1,0,0:0:0:0:
69,272,93036,6,0,L|196:259,1,99.0000030212403,0|2,0:0|0:0,0:0:0:0:
296,155,93421,1,8,0:0:0:0:
385,274,93613,1,2,0:0:0:0:
224,233,93805,1,0,0:0:0:0:
406,146,93998,1,2,0:0:0:0:
371,357,94190,1,8,0:0:0:0:
303,117,94382,1,2,0:0:0:0:
249,341,94575,6,0,P|155:320|116:233,1,198.000006042481,2|8,0:0|0:0,0:0:0:0:
103,70,95152,1,2,0:0:0:0:
236,159,95344,1,0,0:0:0:0:
289,7,95536,1,2,0:0:0:0:
236,159,95729,1,8,0:0:0:0:
402,47,95921,1,2,0:0:0:0:
472,243,96113,5,0,0:0:0:0:
263,84,96305,1,2,0:0:0:0:
369,331,96498,2,0,P|381:280|388:225,1,99.0000030212403,8|2,0:0|0:0,0:0:0:0:
257,365,96882,1,0,0:0:0:0:
459,323,97075,1,8,0:0:0:0:
287,200,97267,1,8,0:0:0:0:
478,113,97459,1,8,0:0:0:0:
228,56,97652,6,0,P|189:86|168:130,1,99.0000030212403,2|2,0:0|0:0,0:0:0:0:
214,300,98036,1,8,0:0:0:0:
301,123,98229,1,2,0:0:0:0:
382,346,98421,1,0,0:0:0:0:
381,143,98613,1,2,0:0:0:0:
225,356,98805,2,0,L|248:246,1,99.0000030212403,8|2,0:0|0:0,0:0:0:0:
217,94,99190,5,0,0:0:0:0:
131,279,99382,1,2,0:0:0:0:
78,88,99575,1,8,0:0:0:0:
251,233,99767,1,2,0:0:0:0:
46,169,99959,1,0,0:0:0:0:
161,61,100152,1,2,0:0:0:0:
251,233,100344,1,8,0:0:0:0:
243,38,100536,6,0,L|230:154,1,99.0000030212403,2|0,0:0|0:0,0:0:0:0:
267,342,100921,1,2,0:0:0:0:
348,101,101113,1,8,0:0:0:0:
152,172,101305,2,0,L|139:288,1,99.0000030212403,2|0,0:0|0:0,0:0:0:0:
250,384,101690,1,2,0:0:0:0:
320,181,101882,1,8,0:0:0:0:
141,271,102075,6,0,L|20:286,1,99.0000030212403,2|0,0:0|0:0,0:0:0:0:
230,142,102459,1,0,0:0:0:0:
245,331,102652,1,8,0:0:0:0:
77,198,102844,1,0,0:0:0:0:
77,198,102940,1,0,0:0:0:0:
77,198,103036,1,8,0:0:0:0:
165,348,103229,1,2,0:0:0:0:
230,142,103421,1,8,0:0:0:0:
165,348,103613,1,8,0:0:0:0:
161,128,103805,6,0,L|164:342,1,180,4|8,0:0|0:0,0:0:0:0:
322,360,104382,1,2,0:0:0:0:
390,160,104575,2,0,L|404:258,1,90,0|2,0:0|0:0,0:0:0:0:
473,94,104959,2,0,L|429:15,1,90,8|2,0:0|0:0,0:0:0:0:
434,242,105344,5,0,0:0:0:0:
347,75,105536,1,2,0:0:0:0:
307,229,105729,1,8,0:0:0:0:
473,94,105921,1,2,0:0:0:0:
369,294,106113,2,0,P|275:312|219:237,1,180,2|8,0:0|0:0,0:0:0:0:
214,110,106690,1,2,0:0:0:0:
88,222,106882,6,0,P|40:217|-2:205,1,90,2|2,0:0|0:0,0:0:0:0:
152,292,107267,2,0,P|150:340|140:383,1,90,8|2,0:0|0:0,0:0:0:0:
214,110,107652,1,2,0:0:0:0:
270,237,107844,1,2,0:0:0:0:
342,62,108036,1,8,0:0:0:0:
190,197,108229,1,2,0:0:0:0:
441,169,108421,5,0,0:0:0:0:
342,62,108613,1,2,0:0:0:0:
270,237,108805,1,8,0:0:0:0:
342,62,108998,1,2,0:0:0:0:
503,229,109190,1,0,0:0:0:0:
433,26,109382,1,2,0:0:0:0:
328,221,109575,1,8,0:0:0:0:
498,89,109767,1,2,0:0:0:0:
236,198,109959,6,0,P|239:154|249:110,1,90,2|0,0:0|0:0,0:0:0:0:
167,297,110344,2,0,P|147:257|134:214,1,90,8|2,0:0|0:0,0:0:0:0:
330,335,110729,2,0,P|293:310|260:279,1,90,0|2,0:0|0:0,0:0:0:0:
493,270,111113,2,0,P|449:267|405:257,1,90,8|2,0:0|0:0,0:0:0:0:
344,127,111498,5,0,0:0:0:0:
299,251,111690,1,2,0:0:0:0:
261,68,111882,1,8,0:0:0:0:
197,233,112075,1,2,0:0:0:0:
203,14,112267,2,0,L|198:200,1,180,2|8,0:0|0:0,0:0:0:0:
107,300,112844,1,2,0:0:0:0:
50,129,113036,5,2,0:0:0:0:
233,329,113229,1,0,0:0:0:0:
344,127,113421,1,8,0:0:0:0:
197,232,113613,1,2,0:0:0:0:
332,290,113805,2,0,L|340:195,1,90,0|2,0:0|0:0,0:0:0:0:
254,372,114190,2,0,L|343:361,1,90,8|2,0:0|0:0,0:0:0:0:
374,358,114479,1,8,0:0:0:0:
405,356,114575,5,8,0:0:0:0:
271,179,114767,1,8,0:0:0:0:
449,276,114959,2,0,L|460:176,1,90,8|2,0:0|0:0,0:0:0:0:
310,53,115344,1,8,0:0:0:0:
352,219,115536,1,8,0:0:0:0:
198,179,115729,2,0,B|152:182|152:182|108:190,1,90,8|0,0:0|0:0,0:0:0:0:
78,208,116017,1,0,0:0:0:0:
48,229,116113,2,0,L|39:89,2,135,2|2|2,0:0|0:0|0:0,0:0:0:0:
228,23,117075,5,8,0:1:0:0:
356,118,117267,1,8,0:3:0:0:
198,179,117459,1,0,0:0:0:0:
198,179,117555,1,0,0:0:0:0:
198,179,117652,6,0,P|151:170|100:147,1,90,4|0,0:0|0:0,0:0:0:0:
259,116,118036,1,2,0:0:0:0:
164,257,118229,1,0,0:0:0:0:
352,208,118421,2,0,L|356:118,1,90
283,33,118805,1,2,0:0:0:0:
429,160,118998,2,0,L|426:250,1,90,0|2,0:0|0:0,0:0:0:0:
353,332,119382,5,0,0:0:0:0:
287,180,119575,1,2,0:0:0:0:
440,298,119767,1,0,0:0:0:0:
347,118,119959,2,0,P|244:110|198:196,1,180,2|2,0:0|0:0,0:0:0:0:
180,333,120536,1,0,0:0:0:0:
304,268,120729,6,0,P|300:223|287:180,1,90,2|0,0:0|0:0,0:0:0:0:
255,353,121113,1,2,0:0:0:0:
397,274,121305,1,0,0:0:0:0:
206,245,121498,2,0,L|97:258,1,90
124,159,121882,2,0,L|15:172,1,90,2|0,0:0|0:0,0:0:0:0:
250,98,122267,6,0,P|263:141|266:186,1,90,2|0,0:0|0:0,0:0:0:0:
317,291,122652,1,2,0:0:0:0:
384,167,122844,1,0,0:0:0:0:
485,310,123036,2,0,L|494:215,2,90,0|0|2,0:0|0:0|0:0,0:0:0:0:
348,230,123613,1,0,0:0:0:0:
499,145,123805,5,2,0:0:0:0:
299,51,123998,1,0,0:0:0:0:
348,230,124190,2,0,P|344:332|276:384,1,180,2|0,0:0|0:0,0:0:0:0:
256,280,124767,1,0,0:0:0:0:
421,181,124959,1,2,0:0:0:0:
299,51,125152,1,2,0:0:0:0:
299,51,125248,1,2,0:0:0:0:
299,51,125344,5,2,0:0:0:0:
348,230,125536,1,0,0:0:0:0:
482,47,125729,2,0,L|486:142,1,90,2|0,0:0|0:0,0:0:0:0:
424,266,126113,1,0,0:0:0:0:
337,133,126305,1,0,0:0:0:0:
265,279,126498,2,0,P|220:276|158:258,1,90,2|0,0:0|0:0,0:0:0:0:
99,174,126882,5,2,0:0:0:0:
140,339,127074,1,0,0:0:0:0:
244,178,127267,2,0,P|245:123|228:47,1,90,2|0,0:0|0:0,0:0:0:0:
378,21,127652,1,0,0:0:0:0:
450,191,127844,1,0,0:0:0:0:
355,285,128036,2,0,L|243:278,1,90,2|0,0:0|0:0,0:0:0:0:
142,124,128421,1,2,0:0:0:0:
142,124,128805,5,2,0:0:0:0:
177,273,128998,1,0,0:0:0:0:
17,205,129190,1,2,0:0:0:0:
107,351,129382,1,8,0:3:0:0:
107,351,129575,1,8,0:3:0:0:
156,178,129767,1,2,0:0:0:0:
290,304,129959,6,0,P|291:267|283:214,1,90,4|0,0:0|0:0,0:0:0:0:
414,110,130344,2,0,P|396:151|390:195,1,90,8|0,0:3|0:0,0:0:0:0:
354,340,130729,1,0,0:0:0:0:
390,195,130921,1,0,0:0:0:0:
468,338,131113,1,8,0:3:0:0:
315,228,131305,2,0,P|240:206|156:275,1,180
12,339,131882,2,0,P|59:350|103:349,1,90,8|0,0:3|0:0,0:0:0:0:
89,149,132267,5,0,0:0:0:0:
255,297,132459,1,0,0:0:0:0:
66,258,132652,1,8,0:3:0:0:
188,77,132844,2,0,P|201:126|203:168,1,90,0|0,0:0|0:0,0:0:0:0:
394,39,133229,1,0,0:0:0:0:
366,225,133421,2,0,P|351:174|348:137,1,90,8|0,0:3|0:0,0:0:0:0:
502,241,133805,5,0,0:0:0:0:
492,271,133902,1,0,0:0:0:0:
484,301,133998,1,0,0:0:0:0:
260,240,134190,1,8,0:3:0:0:
296,367,134382,1,2,0:0:0:0:
150,251,134575,1,0,0:0:0:0:
336,296,134767,1,0,0:0:0:0:
206,169,134959,2,0,L|200:71,1,90,8|0,0:3|0:0,0:0:0:0:
40,186,135344,5,0,0:0:0:0:
296,134,135536,1,0,0:0:0:0:
136,21,135729,1,8,0:3:0:0:
289,223,135921,2,0,L|296:134,1,90,2|0,0:0|0:0,0:0:0:0:
492,294,136305,1,0,0:0:0:0:
361,364,136498,2,0,L|368:269,1,90,8|0,0:3|0:0,0:0:0:0:
387,55,136882,5,0,0:0:0:0:
445,206,137075,1,0,0:0:0:0:
210,177,137267,1,8,0:3:0:0:
289,25,137459,2,0,L|289:131,1,90,0|0,0:0|0:0,0:0:0:0:
197,297,137844,1,0,0:0:0:0:
110,132,138036,2,0,P|105:183|110:224,1,90,8|0,0:3|0:0,0:0:0:0:
325,308,138421,5,0,0:0:0:0:
132,364,138613,1,0,0:0:0:0:
132,364,138709,1,0,0:0:0:0:
132,364,138805,1,8,0:3:0:0:
259,223,138998,1,0,0:0:0:0:
16,192,139190,1,0,0:0:0:0:
201,144,139382,1,0,0:0:0:0:
81,269,139575,1,8,0:3:0:0:
178,36,139767,1,0,0:0:0:0:
115,182,139959,5,0,0:0:0:0:
115,182,140055,1,0,0:0:0:0:
115,182,140152,1,0,0:0:0:0:
336,205,140344,1,8,0:3:0:0:
248,80,140536,1,2,0:0:0:0:
456,157,140729,6,0,P|458:214|438:300,1,135,0|8,0:0|0:0,0:0:0:0:
409,321,141113,1,8,0:0:0:0:
246,254,141305,1,8,0:0:0:0:
342,176,141498,1,8,0:0:0:0:
348,206,141594,1,8,0:0:0:0:
356,236,141690,1,8,0:3:0:0:
197,366,141882,1,8,0:3:0:0:
322,343,142075,1,8,0:0:0:0:
156,195,142267,6,0,L|151:276,1,80.9999975280763,4|0,0:0|0:0,0:0:0:0:
39,164,142652,2,0,L|34:251,1,80.9999975280763,0|0,0:0|0:0,0:0:0:0:
83,75,143036,1,2,0:0:0:0:
168,27,143229,1,0,0:0:0:0:
265,28,143421,1,0,0:0:0:0:
354,65,143613,2,0,P|377:103|387:143,1,80.9999975280763,0|0,0:0|0:0,0:0:0:0:
421,228,143998,2,0,P|472:225|506:216,2,80.9999975280763,0|2|0,0:0|0:0|0:0,0:0:0:0:
324,210,144575,5,2,0:0:0:0:
250,272,144767,1,0,0:0:0:0:
137,143,144959,1,0,0:0:0:0:
150,239,145152,1,0,0:0:0:0:
212,65,145344,2,0,L|301:64,1,80.9999975280763,0|0,0:0|0:0,0:0:0:0:
369,124,145729,2,0,L|456:122,1,80.9999975280763,0|0,0:0|0:0,0:0:0:0:
500,205,146113,5,2,0:0:0:0:
420,260,146305,1,0,0:0:0:0:
447,353,146498,2,0,P|403:371|358:375,1,80.9999975280763,0|0,0:0|0:0,0:0:0:0:
283,332,146882,2,0,P|225:325|115:345,1,161.999995056153,0|2,0:0|0:0,0:0:0:0:
34,302,147459,1,0,0:0:0:0:
142,153,147652,5,0,0:0:0:0:
57,201,147844,1,0,0:0:0:0:
193,60,148036,1,0,0:0:0:0:
286,88,148229,1,0,0:0:0:0:
256,225,148421,6,0,L|347:217,1,90,8|0,0:0|0:0,0:0:0:0:
324,366,148805,2,0,L|415:358,1,90,8|0,0:0|0:0,0:0:0:0:
401,120,149190,1,8,0:0:0:0:
495,226,149382,1,0,0:0:0:0:
337,291,149575,1,8,0:0:0:0:
486,205,149767,1,0,0:0:0:0:
326,26,149959,6,0,P|298:70|286:124,1,90,8|0,0:0|0:0,0:0:0:0:
101,171,150344,1,8,0:0:0:0:
240,205,150536,1,0,0:0:0:0:
22,121,150729,2,0,P|6:167|7:258,1,135,8|8,0:0|0:0,0:0:0:0:
20,294,151113,1,8,0:0:0:0:
179,365,151305,1,0,0:0:0:0:
191,133,151498,6,0,P|200:72|199:35,1,90,8|0,0:0|0:0,0:0:0:0:
150,252,151882,2,0,P|199:254|247:243,1,90,8|0,0:0|0:0,0:0:0:0:
334,126,152267,1,8,0:0:0:0:
394,285,152459,1,0,0:0:0:0:
491,172,152652,2,0,P|445:164|399:164,1,90,8|0,0:0|0:0,0:0:0:0:
321,344,153036,6,0,P|270:345|221:336,1,90,8|0,0:0|0:0,0:0:0:0:
34,191,153421,1,8,0:0:0:0:
57,330,153613,1,0,0:0:0:0:
230,137,153805,5,8,0:0:0:0:
217,288,153998,1,0,0:0:0:0:
57,96,154190,1,8,0:0:0:0:
72,292,154382,1,0,0:0:0:0:
303,159,154575,5,8,0:0:0:0:
252,63,154767,1,8,0:0:0:0:
156,113,154959,1,8,0:0:0:0:
207,209,155151,1,8,0:0:0:0:
369,116,155344,5,8,0:0:0:0:
91,159,155536,1,8,0:0:0:0:
203,2,155729,1,8,0:0:0:0:
249,275,155921,1,4,0:0:0:0:
227,140,156113,5,8,0:0:0:0:
123,263,156305,1,8,0:0:0:0:
316,220,156498,2,0,L|419:218,1,90,8|8,0:0|0:0,0:0:0:0:
435,207,156786,1,8,0:0:0:0:
458,173,156882,6,0,L|463:126,2,45,8|0|8,0:0|0:0|0:0,0:0:0:0:
492,301,157267,1,8,0:0:0:0:
370,123,157459,1,8,0:0:0:0:
219,360,157652,5,4,0:0:0:0:
379,308,157844,1,2,0:0:0:0:
136,207,158036,2,0,L|253:217,1,99.0000030212403,8|2,0:0|0:0,0:0:0:0:
163,69,158421,1,0,0:0:0:0:
54,278,158613,1,2,0:0:0:0:
22,129,158805,1,8,0:0:0:0:
257,13,158998,2,0,P|267:62|264:114,1,99.0000030212403,2|0,0:0|0:0,0:0:0:0:
460,202,159382,5,2,0:0:0:0:
349,69,159575,1,8,0:0:0:0:
209,231,159767,2,0,P|237:283|267:312,1,99.0000030212403,2|0,0:0|0:0,0:0:0:0:
339,193,160152,1,2,0:0:0:0:
143,331,160344,1,8,0:0:0:0:
401,308,160536,1,2,0:0:0:0:
239,109,160729,5,2,0:0:0:0:
102,200,160921,1,2,0:0:0:0:
157,11,161113,2,0,P|162:65|157:115,1,99.0000030212403,8|2,0:0|0:0,0:0:0:0:
29,256,161498,1,0,0:0:0:0:
6,122,161690,1,2,0:0:0:0:
199,197,161882,1,8,0:0:0:0:
286,19,162075,2,0,P|320:60|335:109,1,99.0000030212403,2|0,0:0|0:0,0:0:0:0:
468,47,162459,5,2,0:0:0:0:
304,210,162652,1,8,0:0:0:0:
493,226,162844,1,2,0:0:0:0:
358,312,163036,1,0,0:0:0:0:
434,140,163229,1,2,0:0:0:0:
450,304,163421,1,8,0:0:0:0:
328,121,163613,1,2,0:0:0:0:
153,260,163805,6,0,P|98:265|47:254,1,99.0000030212403,2|2,0:0|0:0,0:0:0:0:
262,211,164190,1,8,0:0:0:0:
145,356,164382,1,2,0:0:0:0:
214,134,164575,1,0,0:0:0:0:
249,313,164767,1,2,0:0:0:0:
111,168,164959,1,8,0:0:0:0:
253,28,165152,2,0,P|314:33|354:50,1,99.0000030212403,2|0,0:0|0:0,0:0:0:0:
421,192,165536,5,2,0:0:0:0:
489,38,165729,1,8,0:0:0:0:
311,168,165921,2,0,P|318:232|336:268,1,99.0000030212403,2|0,0:0|0:0,0:0:0:0:
171,224,166305,1,2,0:0:0:0:
51,361,166498,1,8,0:0:0:0:
37,126,166690,2,0,L|8:231,1,99.0000030212403,2|0,0:0|0:0,0:0:0:0:
225,155,167075,5,2,0:0:0:0:
209,311,167267,1,8,0:0:0:0:
286,33,167459,2,0,L|305:134,1,99.0000030212403,2|0,0:0|0:0,0:0:0:0:
419,68,167844,1,2,0:0:0:0:
144,131,168036,1,8,0:0:0:0:
312,231,168229,2,0,P|362:213|397:181,1,99.0000030212403,2|0,0:0|0:0,0:0:0:0:
185,229,168613,5,8,0:0:0:0:
416,276,168805,2,0,L|435:378,1,99.0000030212403,8|8,0:0|0:0,0:0:0:0:
467,364,169094,1,8,0:0:0:0:
488,337,169190,1,8,0:0:0:0:
263,294,169382,5,2,0:0:0:0:
449,191,169575,1,8,0:0:0:0:
212,142,169767,1,0,0:0:0:0:
356,22,169959,6,0,P|372:84|370:133,1,99.0000030212403,4|2,0:0|0:0,0:0:0:0:
115,213,170344,2,0,P|99:151|101:102,1,99.0000030212403,8|2,0:0|0:0,0:0:0:0:
257,40,170729,1,0,0:0:0:0:
298,203,170921,1,2,0:0:0:0:
500,121,171113,1,8,0:0:0:0:
362,294,171305,2,0,P|310:309|262:307,1,99.0000030212403,2|0,0:0|0:0,0:0:0:0:
18,255,171690,5,2,0:0:0:0:
165,372,171882,1,8,0:0:0:0:
158,130,172075,2,0,P|106:133|60:153,1,99.0000030212403,2|0,0:0|0:0,0:0:0:0:
274,161,172459,1,2,0:0:0:0:
160,30,172652,1,8,0:0:0:0:
217,243,172844,1,2,0:0:0:0:
329,83,173036,6,0,L|429:80,1,99.0000030212403,0|2,0:0|0:0,0:0:0:0:
387,227,173421,2,0,L|487:224,1,99.0000030212403,8|2,0:0|0:0,0:0:0:0:
298,306,173805,1,0,0:0:0:0:
97,209,173998,1,2,0:0:0:0:
183,363,174190,1,8,0:0:0:0:
270,149,174382,2,0,P|255:94|227:54,1,99.0000030212403,2|0,0:0|0:0,0:0:0:0:
394,75,174767,5,2,0:0:0:0:
465,296,174959,1,8,0:0:0:0:
268,232,175152,2,0,L|160:237,1,99.0000030212403,2|0,0:0|0:0,0:0:0:0:
64,109,175536,1,8,0:0:0:0:
17,291,175729,1,8,0:0:0:0:
172,151,175921,1,8,0:0:0:0:
364,263,176113,6,0,P|330:309|287:333,1,99.0000030212403,2|2,0:0|0:0,0:0:0:0:
340,159,176498,1,8,0:0:0:0:
472,246,176690,1,2,0:0:0:0:
326,156,176882,1,0,0:0:0:0:
451,81,177075,1,2,0:0:0:0:
314,153,177267,1,8,0:0:0:0:
217,10,177459,2,0,P|209:69|212:114,1,99.0000030212403,2|0,0:0|0:0,0:0:0:0:
371,36,177844,5,2,0:0:0:0:
298,239,178036,1,8,0:0:0:0:
126,151,178229,2,0,P|77:171|42:201,1,99.0000030212403,2|0,0:0|0:0,0:0:0:0:
236,360,178613,1,2,0:0:0:0:
137,266,178805,1,8,0:0:0:0:
352,169,178998,6,0,L|357:272,1,99.0000030212403,2|0,0:0|0:0,0:0:0:0:
493,217,179382,1,2,0:0:0:0:
443,60,179575,1,8,0:0:0:0:
493,217,179767,2,0,L|496:324,1,99.0000030212403,2|0,0:0|0:0,0:0:0:0:
268,236,180152,1,2,0:0:0:0:
439,154,180344,1,8,0:0:0:0:
272,84,180536,6,0,P|217:94|179:118,1,99.0000030212403,2|0,0:0|0:0,0:0:0:0:
25,75,180921,1,2,0:0:0:0:
148,246,181113,1,8,0:0:0:0:
108,24,181305,2,0,L|97:139,1,99.0000030212403,2|8,0:0|0:0,0:0:0:0:
79,308,181690,1,0,0:0:0:0:
180,163,181882,1,8,0:0:0:0:
20,246,182075,1,8,0:0:0:0:
174,351,182267,1,2,0:0:0:0:
475,118,185729,6,0,L|469:53,1,62.9999980773926
379,147,186113,2,0,L|371:75,1,62.9999980773926,2|0,0:0|0:0,0:0:0:0:
366,51,186402,1,0,0:0:0:0:
338,32,186498,2,0,P|296:34|259:49,1,62.9999980773926
206,91,186882,6,0,P|153:94|100:81,1,94.499997116089,2|0,0:0|0:0,0:0:0:0:
82,108,187267,2,0,P|73:156|73:182,1,62.9999980773926
120,248,187652,2,0,P|122:288|113:346,1,94.499997116089,2|0,0:0|0:0,0:0:0:0:
82,362,188036,2,0,P|39:365|11:362,1,62.9999980773926
203,295,188421,5,2,0:0:0:0:
306,343,188613,1,0,0:0:0:0:
306,343,188709,1,2,0:0:0:0:
306,343,188805,2,0,L|302:275,1,62.9999980773926,0|2,0:0|0:0,0:0:0:0:
352,192,189190,2,0,P|406:192|457:203,1,94.499997116089,2|2,0:0|0:0,0:0:0:0:
478,218,189575,2,0,L|490:147,1,62.9999980773926,0|2,0:0|0:0,0:0:0:0:
403,20,189959,6,0,P|400:60|412:124,2,94.499997116089,2|2|2,0:0|0:0|0:0,0:0:0:0:
311,72,190729,1,2,0:0:0:0:
217,44,190921,1,0,0:0:0:0:
217,44,191017,1,0,0:0:0:0:
217,44,191113,1,2,0:0:0:0:
123,80,191305,1,0,0:0:0:0:
14,150,191498,6,0,P|50:156|90:155,1,62.9999980773926,2|0,0:0|0:0,0:0:0:0:
175,174,191882,2,0,L|243:172,1,62.9999980773926,2|0,0:0|0:0,0:0:0:0:
196,261,192267,2,0,L|264:259,1,62.9999980773926,2|0,0:0|0:0,0:0:0:0:
288,349,192652,2,0,L|220:351,1,62.9999980773926,2|0,0:0|0:0,0:0:0:0:
128,316,193036,6,0,P|81:319|22:308,2,94.499997116089,2|2|0,0:0|0:0|0:0,0:0:0:0:
211,248,193805,2,0,L|218:147,1,94.499997116089,2|2,0:0|0:0,0:0:0:0:
220,115,194190,2,0,P|261:103|293:101,1,62.9999980773926
397,43,194575,6,0,P|409:91|405:151,1,94.499997116089,2|2,0:0|0:0,0:0:0:0:
390,169,194959,2,0,L|389:237,1,62.9999980773926
425,330,195344,2,0,P|386:337|321:335,1,94.499997116089,2|2,0:0|0:0,0:0:0:0:
295,324,195729,2,0,L|226:327,1,62.9999980773926
144,372,196113,5,2,0:0:0:0:
56,326,196305,1,0,0:0:0:0:
74,292,196402,1,0,0:0:0:0:
93,259,196498,1,2,0:0:0:0:
5,213,196690,1,0,0:0:0:0:
49,117,196882,5,2,0:0:0:0:
84,103,196979,1,0,0:0:0:0:
121,100,197075,1,2,0:0:0:0:
157,110,197171,1,0,0:0:0:0:
189,129,197267,1,2,0:0:0:0:
223,143,197363,1,0,0:0:0:0:
260,148,197459,1,2,0:0:0:0:
297,143,197555,1,0,0:0:0:0:
326,128,197652,6,0,L|461:125,1,135,2|0,0:0|0:0,0:0:0:0:
498,163,198036,2,0,P|499:215|486:256,1,90,8|0,0:0|0:0,0:0:0:0:
353,80,198421,2,0,P|340:136|347:218,1,135
368,261,198805,1,8,0:0:0:0:
265,366,198998,1,0,0:0:0:0:
151,278,199190,6,0,L|16:275,1,135,2|0,0:0|0:0,0:0:0:0:
34,223,199575,2,0,P|27:176|31:133,1,90,8|0,0:0|0:0,0:0:0:0:
255,88,199959,1,0,0:0:0:0:
132,42,200152,1,0,0:0:0:0:
132,42,200248,1,0,0:0:0:0:
132,42,200344,1,8,0:0:0:0:
124,179,200536,1,0,0:0:0:0:
332,37,200729,6,0,P|343:91|337:134,1,90,2|0,0:0|0:0,0:0:0:0:
308,169,201017,1,0,0:0:0:0:
308,169,201113,2,0,L|299:269,1,90,8|0,0:0|0:0,0:0:0:0:
350,363,201498,2,0,P|398:368|486:349,1,135
506,302,201882,2,0,L|490:209,1,90,8|0,0:0|0:0,0:0:0:0:
213,225,202267,5,2,0:0:0:0:
388,111,202459,1,0,0:0:0:0:
388,111,202555,1,0,0:0:0:0:
388,111,202652,1,8,0:0:0:0:
403,255,202844,1,2,0:0:0:0:
240,121,203036,2,0,P|184:125|100:106,1,135,0|0,0:0|0:0,0:0:0:0:
63,76,203421,2,0,P|43:135|41:171,1,90,8|0,0:0|0:0,0:0:0:0:
98,366,203805,6,0,P|123:320|134:234,1,135,2|0,0:0|0:0,0:0:0:0:
181,266,204190,2,0,P|237:270|279:263,1,90,8|0,0:0|0:0,0:0:0:0:
415,159,204575,2,0,L|399:299,1,135
424,341,204959,1,8,0:0:0:0:
319,190,205152,1,0,0:0:0:0:
503,103,205344,6,0,P|463:68|419:53,1,90,2|0,0:0|0:0,0:0:0:0:
386,63,205632,1,0,0:0:0:0:
345,81,205729,2,0,L|243:83,1,90,8|0,0:0|0:0,0:0:0:0:
167,20,206113,1,0,0:0:0:0:
122,185,206305,1,0,0:0:0:0:
52,39,206498,1,8,0:0:0:0:
7,204,206690,1,0,0:0:0:0:
134,307,206882,6,0,P|182:314|283:299,1,135,2|0,0:0|0:0,0:0:0:0:
313,274,207267,2,0,L|409:277,1,90,8|0,0:0|0:0,0:0:0:0:
496,222,207652,2,0,L|503:171,1,45,0|8,0:0|0:0,0:0:0:0:
303,110,207940,1,0,0:0:0:0:
303,110,208036,1,8,0:0:0:0:
449,79,208229,1,0,0:0:0:0:
351,187,208421,5,0,0:0:0:0:
256,32,208613,1,8,0:0:0:0:
256,32,208709,1,8,0:0:0:0:
256,32,208805,1,8,0:0:0:0:
127,133,208998,1,0,0:0:0:0:
249,251,209190,6,0,L|258:199,1,45,8|0,0:0|0:0,0:0:0:0:
349,316,209382,2,0,L|363:361,1,45
452,225,209575,1,8,0:0:0:0:
203,345,209959,6,0,P|151:351|69:335,1,135,4|0,0:0|0:0,0:0:0:0:
32,296,210344,2,0,P|19:246|21:199,1,90,8|0,0:0|0:0,0:0:0:0:
194,100,210729,1,2,0:0:0:0:
30,122,210921,1,0,0:0:0:0:
154,20,211113,1,8,0:0:0:0:
94,181,211305,1,0,0:0:0:0:
272,62,211498,6,0,P|318:61|364:71,1,90,2|0,0:0|0:0,0:0:0:0:
304,213,211882,2,0,P|258:214|212:204,1,90,8|0,0:0|0:0,0:0:0:0:
172,306,212267,1,2,0:0:0:0:
286,137,212459,1,0,0:0:0:0:
414,329,212652,2,0,P|412:285|400:236,1,90,8|0,0:0|0:0,0:0:0:0:
209,179,213036,5,2,0:0:0:0:
248,332,213229,1,0,0:0:0:0:
343,145,213421,1,8,0:0:0:0:
248,332,213613,1,0,0:0:0:0:
134,125,213805,5,2,0:0:0:0:
179,300,213998,1,0,0:0:0:0:
358,54,214190,1,8,0:0:0:0:
322,268,214382,1,0,0:0:0:0:
113,211,214575,6,0,P|71:185|50:147,1,90,2|2,0:0|0:0,0:0:0:0:
25,103,214863,1,2,0:0:0:0:
25,103,214959,2,0,L|0:189,1,90,8|0,0:0|0:0,0:0:0:0:
222,141,215344,1,0,0:0:0:0:
99,29,215536,1,8,0:0:0:0:
46,274,215729,1,8,0:0:0:0:
210,223,215921,5,0,0:0:0:0:
210,223,216017,1,0,0:0:0:0:
210,223,216113,2,0,P|215:268|217:313,2,90,2|0|8,0:0|0:0|0:0,0:0:0:0:
390,336,216690,1,0,0:0:0:0:
512,208,216882,1,2,0:0:0:0:
310,248,217075,1,0,0:0:0:0:
464,118,217267,1,8,0:0:0:0:
399,308,217459,1,0,0:0:0:0:
311,149,217652,6,0,P|257:163|208:229,1,135,2|0,0:0|0:0,0:0:0:0:
159,243,218036,2,0,L|64:234,1,90,8|0,0:0|0:0,0:0:0:0:
12,73,218421,1,8,0:0:0:0:
69,234,218613,1,8,0:0:0:0:
214,10,218805,1,0,0:0:0:0:
139,164,218998,1,8,0:0:0:0:
342,233,219190,6,0,L|351:173,1,60,8|8,0:0|0:0,0:0:0:0:
371,86,219382,2,0,L|390:112,1,30,8|0,0:0|0:0,0:0:0:0:
431,216,219575,1,8,0:0:0:0:
288,309,219767,5,8,0:0:0:0:
299,338,219863,1,8,0:0:0:0:
311,366,219959,2,0,L|361:355,1,30,8|0,0:0|0:0,0:0:0:0:
185,347,220152,2,0,L|235:336,1,30,8|0,0:0|0:0,0:0:0:0:
117,295,220344,6,0,L|63:309,1,45,8|0,0:0|0:0,0:0:0:0:
0,237,220536,2,0,L|50:226,1,30,8|0,0:0|0:0,0:0:0:0:
140,170,220729,5,8,0:0:0:0:
148,139,220825,1,8,0:0:0:0:
148,107,220921,1,8,0:0:0:0:
143,75,221017,1,0,0:0:0:0:
128,47,221113,2,0,L|225:34,1,90,8|0,0:0|0:0,0:0:0:0:
248,30,221402,1,0,0:0:0:0:
279,25,221498,1,8,0:0:0:0:
413,147,221690,2,0,P|412:195|395:242,1,90,8|8,0:0|0:0,0:0:0:0:
298,165,222075,5,0,0:0:0:0:
298,165,222171,1,0,0:0:0:0:
298,165,222267,2,0,L|450:154,1,150,4|0,0:0|0:0,0:0:0:0:
481,152,222652,1,8,0:0:0:0:
348,75,222844,1,0,0:0:0:0:
348,75,222940,1,0,0:0:0:0:
348,75,223036,1,2,0:0:0:0:
295,263,223229,1,0,0:0:0:0:
431,358,223421,2,0,P|456:303|462:267,1,90,8|0,0:0|0:0,0:0:0:0:
191,254,223805,5,2,0:0:0:0:
381,226,223998,1,0,0:0:0:0:
237,164,224190,1,8,0:0:0:0:
197,338,224382,1,0,0:0:0:0:
56,359,224575,2,0,P|28:323|12:278,1,90,2|0,0:0|0:0,0:0:0:0:
33,232,224863,1,0,0:0:0:0:
33,232,224959,2,0,L|36:133,1,90,8|0,0:0|0:0,0:0:0:0:
53,105,225248,1,0,0:0:0:0:
85,80,225344,6,0,P|139:70|224:84,2,135,2|8|8,0:0|0:0|0:0,0:0:0:0:
279,233,226113,2,0,P|225:243|140:229,2,135,2|8|8,0:0|0:0|0:0,0:0:0:0:
313,211,226786,1,0,0:0:0:0:
338,179,226882,5,2,0:0:0:0:
389,39,227075,1,0,0:0:0:0:
404,216,227267,2,0,L|411:305,1,90,8|0,0:0|0:0,0:0:0:0:
486,96,227652,1,2,0:0:0:0:
266,126,227844,1,8,0:0:0:0:
506,271,228036,2,0,P|509:323|497:363,1,90,8|0,0:0|0:0,0:0:0:0:
331,304,228421,6,0,P|282:313|197:302,1,135,2|0,0:0|0:0,0:0:0:0:
148,281,228805,2,0,L|46:283,1,90,8|0,0:0|0:0,0:0:0:0:
9,209,229062,2,0,L|30:142,1,60,0|2,0:0|0:0,0:0:0:0:
181,199,229382,1,8,0:0:0:0:
181,199,229479,1,8,0:0:0:0:
181,199,229575,1,8,0:0:0:0:
127,67,229767,6,0,L|112:117,1,45
221,83,229959,2,0,L|317:81,1,90,2|0,0:0|0:0,0:0:0:0:
409,165,230344,1,8,0:0:0:0:
490,39,230537,2,0,P|504:100|496:163,1,90,2|0,0:0|0:0,0:0:0:0:
335,201,230921,1,2,0:0:0:0:
414,84,231113,1,8,0:0:0:0:
478,252,231305,1,2,0:0:0:0:
255,223,231498,5,2,0:0:0:0:
409,165,231690,1,2,0:0:0:0:
305,306,231882,1,8,0:0:0:0:
205,139,232075,2,0,P|254:129|295:135,1,90,2|0,0:0|0:0,0:0:0:0:
413,211,232459,1,2,0:0:0:0:
499,89,232652,1,8,0:0:0:0:
339,22,232844,2,0,L|326:124,1,90,2|2,0:0|0:0,0:0:0:0:
306,281,233229,5,2,0:0:0:0:
158,213,233421,1,8,0:0:0:0:
258,81,233613,2,0,L|351:112,1,90,2|2,0:0|0:0,0:0:0:0:
182,22,233998,1,0,0:0:0:0:
239,172,234190,1,8,0:0:0:0:
79,280,234382,1,8,0:0:0:0:
79,280,234479,1,8,0:0:0:0:
79,280,234575,6,0,P|78:241|91:192,1,80.9999975280763,2|2,0:0|0:0,0:0:0:0:
343,235,234959,2,0,P|300:253|263:257,1,80.9999975280763,2|2,0:0|0:0,0:0:0:0:
165,56,235344,2,0,P|195:82|217:116,1,80.9999975280763,2|2,0:0|0:0,0:0:0:0:
223,250,235729,1,2,0:0:0:0:
289,100,235921,1,2,0:0:0:0:
377,224,236113,6,0,P|448:220|494:129,1,161.999995056153,2|2,0:0|0:0,0:0:0:0:
312,296,236690,2,0,P|282:204|328:141,2,161.999995056153,2|2|2,0:0|0:0|0:0,0:0:0:0:
397,320,237652,1,2,0:0:0:0:
423,235,237844,1,2,0:0:0:0:
448,149,238036,1,2,0:0:0:0:
473,63,238229,1,2,0:0:0:0:
473,63,238613,5,2,0:0:0:0:
384,73,238805,1,2,0:0:0:0:
295,85,238998,1,2,0:0:0:0:
85,309,239382,5,2,0:0:0:0:
132,233,239575,1,2,0:0:0:0:
180,158,239767,1,2,0:0:0:0:
321,266,240152,5,2,0:0:0:0:
256,328,240344,2,0,L|159:317,1,80.9999975280763,2|2,0:0|0:0,0:0:0:0:
49,167,240729,5,2,0:0:0:0:
132,233,240921,1,2,0:0:0:0:
149,140,241113,1,2,0:0:0:0:
34,268,241305,1,2,0:0:0:0:
231,256,241498,1,2,0:0:0:0:
114,332,241690,1,2,0:0:0:0:
231,256,241882,2,0,L|237:176,1,80.9999975280763,2|2,0:0|0:0,0:0:0:0:
355,326,242267,6,0,L|444:312,2,80.9999975280763,2|2|2,0:0|0:0|0:0,0:0:0:0:
234,286,242844,2,0,L|131:283,1,80.9999975280763,2|2,0:0|0:0,0:0:0:0:
60,188,243229,2,0,L|155:191,1,80.9999975280763,2|2,0:0|0:0,0:0:0:0:
220,91,243613,1,2,0:0:0:0:
229,207,243805,6,0,L|235:295,2,80.9999975280763,2|2|2,0:0|0:0|0:0,0:0:0:0:
130,79,244382,1,2,0:0:0:0:
130,79,244767,1,2,0:0:0:0:
142,192,244959,1,2,0:0:0:0:
159,304,245152,1,2,0:0:0:0:
315,281,245344,6,0,L|401:267,1,80.9999975280763,2|2,0:0|0:0,0:0:0:0:
493,338,245729,2,0,L|499:251,2,80.9999975280763,2|2|2,0:0|0:0|0:0,0:0:0:0:
376,361,246305,1,2,0:0:0:0:
240,293,246498,1,2,0:0:0:0:
284,101,246690,1,2,0:0:0:0:
256,192,246882,12,0,248132,0:0:0:0:
211,197,248421,5,8,0:0:0:0:
152,93,248613,1,8,0:0:0:0:
7,272,248805,1,8,0:0:0:0:
60,139,248998,1,8,0:0:0:0:
60,139,249094,1,8,0:0:0:0:
60,139,249190,1,8,0:0:0:0:
200,308,249382,5,8,0:0:0:0:
152,93,249575,1,8,0:3:0:0:
312,301,249767,1,8,0:0:0:0:
457,101,249959,6,0,P|374:98|256:116,1,198.000006042481,4|8,0:0|0:0,0:0:0:0:
133,207,250536,1,2,0:0:0:0:
244,27,250729,1,0,0:0:0:0:
292,206,250921,1,2,0:0:0:0:
133,23,251113,1,8,0:0:0:0:
87,303,251305,2,0,P|92:200|112:107,1,198.000006042481,2|2,0:0|0:0,0:0:0:0:
318,74,251882,5,8,0:0:0:0:
219,227,252075,1,2,0:0:0:0:
425,139,252267,2,0,P|472:150|512:179,1,99.0000030212403,0|2,0:0|0:0,0:0:0:0:
248,297,252652,1,8,0:0:0:0:
318,74,252844,1,2,0:0:0:0:
447,244,253036,6,0,P|443:293|433:341,1,99.0000030212403,2|2,0:0|0:0,0:0:0:0:
338,172,253421,1,8,0:0:0:0:
459,21,253613,1,2,0:0:0:0:
397,247,253805,2,0,P|292:253|245:177,1,198.000006042481,0|8,0:0|0:0,0:0:0:0:
194,26,254382,1,2,0:0:0:0:
131,218,254575,5,0,0:0:0:0:
268,25,254767,1,2,0:0:0:0:
342,196,254959,1,8,0:0:0:0:
70,131,255152,2,0,P|162:120|267:119,1,198.000006042481,2|2,0:0|0:0,0:0:0:0:
308,274,255729,1,8,0:0:0:0:
388,83,255921,1,2,0:0:0:0:
438,341,256113,6,0,P|439:290|428:244,1,99.0000030212403,2|2,0:0|0:0,0:0:0:0:
264,144,256498,1,8,0:0:0:0:
222,280,256690,1,2,0:0:0:0:
346,146,256882,1,0,0:0:0:0:
419,305,257075,1,2,0:0:0:0:
211,200,257267,1,8,0:0:0:0:
424,165,257460,6,0,P|450:129|470:75,1,99.0000030212403,2|0,0:0|0:0,0:0:0:0:
286,67,257844,1,2,0:0:0:0:
340,253,258036,1,8,0:0:0:0:
187,120,258229,2,0,P|146:107|85:107,1,99.0000030212403,2|0,0:0|0:0,0:0:0:0:
220,255,258613,1,2,0:0:0:0:
286,67,258805,1,8,0:0:0:0:
124,188,258998,6,0,P|108:228|102:286,1,99.0000030212403,2|0,0:0|0:0,0:0:0:0:
58,33,259382,1,2,0:0:0:0:
249,181,259575,2,0,P|246:137|231:84,1,99.0000030212403,8|2,0:0|0:0,0:0:0:0:
173,316,259959,1,0,0:0:0:0:
323,235,260152,1,2,0:0:0:0:
277,341,260344,1,8,0:0:0:0:
367,133,260536,1,2,0:0:0:0:
192,223,260729,5,0,0:0:0:0:
402,204,260921,1,8,0:0:0:0:
271,19,261113,1,8,0:0:0:0:
192,223,261305,1,8,0:0:0:0:
222,213,261402,1,8,0:0:0:0:
251,202,261498,1,8,0:0:0:0:
372,95,261690,5,2,0:0:0:0:
345,308,261882,1,8,0:0:0:0:
269,99,262075,1,0,0:0:0:0:
402,338,262267,6,0,L|193:327,1,198.000006042481,4|8,0:0|0:0,0:0:0:0:
107,150,262844,1,2,0:0:0:0:
159,346,263036,1,0,0:0:0:0:
216,177,263229,1,2,0:0:0:0:
49,305,263421,1,8,0:0:0:0:
256,258,263613,2,0,P|304:171|247:90,1,198.000006042481,2|2,0:0|0:0,0:0:0:0:
121,256,264190,5,8,0:0:0:0:
291,331,264382,2,0,P|338:326|395:313,1,99.0000030212403,2|0,0:0|0:0,0:0:0:0:
412,78,264767,1,2,0:0:0:0:
219,177,264959,1,8,0:0:0:0:
388,314,265152,1,2,0:0:0:0:
307,120,265344,6,0,P|234:71|136:116,1,198.000006042481,2|8,0:0|0:0,0:0:0:0:
42,277,265921,1,2,0:0:0:0:
204,255,266113,2,0,P|219:204|217:147,1,99.0000030212403,0|2,0:0|0:0,0:0:0:0:
102,60,266498,1,8,0:0:0:0:
278,42,266690,1,2,0:0:0:0:
324,234,266882,5,0,0:0:0:0:
285,22,267075,1,2,0:0:0:0:
121,195,267267,1,8,0:0:0:0:
349,126,267459,2,0,P|409:141|479:251,1,198.000006042481,2|8,0:0|0:0,0:0:0:0:
226,161,268036,1,8,0:0:0:0:
431,62,268229,1,8,0:0:0:0:
340,304,268421,6,0,L|332:203,1,99.0000030212403,2|2,0:0|0:0,0:0:0:0:
169,57,268805,1,8,0:0:0:0:
301,138,268998,1,2,0:0:0:0:
119,200,269190,1,0,0:0:0:0:
298,255,269382,1,2,0:0:0:0:
265,38,269575,1,8,0:0:0:0:
89,111,269767,6,0,P|41:97|0:72,1,99.0000030212403,2|0,0:0|0:0,0:0:0:0:
43,277,270152,1,2,0:0:0:0:
190,141,270344,1,8,0:0:0:0:
261,348,270536,2,0,L|254:244,1,99.0000030212403,2|0,0:0|0:0,0:0:0:0:
108,325,270921,1,2,0:0:0:0:
205,107,271113,1,8,0:0:0:0:
356,227,271305,6,0,L|347:338,1,99.0000030212403,2|0,0:0|0:0,0:0:0:0:
307,62,271690,1,2,0:0:0:0:
454,145,271882,1,8,0:0:0:0:
241,255,272075,2,0,L|141:245,1,99.0000030212403,2|0,0:0|0:0,0:0:0:0:
210,36,272459,1,2,0:0:0:0:
49,211,272652,1,8,0:0:0:0:
278,186,272844,2,0,P|318:200|372:243,1,99.0000030212403,2|0,0:0|0:0,0:0:0:0:
238,352,273229,5,2,0:0:0:0:
160,154,273421,1,8,0:0:0:0:
93,307,273613,2,0,P|48:301|0:278,1,99.0000030212403,0|8,0:0|0:0,0:0:0:0:
250,122,273998,1,8,0:0:0:0:
126,228,274190,1,8,0:0:0:0:
353,96,274382,1,0,0:0:0:0:
311,356,274575,6,0,P|255:319|231:257,1,135,4|0,0:0|0:0,0:0:0:0:
247,210,274959,2,0,P|257:167|250:122,1,90,8|2,0:0|0:0,0:0:0:0:
83,22,275344,1,0,0:0:0:0:
174,146,275536,1,2,0:0:0:0:
317,26,275729,2,0,P|361:23|421:38,1,90,8|2,0:0|0:0,0:0:0:0:
479,282,276113,6,0,P|467:221|396:161,1,135,2|0,0:0|0:0,0:0:0:0:
376,153,276498,1,8,0:0:0:0:
251,353,276690,1,2,0:0:0:0:
383,249,276882,1,0,0:0:0:0:
201,154,277075,1,2,0:0:0:0:
312,290,277267,2,0,P|332:343|337:412,1,90,8|2,0:0|0:0,0:0:0:0:
54,267,277652,6,0,L|204:243,1,135,2|0,0:0|0:0,0:0:0:0:
231,241,278036,1,8,0:0:0:0:
118,353,278229,1,2,0:0:0:0:
17,173,278421,1,0,0:0:0:0:
137,241,278613,1,2,0:0:0:0:
346,139,278805,2,0,P|298:138|252:156,1,90,8|2,0:0|0:0,0:0:0:0:
205,326,279190,5,0,0:0:0:0:
343,267,279382,1,2,0:0:0:0:
144,112,279575,2,0,P|105:97|52:95,1,90,8|2,0:0|0:0,0:0:0:0:
193,217,279959,1,0,0:0:0:0:
223,72,280152,1,2,0:0:0:0:
283,257,280344,1,8,0:0:0:0:
317,65,280536,1,2,0:0:0:0:
416,283,280729,6,0,P|346:265|245:257,1,135,2|0,0:0|0:0,0:0:0:0:
240,268,281113,1,8,0:0:0:0:
372,162,281305,1,2,0:0:0:0:
295,362,281498,1,0,0:0:0:0:
222,116,281690,1,2,0:0:0:0:
371,238,281882,2,0,P|412:232|464:216,1,90,8|2,0:0|0:0,0:0:0:0:
263,43,282267,6,0,L|272:185,1,135,2|0,0:0|0:0,0:0:0:0:
226,191,282652,2,0,L|129:180,1,90,8|2,0:0|0:0,0:0:0:0:
349,262,283036,2,0,L|344:172,1,90,0|2,0:0|0:0,0:0:0:0:
276,346,283421,1,8,0:0:0:0:
424,234,283613,1,2,0:0:0:0:
249,269,283805,5,2,0:0:0:0:
397,333,283998,1,2,0:0:0:0:
318,156,284190,1,8,0:0:0:0:
188,325,284382,2,0,L|199:225,1,90,2|0,0:0|0:0,0:0:0:0:
38,173,284767,1,2,0:0:0:0:
197,235,284959,1,8,0:0:0:0:
38,173,285152,2,0,L|28:262,1,90,2|2,0:0|0:0,0:0:0:0:
208,116,285536,5,2,0:0:0:0:
0,30,285729,1,8,0:0:0:0:
46,261,285921,1,8,0:0:0:0:
157,91,286113,2,0,L|229:84,1,45,8|0,0:0|0:0,0:0:0:0:
274,201,286305,2,0,L|322:206,1,45,2|0,0:0|0:0,0:0:0:0:
479,97,286498,2,0,L|488:150,1,45,8|0,0:0|0:0,0:0:0:0:
393,253,286690,2,0,L|389:312,1,45,8|0,0:0|0:0,0:0:0:0:
266,167,286882,6,0,B|239:135|239:135|262:206|244:284,1,180,4|8,0:0|0:0,0:0:0:0:
308,82,287459,2,0,B|341:51|341:51|381:91,1,90,2|0,0:0|0:0,0:0:0:0:
462,172,287844,1,2,0:0:0:0:
272,266,288036,1,8,0:0:0:0:
462,172,288229,2,0,L|456:82,1,90,2|0,0:0|0:0,0:0:0:0:
388,312,288613,5,2,0:0:0:0:
271,120,288805,1,8,0:0:0:0:
159,197,288998,2,0,P|114:194|71:178,1,90,2|0,0:0|0:0,0:0:0:0:
299,91,289382,1,2,0:0:0:0:
248,286,289575,1,8,0:0:0:0:
401,184,289767,6,0,P|445:167|498:166,1,90,2|0,0:0|0:0,0:0:0:0:
323,307,290152,1,2,0:0:0:0:
372,113,290344,1,8,0:0:0:0:
130,154,290536,2,0,B|106:111|106:111|192:86|256:125,1,180,2|2,0:0|0:0,0:0:0:0:
358,213,291113,1,8,0:0:0:0:
138,276,291305,2,0,P|93:267|53:247,1,90,2|0,0:0|0:0,0:0:0:0:
276,176,291690,5,2,0:0:0:0:
138,276,291882,1,8,0:0:0:0:
316,94,292075,2,0,P|362:170|323:250,1,180,2|2,0:0|0:0,0:0:0:0:
119,99,292652,1,8,0:0:0:0:
119,99,292748,1,0,0:0:0:0:
119,99,292844,1,8,0:0:0:0:
119,99,292940,1,0,0:0:0:0:
119,99,293036,6,0,P|83:127|56:202,1,90,2|0,0:0|0:0,0:0:0:0:
121,315,293421,1,8,0:0:0:0:
226,144,293613,2,0,P|236:95|231:22,1,90,2|0,0:0|0:0,0:0:0:0:
299,259,293998,1,2,0:0:0:0:
386,88,294190,1,8,0:0:0:0:
466,291,294382,2,0,P|420:281|383:256,1,90,2|0,0:0|0:0,0:0:0:0:
196,57,294767,5,2,0:0:0:0:
392,165,294959,1,8,0:0:0:0:
185,296,295152,1,2,0:0:0:0:
296,101,295344,1,0,0:0:0:0:
360,269,295536,1,8,0:0:0:0:
159,134,295729,1,8,0:0:0:0:
196,378,295921,1,2,0:0:0:0:
196,378,296017,1,0,0:0:0:0:
196,378,296113,5,0,0:0:0:0:
276,177,296305,1,0,0:0:0:0:
91,260,296498,1,8,0:0:0:0:
321,358,296690,1,2,0:0:0:0:
321,357,296786,1,0,0:0:0:0:
321,358,296882,1,8,0:0:0:0:
259,99,297075,1,0,0:0:0:0:
198,290,297267,1,8,0:0:0:0:
460,177,297459,1,2,0:0:0:0:
321,39,297652,5,8,0:0:0:0:
397,324,297844,1,8,0:0:0:0:
487,102,298036,1,8,0:0:0:0:
242,234,298229,1,0,0:0:0:0:
212,39,298421,5,8,0:0:0:0:
266,345,298613,1,8,0:0:0:0:
400,101,298805,1,8,0:0:0:0:
65,200,298998,1,8,0:0:0:0:
385,257,299190,1,4,0:0:0:0:
280,95,299575,6,0,L|274:178,1,76.5000014591217,2|2,0:0|0:0,0:0:0:0:
187,129,299959,2,0,L|180:205,1,76.5000014591217,2|2,0:0|0:0,0:0:0:0:
71,362,300344,2,0,L|66:269,1,76.5000014591217,2|2,0:0|0:0,0:0:0:0:
328,263,300729,6,0,P|251:264|175:275,1,153.000002918243,2|2,0:0|0:0,0:0:0:0:
42,150,301305,1,2,0:0:0:0:
152,100,301498,2,0,P|218:104|324:96,1,153.000002918243,2|0,0:0|0:0,0:0:0:0:
430,133,302075,1,2,0:0:0:0:
366,246,302267,5,2,0:0:0:0:
282,283,302459,1,2,0:0:0:0:
190,272,302652,1,2,0:0:0:0:
127,205,302844,1,2,0:0:0:0:
176,282,303036,1,2,0:0:0:0:
266,300,303229,1,2,0:0:0:0:
356,283,303421,1,2,0:0:0:0:
414,212,303613,1,2,0:0:0:0:
169,326,303998,5,2,0:0:0:0:
261,327,304191,1,2,0:0:0:0:
346,293,304383,1,2,0:0:0:0:
151,48,304767,1,2,0:0:0:0:
248,175,304959,1,2,0:0:0:0:
248,175,305344,5,2,0:0:0:0:
346,293,305536,1,2,0:0:0:0:
153,265,305729,2,0,L|61:244,1,76.5000014591217,2|2,0:0|0:0,0:0:0:0:
195,189,306113,2,0,L|103:168,1,76.5000014591217,2|2,0:0|0:0,0:0:0:0:
238,112,306498,2,0,L|146:91,1,76.5000014591217,2|2,0:0|0:0,0:0:0:0:
355,52,306882,6,0,L|204:19,1,153.000002918243,2|2,0:0|0:0,0:0:0:0:
325,169,307459,1,2,0:0:0:0:
437,78,307652,2,0,L|452:-21,2,76.5000014591217,2|2|2,0:0|0:0|0:0,0:0:0:0:
325,169,308229,2,0,P|263:128|193:151,1,153.000002918243,2|2,0:0|0:0,0:0:0:0:
142,302,308805,5,2,0:0:0:0:
231,219,308998,1,2,0:0:0:0:
109,182,309190,1,2,0:0:0:0:
228,312,309382,1,2,0:0:0:0:
191,137,309575,1,2,0:0:0:0:
59,260,309767,1,2,0:0:0:0:
352,48,310171,5,2,0:0:0:0:
316,168,310363,1,2,0:0:0:0:
432,147,310555,1,2,0:0:0:0:
244,71,310748,1,2,0:0:0:0:
394,270,310940,1,2,0:0:0:0:
470,20,311132,1,2,0:0:0:0:
227,163,311325,1,2,0:0:0:0:
256,192,311421,12,0,314978,0:0:0:0:
