osu file format v5

[General]
AudioFilename: Mononoke_Hime_-_Mononoke_Hime.mp3
AudioLeadIn: 0
PreviewTime: -1
Countdown: 1
SampleSet: Soft
StackLeniency: 0.7
Mode: 0
LetterboxInBreaks: 1

[Metadata]
Title:Mononoke Hime
Artist:Princess Mononoke
Creator:Exilon
Version:Normal
Source:
Tags:

[Difficulty]
HPDrainRate:6
CircleSize:6
OverallDifficulty:4
SliderMultiplier:1.3
SliderTickRate:2

[Events]
//Background and Video events
0,0,"bg.PNG"
//Break Periods
2,94788,110089
2,187258,199030
//Storyboard Layer 0 (Background)
//Storyboard Layer 1 (Failing)
//Storyboard Layer 2 (Passing)
//Storyboard Layer 3 (Foreground)
//Storyboard Sound Samples
//Background Colour Transformations
3,100,0,0,0

[TimingPoints]
22675,705.749505975346,4,2,0,100,1

[Colours]
Combo1 : 141,74,181
Combo2 : 44,118,201
Combo3 : 91,201,80
Combo4 : 74,160,170

[HitObjects]
103,215,22675,5,0
121,159,23027,1,0
154,110,23380,1,0
195,68,23733,1,0
251,52,24086,1,2
224,225,25145,1,0
160,192,25497,1,0
160,128,25850,2,2,C|312:102|480:192,1,325,0|0
384,272,28320,5,0
416,224,28673,1,0
432,160,29026,1,0
416,96,29379,1,0
368,64,29732,1,2
192,48,30791,1,0
240,96,31143,2,2,B|112:256,1,195
64,240,32555,1,2
32,352,33261,5,0
80,320,33614,1,0
128,288,33966,2,0,C|209:236,1,65
240,272,34672,1,0
288,304,35025,1,0
336,272,35378,1,2
224,224,36084,5,0
224,112,36789,1,0
336,112,37495,1,0
336,224,38201,2,2,C|192:224,1,130
288,304,39612,5,0
240,272,39965,1,0
192,240,40318,1,0
144,208,40671,1,0
96,176,41024,1,2
0,96,41730,1,2
112,96,42435,1,6
256,192,43847,5,4
81,36,45258,5,0
119,80,45611,1,0
160,32,45964,1,0
204,79,46317,1,0
248,32,46670,1,2
120,160,47729,5,0
152,112,48081,2,2,B|0:112|88:256|216:272,1,260
400,192,50904,5,0
360,152,51257,1,0
320,192,51610,1,0
280,152,51963,1,0
256,208,52316,2,2,C|208:136,1,65
104,144,53375,5,0
96,208,53727,2,2,C|176:296|352:272,1,260
377,142,55845,5,0
434,131,56198,1,0
396,91,56550,1,2
292,76,57256,1,0
245,111,57609,1,0
299,133,57962,1,2
174,31,59021,1,0
127,67,59373,2,2,C|191:131,1,65
100,116,60079,2,2,C|155:166,1,65
148,159,60785,1,2
339,51,62196,5,0
378,93,62549,1,0
370,151,62902,1,0
323,186,63255,1,0
379,201,63608,2,6,C|411:265,1,65
292,275,64667,5,2
278,217,65019,2,4,B|22:153,1,260
244,71,67842,5,0
297,47,68195,1,0
347,76,68548,1,0
298,108,68901,1,0
248,136,69254,2,0,C|272:184|352:152,1,130
440,208,70665,2,2,C|290:260,2,130
150,270,73488,5,2
255,86,74194,1,2
362,270,74900,1,2
369,162,75606,5,0
347,107,75959,1,0
291,87,76311,1,0
233,98,76664,1,0
201,147,77017,1,0
193,205,77370,1,0
240,239,77723,2,4,B|446:199,1,195
432,200,79134,5,2
376,96,79840,1,2
256,80,80546,1,2
112,176,81957,6,0,C|200:176,1,65
288,176,82663,2,0,C|216:176,1,65
192,224,83369,1,0
240,256,83722,1,0
224,312,84075,1,0
160,312,84428,1,0
144,256,84780,1,2
88,152,85486,5,0
136,112,85839,1,0
184,72,86192,1,0
256,160,86898,1,2
368,200,87603,1,0
368,200,87956,1,2
232,200,88662,1,0
232,200,89015,1,2
256,192,89721,12,0,91132
252,191,91485,5,0
301,159,91838,1,0
321,274,92544,1,2
259,154,93249,1,0
290,203,93602,1,2
254,91,94308,1,0
253,149,94661,1,2
356,235,111599,5,0
303,208,111952,1,0
304,266,112305,1,0
255,232,112658,1,0
239,288,113010,2,2,C|207:128,1,130
267,137,114069,1,0
295,85,114422,1,0
236,89,114775,2,2,C|428:153,1,195
192,208,117245,5,0
144,248,117598,1,0
101,283,117951,1,0
144,248,118304,1,0
192,208,118656,2,2,C|128:272|32:208,1,195
95,188,120068,1,2
411,36,122185,5,0
361,67,122538,1,0
383,121,122891,2,2,B|447:89|447:89,4,65
252,238,125361,5,0
196,222,125714,1,0
201,280,126067,1,0
225,333,126420,2,2,C|99:302|97:302,1,130
328,255,128537,5,0
377,223,128890,1,0
325,195,129243,1,0
373,162,129596,1,0
320,136,129948,2,0,C|225:44,1,130
343,58,131360,2,4,B|215:26|219:265|104:252,1,260
8,24,134183,5,0
48,72,134536,1,0
8,120,134889,1,0
48,168,135242,1,0
8,216,135594,2,2,C|232:248,1,195
144,272,137006,2,2,B|400:144,1,260
320,184,138770,1,2
264,216,139123,1,2
348,289,139829,5,0
381,241,140182,1,0
409,292,140535,1,0
439,242,140888,1,0
416,192,141240,2,0,C|449:132,1,65
330,144,142299,1,0
380,173,142652,2,0,B|188:77,1,195
208,88,144063,1,2
168,200,144769,5,0
152,256,145122,1,0
208,232,145475,2,2,C|240:296,1,65
256,232,146181,2,2,C|288:296,1,65
285,289,146886,1,0
232,120,147945,5,0
264,168,148298,2,2,C|296:104,1,65
328,160,149004,2,2,C|296:224,1,65
264,168,149709,1,2
472,24,151121,5,0
432,72,151474,1,0
392,24,151827,1,0
352,72,152180,1,0
312,24,152532,2,2,C|246:88,1,65
160,112,153591,1,2
112,144,153944,2,2,B|264:296,1,195
208,320,155355,1,2
72,128,156767,5,0
128,128,157120,1,0
184,128,157473,1,0
240,128,157826,1,0
296,128,158178,2,2,C|392:128,3,65
296,128,159590,5,0
296,248,160296,1,0
176,248,161001,1,4
80,72,162413,5,4
256,40,163119,1,0
432,72,163824,1,4
384,224,164530,5,0
328,264,164883,1,0
328,192,165236,1,0
282,229,165589,1,0
328,264,165942,1,0
328,192,166295,1,0
384,223,166647,2,2,B|160:224,1,195
192,223,168059,2,2,C|288:287,1,65
245,258,168765,1,2
256,192,169470,1,4
163,341,170529,5,0
117,304,170882,2,0,C|181:304|117:240,1,130
78,256,171941,1,0
118,213,172293,1,2
256,24,173705,5,4
312,120,174411,5,0
272,160,174764,1,0
232,200,175116,1,0
328,264,175822,1,2
208,264,176528,1,0
168,224,176881,1,2
256,144,177587,1,0
296,184,177939,1,2
256,192,180057,5,0
216,232,180410,1,0
200,176,180762,1,0
256,72,181468,5,4
136,80,182174,5,0
104,128,182527,1,2
216,152,183233,1,0
216,152,183585,2,0,B|312:88|408:88|504:216|440:312|280:344|184:216|152:216,1,520
256,192,199465,5,4
384,88,200523,5,0
344,136,200876,1,0
312,88,201229,1,0
384,88,201582,1,0
344,136,201935,1,4
336,256,202993,5,4
336,256,203346,1,4
256,168,204052,1,0
168,88,204758,1,6
112,312,206169,5,6
208,240,206875,1,0
296,320,207581,6,4,C|342:249,1,65
360,320,208287,1,0
392,272,208639,1,0
424,320,208992,1,0
456,272,209345,1,0
424,224,209698,1,4
392,272,210051,1,4
424,320,210404,1,4
112,80,211462,5,2
112,80,211815,1,2
112,208,212521,1,0
144,320,213227,1,0
304,320,214285,5,0
288,264,214638,1,0
248,152,215344,1,0
288,184,215697,1,0
328,216,216050,2,4,C|104:280,1,195
96,280,217461,1,4
216,272,218167,5,0
248,320,218520,1,0
272,264,218873,1,0
368,192,219579,1,4
256,152,220284,1,2
256,152,220637,1,2
152,96,221343,1,2
152,96,221696,1,2
284,152,223813,5,2
261,205,224166,1,2
218,165,224519,1,2
155,264,225225,1,6
264,305,225930,1,2
313,273,226283,1,6
271,163,226989,1,0
229,121,227342,1,6
256,192,227695,12,14,231576
