osu file format v14

[General]
AudioFilename: Uber 6 by PrimeMIX.mp3
AudioLeadIn: 0
PreviewTime: 19986
Countdown: 0
SampleSet: Normal
StackLeniency: 0.7
Mode: 1
LetterboxInBreaks: 0
WidescreenStoryboard: 0

[Editor]
DistanceSpacing: 0.5
BeatDivisor: 4
GridSize: 32
TimelineZoom: 1

[Metadata]
Title:Uber 6
TitleUnicode:Uber 6
Artist:PrimeMIX
ArtistUnicode:PrimeMIX
Creator:snowball112
Version:Muzukashii
Source:O2 Jam
Tags:Onicorn
BeatmapID:747469
BeatmapSetID:332051

[Difficulty]
HPDrainRate:4
CircleSize:2
OverallDifficulty:4
ApproachRate:0
SliderMultiplier:1.4
SliderTickRate:1

[Events]
//Background and Video events
0,0,"Lama-Alpaka_Trekking_Welschnofen_Carezza_03.JPG",0,0
//Break Periods
//Storyboard Layer 0 (Background)
//Storyboard Layer 1 (Fail)
//Storyboard Layer 2 (Pass)
//Storyboard Layer 3 (Foreground)
//Storyboard Sound Samples

[TimingPoints]
1254.40962749467,292.682926829268,4,1,0,100,1,0
97254,-100,4,1,0,100,0,1
115986,-100,4,1,0,100,0,0

[HitObjects]
256,192,1255,5,0,0:0:0:0:
256,192,1547,1,8,0:0:0:0:
256,192,1694,1,0,0:0:0:0:
256,192,1840,1,0,0:0:0:0:
256,192,2133,1,8,0:0:0:0:
256,192,2425,1,0,0:0:0:0:
256,192,2718,1,8,0:0:0:0:
256,192,3011,1,0,0:0:0:0:
256,192,3303,1,0,0:0:0:0:
256,192,3450,1,0,0:0:0:0:
256,192,3596,1,8,0:0:0:0:
256,192,3889,1,0,0:0:0:0:
256,192,4035,1,0,0:0:0:0:
256,192,4181,1,8,0:0:0:0:
256,192,4474,1,8,0:0:0:0:
256,192,4767,1,4,0:0:0:0:
256,192,4986,1,4,0:0:0:0:
256,192,5352,1,0,0:0:0:0:
256,192,5498,1,0,0:0:0:0:
256,192,5572,1,0,0:0:0:0:
256,192,5644,1,0,0:0:0:0:
256,192,5937,1,8,0:0:0:0:
256,192,6230,1,0,0:0:0:0:
256,192,6376,1,8,0:0:0:0:
256,192,6523,1,0,0:0:0:0:
256,192,6815,1,8,0:0:0:0:
256,192,7108,1,0,0:0:0:0:
256,192,7401,1,8,0:0:0:0:
256,192,7694,1,0,0:0:0:0:
256,192,7986,1,0,0:0:0:0:
256,192,8133,1,0,0:0:0:0:
256,192,8279,1,8,0:0:0:0:
256,192,8572,1,0,0:0:0:0:
256,192,8718,1,8,0:0:0:0:
256,192,8864,1,0,0:0:0:0:
256,192,9157,1,0,0:0:0:0:
256,192,9449,1,4,0:0:0:0:
256,192,9669,1,12,0:0:0:0:
256,192,10035,1,0,0:0:0:0:
256,192,10181,1,8,0:0:0:0:
256,192,10254,1,8,0:0:0:0:
256,192,10328,1,8,0:0:0:0:
256,192,10620,1,8,0:0:0:0:
256,192,10913,1,0,0:0:0:0:
256,192,11059,1,0,0:0:0:0:
256,192,11206,1,8,0:0:0:0:
256,192,11498,1,0,0:0:0:0:
256,192,11791,1,4,0:0:0:0:
256,192,12011,1,4,0:0:0:0:
256,192,12376,1,0,0:0:0:0:
256,192,12522,1,0,0:0:0:0:
256,192,12595,1,0,0:0:0:0:
256,192,12669,1,0,0:0:0:0:
256,192,12961,1,8,0:0:0:0:
256,192,13254,1,0,0:0:0:0:
256,192,13401,1,8,0:0:0:0:
256,192,13547,1,8,0:0:0:0:
256,192,13840,1,0,0:0:0:0:
256,192,14133,1,4,0:0:0:0:
256,192,14352,1,12,0:0:0:0:
256,192,14718,1,0,0:0:0:0:
256,192,14864,1,8,0:0:0:0:
256,192,14937,1,8,0:0:0:0:
256,192,15010,1,8,0:0:0:0:
256,192,15303,1,0,0:0:0:0:
256,192,15595,1,8,0:0:0:0:
256,192,15743,1,8,0:0:0:0:
256,192,15889,1,0,0:0:0:0:
256,192,16181,1,0,0:0:0:0:
256,192,16474,1,8,0:0:0:0:
256,192,16912,1,8,0:0:0:0:
256,192,17059,1,0,0:0:0:0:
256,192,17206,1,8,0:0:0:0:
256,192,17352,1,8,0:0:0:0:
256,192,17498,1,0,0:0:0:0:
256,192,17645,1,8,0:0:0:0:
256,192,17937,1,0,0:0:0:0:
256,192,18084,1,0,0:0:0:0:
256,192,18230,1,8,0:0:0:0:
256,192,18523,1,0,0:0:0:0:
256,192,18669,1,8,0:0:0:0:
256,192,18816,1,4,0:0:0:0:
256,192,19035,1,4,0:0:0:0:
256,192,19254,1,12,0:0:0:0:
256,192,19401,1,4,0:0:0:0:
256,192,19694,1,0,0:0:0:0:
256,192,19986,1,12,0:0:0:0:
256,192,20279,1,0,0:0:0:0:
256,192,20425,1,0,0:0:0:0:
256,192,20572,1,8,0:0:0:0:
256,192,20864,1,0,0:0:0:0:
256,192,21157,1,8,0:0:0:0:
256,192,21450,1,8,0:0:0:0:
256,192,21742,1,0,0:0:0:0:
256,192,21889,1,0,0:0:0:0:
256,192,22035,1,0,0:0:0:0:
256,192,22328,1,8,0:0:0:0:
256,192,22913,1,0,0:0:0:0:
256,192,23206,1,8,0:0:0:0:
256,192,23498,1,0,0:0:0:0:
256,192,23645,1,0,0:0:0:0:
256,192,23791,1,8,0:0:0:0:
256,192,24084,1,0,0:0:0:0:
256,192,24230,1,8,0:0:0:0:
256,192,24376,1,8,0:0:0:0:
256,192,24669,1,8,0:0:0:0:
256,192,25547,1,8,0:0:0:0:
256,192,25840,1,8,0:0:0:0:
256,192,26133,1,0,0:0:0:0:
256,192,26425,1,8,0:0:0:0:
256,192,26718,1,0,0:0:0:0:
256,192,27011,1,8,0:0:0:0:
256,192,27596,1,0,0:0:0:0:
256,192,28035,1,8,0:0:0:0:
256,192,28181,1,4,0:0:0:0:
256,192,28474,1,8,0:0:0:0:
256,192,28767,1,0,0:0:0:0:
256,192,28913,1,0,0:0:0:0:
256,192,29059,1,8,0:0:0:0:
256,192,29352,1,12,0:0:0:0:
256,192,30230,1,8,0:0:0:0:
256,192,30523,1,0,0:0:0:0:
256,192,31108,1,8,0:0:0:0:
256,192,31547,1,0,0:0:0:0:
256,192,31694,5,8,0:0:0:0:
256,192,32279,1,0,0:0:0:0:
256,192,32572,1,8,0:0:0:0:
256,192,32864,5,8,0:0:0:0:
256,192,33742,1,8,0:0:0:0:
256,192,33888,1,8,0:0:0:0:
256,192,34035,1,4,0:0:0:0:
256,192,34328,1,8,0:0:0:0:
256,192,34767,1,0,0:0:0:0:
256,192,34913,1,8,0:0:0:0:
256,192,35206,1,0,0:0:0:0:
256,192,35498,1,8,0:0:0:0:
256,192,35937,1,0,0:0:0:0:
256,192,36084,1,8,0:0:0:0:
256,192,36376,5,0,0:0:0:0:
256,192,36669,1,8,0:0:0:0:
256,192,36962,1,0,0:0:0:0:
256,192,37254,1,8,0:0:0:0:
256,192,37547,1,0,0:0:0:0:
256,192,37694,1,8,0:0:0:0:
256,192,37840,1,0,0:0:0:0:
256,192,37986,1,8,0:0:0:0:
256,192,38132,5,0,0:0:0:0:
256,192,38279,1,8,0:0:0:0:
256,192,38352,1,8,0:0:0:0:
256,192,38425,1,8,0:0:0:0:
256,192,38718,5,8,0:0:0:0:
256,192,38864,1,0,0:0:0:0:
256,192,38937,1,0,0:0:0:0:
256,192,39010,1,0,0:0:0:0:
256,192,39303,1,0,0:0:0:0:
256,192,39450,1,0,0:0:0:0:
256,192,39596,1,8,0:0:0:0:
256,192,39889,1,0,0:0:0:0:
256,192,40035,1,0,0:0:0:0:
256,192,40181,1,8,0:0:0:0:
256,192,40474,1,4,0:0:0:0:
256,192,40694,1,4,0:0:0:0:
256,192,40913,1,4,0:0:0:0:
256,192,41059,1,12,0:0:0:0:
256,192,41352,1,0,0:0:0:0:
256,192,41498,1,8,0:0:0:0:
256,192,41571,1,8,0:0:0:0:
256,192,41645,1,8,0:0:0:0:
256,192,41791,1,0,0:0:0:0:
256,192,41937,1,8,0:0:0:0:
256,192,42230,1,8,0:0:0:0:
256,192,42376,1,0,0:0:0:0:
256,192,42522,1,0,0:0:0:0:
256,192,42815,1,8,0:0:0:0:
256,192,42961,1,0,0:0:0:0:
256,192,43108,1,0,0:0:0:0:
256,192,43401,1,8,0:0:0:0:
256,192,43547,1,0,0:0:0:0:
256,192,43693,1,8,0:0:0:0:
256,192,43840,1,0,0:0:0:0:
256,192,43912,1,0,0:0:0:0:
256,192,43986,1,0,0:0:0:0:
256,192,44133,1,8,0:0:0:0:
256,192,44279,1,8,0:0:0:0:
256,192,44572,1,0,0:0:0:0:
256,192,44717,1,8,0:0:0:0:
256,192,44790,1,8,0:0:0:0:
256,192,44865,1,8,0:0:0:0:
256,192,45010,1,8,0:0:0:0:
256,192,45157,1,0,0:0:0:0:
256,192,45303,1,0,0:0:0:0:
256,192,45449,1,8,0:0:0:0:
256,192,45596,1,8,0:0:0:0:
256,192,45742,1,0,0:0:0:0:
256,192,46035,1,0,0:0:0:0:
256,192,46180,1,8,0:0:0:0:
256,192,46253,1,8,0:0:0:0:
256,192,46327,1,8,0:0:0:0:
256,192,46474,1,0,0:0:0:0:
256,192,46620,1,8,0:0:0:0:
256,192,46913,1,8,0:0:0:0:
256,192,47059,1,0,0:0:0:0:
256,192,47206,1,8,0:0:0:0:
256,192,47351,1,0,0:0:0:0:
256,192,47424,1,0,0:0:0:0:
256,192,47498,1,0,0:0:0:0:
256,192,47645,1,8,0:0:0:0:
256,192,47791,1,8,0:0:0:0:
256,192,47937,1,0,0:0:0:0:
256,192,48083,1,0,0:0:0:0:
256,192,48376,1,8,0:0:0:0:
256,192,48669,1,0,0:0:0:0:
256,192,48962,1,8,0:0:0:0:
256,192,49254,1,0,0:0:0:0:
256,192,49401,1,8,0:0:0:0:
256,192,49474,1,8,0:0:0:0:
256,192,49547,1,8,0:0:0:0:
256,192,49694,1,0,0:0:0:0:
256,192,49840,1,8,0:0:0:0:
256,192,50133,1,8,0:0:0:0:
256,192,50425,1,12,0:0:0:0:
256,192,50718,1,0,0:0:0:0:
256,192,50864,1,8,0:0:0:0:
256,192,50937,1,8,0:0:0:0:
256,192,51011,1,8,0:0:0:0:
256,192,51157,1,0,0:0:0:0:
256,192,51303,1,8,0:0:0:0:
256,192,51595,1,8,0:0:0:0:
256,192,51742,1,0,0:0:0:0:
256,192,51888,1,0,0:0:0:0:
256,192,52180,1,8,0:0:0:0:
256,192,52327,1,0,0:0:0:0:
256,192,52473,1,0,0:0:0:0:
256,192,52766,1,8,0:0:0:0:
256,192,52912,1,0,0:0:0:0:
256,192,53058,1,8,0:0:0:0:
256,192,53205,1,0,0:0:0:0:
256,192,53278,1,0,0:0:0:0:
256,192,53351,1,0,0:0:0:0:
256,192,53498,1,8,0:0:0:0:
256,192,53645,1,8,0:0:0:0:
256,192,53937,1,0,0:0:0:0:
256,192,54084,1,8,0:0:0:0:
256,192,54157,1,8,0:0:0:0:
256,192,54230,1,8,0:0:0:0:
256,192,54376,1,8,0:0:0:0:
256,192,54522,1,0,0:0:0:0:
256,192,54669,1,0,0:0:0:0:
256,192,54815,1,8,0:0:0:0:
256,192,54962,1,8,0:0:0:0:
256,192,55108,1,0,0:0:0:0:
256,192,55400,1,0,0:0:0:0:
256,192,55547,1,8,0:0:0:0:
256,192,55620,1,8,0:0:0:0:
256,192,55694,1,8,0:0:0:0:
256,192,55840,1,0,0:0:0:0:
256,192,55986,1,8,0:0:0:0:
256,192,56279,1,8,0:0:0:0:
256,192,56426,1,0,0:0:0:0:
256,192,56571,1,8,0:0:0:0:
256,192,56718,1,0,0:0:0:0:
256,192,56791,1,0,0:0:0:0:
256,192,56864,1,0,0:0:0:0:
256,192,57011,1,8,0:0:0:0:
256,192,57157,1,8,0:0:0:0:
256,192,57450,1,4,0:0:0:0:
256,192,57596,1,12,0:0:0:0:
256,192,57889,1,4,0:0:0:0:
256,192,58181,1,12,0:0:0:0:
256,192,58474,1,12,0:0:0:0:
256,192,58620,1,4,0:0:0:0:
256,192,58913,1,4,0:0:0:0:
256,192,59206,1,4,0:0:0:0:
256,192,59498,1,0,0:0:0:0:
256,192,59791,1,12,0:0:0:0:
256,192,60084,1,0,0:0:0:0:
256,192,60230,1,0,0:0:0:0:
256,192,60376,1,8,0:0:0:0:
256,192,60669,1,0,0:0:0:0:
256,192,60962,1,0,0:0:0:0:
256,192,61254,1,8,0:0:0:0:
256,192,61547,1,0,0:0:0:0:
256,192,61840,1,0,0:0:0:0:
256,192,61986,1,0,0:0:0:0:
256,192,62133,1,8,0:0:0:0:
256,192,62425,1,8,0:0:0:0:
256,192,62718,1,0,0:0:0:0:
256,192,63011,1,8,0:0:0:0:
256,192,63303,1,0,0:0:0:0:
256,192,63596,1,8,0:0:0:0:
256,192,63889,1,0,0:0:0:0:
256,192,64181,1,0,0:0:0:0:
256,192,64328,1,0,0:0:0:0:
256,192,64474,1,8,0:0:0:0:
256,192,64767,1,0,0:0:0:0:
256,192,65059,1,0,0:0:0:0:
256,192,65352,1,8,0:0:0:0:
256,192,65645,1,0,0:0:0:0:
256,192,65791,1,8,0:0:0:0:
256,192,66084,1,8,0:0:0:0:
256,192,66376,1,8,0:0:0:0:
256,192,66523,1,0,0:0:0:0:
256,192,66669,1,0,0:0:0:0:
256,192,66815,1,8,0:0:0:0:
256,192,67108,1,0,0:0:0:0:
256,192,67254,1,8,0:0:0:0:
256,192,67401,1,8,0:0:0:0:
256,192,67694,1,0,0:0:0:0:
256,192,67986,1,8,0:0:0:0:
256,192,68572,1,0,0:0:0:0:
256,192,68717,1,8,0:0:0:0:
256,192,68790,1,8,0:0:0:0:
256,192,68864,1,8,0:0:0:0:
256,192,69157,1,0,0:0:0:0:
256,192,69450,1,8,0:0:0:0:
256,192,69742,1,0,0:0:0:0:
256,192,70035,1,8,0:0:0:0:
256,192,70181,1,8,0:0:0:0:
256,192,70328,1,0,0:0:0:0:
256,192,70620,1,8,0:0:0:0:
256,192,70913,1,0,0:0:0:0:
256,192,71206,1,0,0:0:0:0:
256,192,71352,1,0,0:0:0:0:
256,192,71498,1,8,0:0:0:0:
256,192,71791,1,0,0:0:0:0:
256,192,72084,1,8,0:0:0:0:
256,192,72376,1,0,0:0:0:0:
256,192,72523,1,8,0:0:0:0:
256,192,72669,1,8,0:0:0:0:
256,192,72962,1,0,0:0:0:0:
256,192,73254,1,0,0:0:0:0:
256,192,73547,1,0,0:0:0:0:
256,192,73694,1,0,0:0:0:0:
256,192,73840,1,8,0:0:0:0:
256,192,74133,1,8,0:0:0:0:
256,192,74425,1,0,0:0:0:0:
256,192,74718,1,8,0:0:0:0:
256,192,75011,1,0,0:0:0:0:
256,192,75157,1,8,0:0:0:0:
256,192,75450,1,8,0:0:0:0:
256,192,75742,1,0,0:0:0:0:
256,192,75889,1,8,0:0:0:0:
256,192,76035,1,8,0:0:0:0:
256,192,76181,1,0,0:0:0:0:
256,192,76474,1,8,0:0:0:0:
256,192,76767,1,0,0:0:0:0:
256,192,77059,1,8,0:0:0:0:
256,192,77206,1,0,0:0:0:0:
256,192,77352,1,4,0:0:0:0:
256,192,77937,1,0,0:0:0:0:
256,192,78084,1,8,0:0:0:0:
256,192,78230,1,8,0:0:0:0:
256,192,78376,1,0,0:0:0:0:
256,192,78522,1,12,0:0:0:0:
256,192,79694,1,8,0:0:0:0:
256,192,80864,1,8,0:0:0:0:
256,192,81450,1,0,0:0:0:0:
256,192,82035,1,8,0:0:0:0:
256,192,82620,1,0,0:0:0:0:
256,192,83206,1,0,0:0:0:0:
256,192,84376,1,8,0:0:0:0:
256,192,85547,1,0,0:0:0:0:
256,192,86718,1,8,0:0:0:0:
256,192,87303,1,0,0:0:0:0:
256,192,87596,1,4,0:0:0:0:
256,192,87889,1,12,0:0:0:0:
256,192,88767,1,0,0:0:0:0:
256,192,89059,1,8,0:0:0:0:
256,192,89645,1,0,0:0:0:0:
256,192,90084,1,0,0:0:0:0:
256,192,90230,1,8,0:0:0:0:
256,192,90815,1,8,0:0:0:0:
256,192,91108,1,0,0:0:0:0:
256,192,91401,1,0,0:0:0:0:
256,192,91986,1,8,0:0:0:0:
256,192,92279,1,8,0:0:0:0:
256,192,92572,1,0,0:0:0:0:
256,192,92864,1,8,0:0:0:0:
256,192,93157,1,0,0:0:0:0:
256,192,93303,1,0,0:0:0:0:
256,192,93450,1,8,0:0:0:0:
256,192,93742,1,0,0:0:0:0:
256,192,94035,1,8,0:0:0:0:
256,192,94327,1,0,0:0:0:0:
256,192,94474,1,0,0:0:0:0:
256,192,94620,1,8,0:0:0:0:
256,192,94913,1,0,0:0:0:0:
256,192,95206,1,8,0:0:0:0:
256,192,95498,1,0,0:0:0:0:
256,192,95644,1,0,0:0:0:0:
256,192,95791,1,0,0:0:0:0:
256,192,96084,1,8,0:0:0:0:
256,192,96376,1,8,0:0:0:0:
256,192,96669,1,0,0:0:0:0:
256,192,96815,1,0,0:0:0:0:
256,192,96962,1,8,0:0:0:0:
256,192,97108,1,0,0:0:0:0:
256,192,97254,5,8,0:0:0:0:
256,192,97400,1,0,0:0:0:0:
256,192,97547,1,8,0:0:0:0:
256,192,97694,1,0,0:0:0:0:
256,192,97766,1,0,0:0:0:0:
256,192,97840,1,0,0:0:0:0:
256,192,97986,1,8,0:0:0:0:
256,192,98133,1,8,0:0:0:0:
256,192,98279,1,0,0:0:0:0:
256,192,98425,1,8,0:0:0:0:
256,192,98717,1,0,0:0:0:0:
256,192,98864,1,0,0:0:0:0:
256,192,99010,1,8,0:0:0:0:
256,192,99303,1,0,0:0:0:0:
256,192,99449,1,8,0:0:0:0:
256,192,99595,1,8,0:0:0:0:
256,192,99742,1,0,0:0:0:0:
256,192,99889,1,0,0:0:0:0:
256,192,100035,1,8,0:0:0:0:
256,192,100108,1,8,0:0:0:0:
256,192,100181,1,8,0:0:0:0:
256,192,100328,1,8,0:0:0:0:
256,192,100474,1,0,0:0:0:0:
256,192,100620,1,8,0:0:0:0:
256,192,100767,1,0,0:0:0:0:
256,192,101059,1,8,0:0:0:0:
256,192,101205,1,0,0:0:0:0:
256,192,101351,1,0,0:0:0:0:
256,192,101645,1,0,0:0:0:0:
256,192,101791,1,0,0:0:0:0:
256,192,101937,1,8,0:0:0:0:
256,192,102083,1,0,0:0:0:0:
256,192,102230,1,8,0:0:0:0:
256,192,102376,1,0,0:0:0:0:
256,192,102449,1,0,0:0:0:0:
256,192,102523,1,0,0:0:0:0:
256,192,102669,1,8,0:0:0:0:
256,192,102815,1,8,0:0:0:0:
256,192,102962,1,0,0:0:0:0:
256,192,103108,1,8,0:0:0:0:
256,192,103400,1,8,0:0:0:0:
256,192,103547,1,0,0:0:0:0:
256,192,103694,1,0,0:0:0:0:
256,192,103839,1,0,0:0:0:0:
256,192,103986,1,8,0:0:0:0:
256,192,104132,1,0,0:0:0:0:
256,192,104279,1,0,0:0:0:0:
256,192,104571,1,8,0:0:0:0:
256,192,104718,1,0,0:0:0:0:
256,192,104790,1,0,0:0:0:0:
256,192,104864,1,0,0:0:0:0:
256,192,105011,1,8,0:0:0:0:
256,192,105156,1,0,0:0:0:0:
256,192,105303,1,8,0:0:0:0:
256,192,105450,1,0,0:0:0:0:
256,192,105596,1,8,0:0:0:0:
256,192,105669,1,8,0:0:0:0:
256,192,105742,1,8,0:0:0:0:
256,192,105889,1,0,0:0:0:0:
256,192,106035,1,8,0:0:0:0:
256,192,106181,1,8,0:0:0:0:
256,192,106328,1,4,0:0:0:0:
256,192,106621,1,8,0:0:0:0:
256,192,106912,1,0,0:0:0:0:
256,192,107059,1,8,0:0:0:0:
256,192,107132,1,8,0:0:0:0:
256,192,107206,1,8,0:0:0:0:
256,192,107352,1,0,0:0:0:0:
256,192,107498,1,8,0:0:0:0:
256,192,107645,1,0,0:0:0:0:
256,192,107791,1,8,0:0:0:0:
256,192,108083,1,8,0:0:0:0:
256,192,108230,1,0,0:0:0:0:
256,192,108376,1,0,0:0:0:0:
256,192,108669,1,0,0:0:0:0:
256,192,108815,1,0,0:0:0:0:
256,192,108962,1,8,0:0:0:0:
256,192,109108,1,0,0:0:0:0:
256,192,109254,1,8,0:0:0:0:
256,192,109401,1,0,0:0:0:0:
256,192,109473,1,0,0:0:0:0:
256,192,109547,1,0,0:0:0:0:
256,192,109694,1,0,0:0:0:0:
256,192,109839,1,8,0:0:0:0:
256,192,109986,1,0,0:0:0:0:
256,192,110133,5,8,0:0:0:0:
256,192,110425,1,0,0:0:0:0:
256,192,110572,1,8,0:0:0:0:
256,192,110645,1,8,0:0:0:0:
256,192,110718,1,8,0:0:0:0:
256,192,110864,1,0,0:0:0:0:
256,192,111011,1,8,0:0:0:0:
256,192,111157,1,0,0:0:0:0:
256,192,111303,1,8,0:0:0:0:
224,192,111595,1,0,0:0:0:0:
256,192,111888,1,8,0:0:0:0:
288,192,112181,1,0,0:0:0:0:
256,192,112474,1,8,0:0:0:0:
256,192,112766,1,8,0:0:0:0:
256,192,113059,1,0,0:0:0:0:
256,192,113351,1,0,0:0:0:0:
256,192,113645,1,8,0:0:0:0:
256,192,113791,1,0,0:0:0:0:
256,192,113937,1,0,0:0:0:0:
256,192,114084,1,8,0:0:0:0:
256,192,114230,1,8,0:0:0:0:
256,192,114376,1,0,0:0:0:0:
256,192,114523,1,0,0:0:0:0:
256,192,114669,1,8,0:0:0:0:
256,192,114815,1,8,0:0:0:0:
256,192,114961,1,0,0:0:0:0:
256,192,115034,1,0,0:0:0:0:
256,192,115108,1,0,0:0:0:0:
256,192,115254,1,0,0:0:0:0:
256,192,115401,1,0,0:0:0:0:
256,192,115547,1,8,0:0:0:0:
256,192,115620,1,8,0:0:0:0:
256,192,115693,1,8,0:0:0:0:
256,192,115839,1,0,0:0:0:0:
256,192,115986,1,12,0:0:0:0:
