osu file format v14

[General]
AudioFilename: Uber 6 by PrimeMIX.mp3
AudioLeadIn: 0
PreviewTime: 19986
Countdown: 0
SampleSet: None
StackLeniency: 0.7
Mode: 1
LetterboxInBreaks: 0
WidescreenStoryboard: 1

[Editor]
DistanceSpacing: 0.5
BeatDivisor: 4
GridSize: 32
TimelineZoom: 1

[Metadata]
Title:Uber 6
TitleUnicode:Uber 6
Artist:PrimeMIX
ArtistUnicode:PrimeMIX
Creator:snowball112
Version:Kantan
Source:O2 Jam
Tags:Onicorn
BeatmapID:747682
BeatmapSetID:332051

[Difficulty]
HPDrainRate:3
CircleSize:2
OverallDifficulty:3
ApproachRate:0
SliderMultiplier:1.2
SliderTickRate:1

[Events]
//Background and Video events
0,0,"Lama-Alpaka_Trekking_Welschnofen_Carezza_03.JPG",0,0
//Break Periods
//Storyboard Layer 0 (Background)
//Storyboard Layer 1 (Fail)
//Storyboard Layer 2 (Pass)
//Storyboard Layer 3 (Foreground)
//Storyboard Sound Samples

[TimingPoints]
1254.40962749467,292.682926829268,4,1,0,100,1,0
97254,-100,4,1,0,100,0,1
115986,-100,4,1,0,100,0,0

[HitObjects]
256,192,1255,5,0,0:0:0:0:
256,192,1547,1,8,0:0:0:0:
256,192,1840,1,0,0:0:0:0:
256,192,2425,1,0,0:0:0:0:
256,192,3011,1,0,0:0:0:0:
256,192,3303,1,0,0:0:0:0:
256,192,3596,1,0,0:0:0:0:
256,192,3889,1,8,0:0:0:0:
256,192,4181,1,0,0:0:0:0:
256,192,4767,1,4,0:0:0:0:
256,192,5352,1,0,0:0:0:0:
256,192,5937,1,8,0:0:0:0:
256,192,6230,1,8,0:0:0:0:
256,192,6523,1,0,0:0:0:0:
256,192,7108,1,0,0:0:0:0:
256,192,7694,1,8,0:0:0:0:
256,192,7986,1,0,0:0:0:0:
256,192,8279,1,0,0:0:0:0:
256,192,8572,1,8,0:0:0:0:
256,192,8864,1,0,0:0:0:0:
256,192,9449,1,12,0:0:0:0:
256,192,10034,1,8,0:0:0:0:
256,192,10620,1,0,0:0:0:0:
256,192,10912,1,8,0:0:0:0:
256,192,11206,1,0,0:0:0:0:
256,192,11791,1,4,0:0:0:0:
256,192,12376,1,0,0:0:0:0:
256,192,12961,1,8,0:0:0:0:
256,192,13254,1,0,0:0:0:0:
256,192,13547,1,8,0:0:0:0:
256,192,14133,1,12,0:0:0:0:
256,192,14717,1,8,0:0:0:0:
256,192,15303,1,0,0:0:0:0:
256,192,15595,1,8,0:0:0:0:
256,192,15889,1,0,0:0:0:0:
256,192,16474,1,8,0:0:0:0:
256,192,17059,1,0,0:0:0:0:
256,192,17352,1,0,0:0:0:0:
256,192,17645,1,0,0:0:0:0:
256,192,17937,1,8,0:0:0:0:
256,192,18230,1,0,0:0:0:0:
256,192,18816,1,4,0:0:0:0:
256,192,19401,1,4,0:0:0:0:
256,192,19694,1,0,0:0:0:0:
256,192,19986,1,12,0:0:0:0:
256,192,21157,1,8,0:0:0:0:
256,192,21742,1,0,0:0:0:0:
256,192,22328,1,8,0:0:0:0:
256,192,22913,1,8,0:0:0:0:
256,192,23205,1,0,0:0:0:0:
256,192,23498,1,8,0:0:0:0:
256,192,24669,1,8,0:0:0:0:
256,192,25547,1,8,0:0:0:0:
256,192,25840,1,8,0:0:0:0:
256,192,26133,1,0,0:0:0:0:
256,192,26425,1,8,0:0:0:0:
256,192,26718,1,0,0:0:0:0:
256,192,27011,1,8,0:0:0:0:
256,192,27596,1,0,0:0:0:0:
256,192,28181,1,4,0:0:0:0:
256,192,29352,1,12,0:0:0:0:
256,192,30230,1,8,0:0:0:0:
256,192,30523,1,0,0:0:0:0:
256,192,31108,1,8,0:0:0:0:
256,192,31694,5,8,0:0:0:0:
256,192,32279,1,0,0:0:0:0:
256,192,32572,1,8,0:0:0:0:
256,192,32864,5,8,0:0:0:0:
256,192,33742,1,8,0:0:0:0:
256,192,34035,1,4,0:0:0:0:
256,192,34328,1,8,0:0:0:0:
256,192,34913,1,8,0:0:0:0:
256,192,35206,1,0,0:0:0:0:
256,192,35498,1,8,0:0:0:0:
256,192,36084,1,8,0:0:0:0:
256,192,36376,5,0,0:0:0:0:
256,192,36669,1,8,0:0:0:0:
256,192,36962,1,8,0:0:0:0:
256,192,37547,1,0,0:0:0:0:
256,192,37840,1,0,0:0:0:0:
256,192,38132,5,0,0:0:0:0:
256,192,38718,5,8,0:0:0:0:
256,192,39303,1,0,0:0:0:0:
256,192,39888,1,0,0:0:0:0:
256,192,40474,1,4,0:0:0:0:
256,192,40766,1,0,0:0:0:0:
256,192,41059,1,12,0:0:0:0:
256,192,41352,1,0,0:0:0:0:
256,192,41645,1,8,0:0:0:0:
256,192,42230,1,0,0:0:0:0:
256,192,42522,1,8,0:0:0:0:
256,192,42815,1,0,0:0:0:0:
256,192,43108,1,8,0:0:0:0:
256,192,43401,1,8,0:0:0:0:
256,192,43986,1,0,0:0:0:0:
256,192,44572,1,8,0:0:0:0:
256,192,44865,1,0,0:0:0:0:
256,192,45157,1,8,0:0:0:0:
256,192,45742,1,0,0:0:0:0:
256,192,46035,1,0,0:0:0:0:
256,192,46327,1,8,0:0:0:0:
256,192,46913,1,8,0:0:0:0:
256,192,47206,1,0,0:0:0:0:
256,192,47498,1,8,0:0:0:0:
256,192,48083,1,0,0:0:0:0:
256,192,48376,1,8,0:0:0:0:
256,192,48669,1,0,0:0:0:0:
256,192,49254,1,0,0:0:0:0:
256,192,49547,1,0,0:0:0:0:
256,192,49840,1,8,0:0:0:0:
256,192,50425,1,12,0:0:0:0:
256,192,50718,1,0,0:0:0:0:
256,192,51010,1,8,0:0:0:0:
256,192,51595,1,0,0:0:0:0:
256,192,51888,1,8,0:0:0:0:
256,192,52180,1,0,0:0:0:0:
256,192,52473,1,8,0:0:0:0:
256,192,52766,1,8,0:0:0:0:
256,192,53351,1,0,0:0:0:0:
256,192,53937,1,8,0:0:0:0:
256,192,54230,1,0,0:0:0:0:
256,192,54522,1,8,0:0:0:0:
256,192,55108,1,0,0:0:0:0:
256,192,55400,1,0,0:0:0:0:
256,192,55694,1,8,0:0:0:0:
256,192,56279,1,8,0:0:0:0:
256,192,56571,1,0,0:0:0:0:
256,192,56864,1,0,0:0:0:0:
256,192,57450,1,4,0:0:0:0:
256,192,58620,1,4,0:0:0:0:
256,192,58913,1,4,0:0:0:0:
256,192,59206,1,4,0:0:0:0:
256,192,59498,1,0,0:0:0:0:
256,192,59791,1,12,0:0:0:0:
256,192,60376,1,8,0:0:0:0:
256,192,60962,1,0,0:0:0:0:
256,192,61547,1,0,0:0:0:0:
256,192,61840,1,8,0:0:0:0:
256,192,62133,1,8,0:0:0:0:
256,192,62718,1,0,0:0:0:0:
256,192,63303,1,0,0:0:0:0:
256,192,63889,1,0,0:0:0:0:
256,192,64181,1,8,0:0:0:0:
256,192,64474,1,8,0:0:0:0:
256,192,65059,1,0,0:0:0:0:
256,192,65645,1,0,0:0:0:0:
256,192,66230,1,0,0:0:0:0:
256,192,66522,1,8,0:0:0:0:
256,192,66815,1,8,0:0:0:0:
256,192,67401,1,8,0:0:0:0:
256,192,67694,1,0,0:0:0:0:
256,192,67986,1,8,0:0:0:0:
256,192,68572,1,8,0:0:0:0:
256,192,69157,1,0,0:0:0:0:
256,192,69450,1,8,0:0:0:0:
256,192,69742,1,0,0:0:0:0:
256,192,70328,1,0,0:0:0:0:
256,192,70620,1,8,0:0:0:0:
256,192,70913,1,8,0:0:0:0:
256,192,71498,1,8,0:0:0:0:
256,192,71791,1,0,0:0:0:0:
256,192,72084,1,8,0:0:0:0:
256,192,72669,1,8,0:0:0:0:
256,192,72962,1,0,0:0:0:0:
256,192,73254,1,0,0:0:0:0:
256,192,73840,1,8,0:0:0:0:
256,192,74133,1,8,0:0:0:0:
256,192,74425,1,0,0:0:0:0:
256,192,75011,1,0,0:0:0:0:
256,192,75595,1,0,0:0:0:0:
256,192,76181,1,8,0:0:0:0:
256,192,76474,1,8,0:0:0:0:
256,192,76767,1,0,0:0:0:0:
256,192,77352,1,4,0:0:0:0:
256,192,77937,1,0,0:0:0:0:
256,192,78230,1,8,0:0:0:0:
256,192,78522,1,12,0:0:0:0:
256,192,79694,1,8,0:0:0:0:
256,192,80864,1,8,0:0:0:0:
256,192,81450,1,0,0:0:0:0:
256,192,82035,1,8,0:0:0:0:
256,192,82620,1,0,0:0:0:0:
256,192,83206,1,0,0:0:0:0:
256,192,84376,1,8,0:0:0:0:
256,192,85547,1,0,0:0:0:0:
256,192,86718,1,8,0:0:0:0:
256,192,87303,1,0,0:0:0:0:
256,192,87596,1,4,0:0:0:0:
256,192,87889,1,12,0:0:0:0:
256,192,88767,1,0,0:0:0:0:
256,192,89059,1,8,0:0:0:0:
256,192,89645,1,0,0:0:0:0:
256,192,90230,1,8,0:0:0:0:
256,192,90815,1,8,0:0:0:0:
256,192,91108,1,0,0:0:0:0:
256,192,91401,1,0,0:0:0:0:
256,192,91986,1,8,0:0:0:0:
256,192,92572,1,0,0:0:0:0:
256,192,93157,1,0,0:0:0:0:
256,192,93450,1,8,0:0:0:0:
256,192,93742,1,0,0:0:0:0:
256,192,94327,1,0,0:0:0:0:
256,192,94620,1,8,0:0:0:0:
256,192,94913,1,0,0:0:0:0:
256,192,95205,1,0,0:0:0:0:
256,192,95498,1,8,0:0:0:0:
256,192,96084,1,0,0:0:0:0:
256,192,96376,1,8,0:0:0:0:
256,192,96669,1,8,0:0:0:0:
256,192,96961,1,0,0:0:0:0:
256,192,97254,5,8,0:0:0:0:
256,192,97840,1,0,0:0:0:0:
256,192,98133,1,0,0:0:0:0:
256,192,98425,1,8,0:0:0:0:
256,192,98717,1,0,0:0:0:0:
256,192,99010,1,8,0:0:0:0:
256,192,99595,1,8,0:0:0:0:
256,192,99888,1,0,0:0:0:0:
256,192,100181,1,8,0:0:0:0:
256,192,100474,1,0,0:0:0:0:
256,192,100767,1,8,0:0:0:0:
256,192,101351,1,0,0:0:0:0:
256,192,101937,1,8,0:0:0:0:
256,192,102522,1,0,0:0:0:0:
256,192,102815,1,8,0:0:0:0:
256,192,103108,1,8,0:0:0:0:
256,192,103694,1,0,0:0:0:0:
256,192,103986,1,8,0:0:0:0:
256,192,104279,1,0,0:0:0:0:
256,192,104864,1,0,0:0:0:0:
256,192,105156,1,8,0:0:0:0:
256,192,105450,1,0,0:0:0:0:
256,192,105742,1,8,0:0:0:0:
256,192,106035,1,8,0:0:0:0:
256,192,106621,1,12,0:0:0:0:
256,192,107206,1,0,0:0:0:0:
256,192,107498,1,8,0:0:0:0:
256,192,107791,1,8,0:0:0:0:
256,192,108083,1,0,0:0:0:0:
256,192,108376,1,0,0:0:0:0:
256,192,108962,1,8,0:0:0:0:
256,192,109547,1,0,0:0:0:0:
256,192,110133,5,8,0:0:0:0:
256,192,110718,1,8,0:0:0:0:
256,192,111011,1,0,0:0:0:0:
256,192,111303,1,8,0:0:0:0:
256,192,111595,1,8,0:0:0:0:
256,192,111888,1,0,0:0:0:0:
256,192,112474,1,8,0:0:0:0:
256,192,112766,1,0,0:0:0:0:
256,192,113059,1,8,0:0:0:0:
256,192,113645,1,8,0:0:0:0:
256,192,113937,1,0,0:0:0:0:
256,192,114230,1,8,0:0:0:0:
256,192,114523,1,0,0:0:0:0:
256,192,114815,1,8,0:0:0:0:
256,192,115400,1,0,0:0:0:0:
256,192,115693,1,0,0:0:0:0:
256,192,115986,1,12,0:0:0:0:
