osu file format v14

[General]
AudioFilename: Koigokoro.mp3
AudioLeadIn: 0
PreviewTime: 44699
Countdown: 0
SampleSet: Normal
StackLeniency: 0.7
Mode: 1
LetterboxInBreaks: 0
WidescreenStoryboard: 0

[Editor]
Bookmarks: 15663,31092,44806,58520,73949,87663,101377,115092,128806,142520
DistanceSpacing: 2
BeatDivisor: 2
GridSize: 4
TimelineZoom: 1.1

[Metadata]
Title:Koigokoro
TitleUnicode:Koigokoro
Artist:Primastella
ArtistUnicode:Primastella
Creator:Narwhal Prime
Version:Futsuu
Source:ルーセントハート
Tags:lucent heart exit trance speed anime j-trance
BeatmapID:385427
BeatmapSetID:153622

[Difficulty]
HPDrainRate:5
CircleSize:5
OverallDifficulty:4
ApproachRate:5
SliderMultiplier:1.4
SliderTickRate:1

[Events]
//Background and Video events
0,0,"bg.jpg",0,135
//Break Periods
//Storyboard Layer 0 (Background)
//Storyboard Layer 1 (Fail)
//Storyboard Layer 2 (Pass)
//Storyboard Layer 3 (Foreground)
//Storyboard Sound Samples

[TimingPoints]
235,428.571428571429,4,1,0,60,1,0
15663,-100,4,1,0,85,0,1
29377,-100,4,1,0,70,0,0
44806,-100,4,1,0,85,0,1
57663,-100,4,1,0,85,0,0
58520,-100,4,1,0,85,0,1
72235,-100,4,1,0,70,0,0
87663,-100,4,1,0,85,0,1
100520,-100,4,1,0,85,0,0
101377,-100,4,1,0,85,0,1
115092,-100,4,1,0,70,0,0
128806,-100,4,1,0,60,0,0
142520,-100,4,1,0,85,0,1
156235,-100,4,1,0,70,0,0

[HitObjects]
256,192,1949,5,4,0:0:0:0:
256,192,3663,1,0,0:0:0:0:
256,192,4520,1,0,0:0:0:0:
256,192,5377,1,8,0:0:0:0:
256,192,7092,1,0,0:0:0:0:
256,192,7949,1,8,0:0:0:0:
192,192,8806,1,0,0:0:0:0:
272,192,9235,1,8,0:0:0:0:
264,192,9663,1,0,0:0:0:0:
264,192,10520,1,0,0:0:0:0:
264,192,10949,1,0,0:0:0:0:
264,192,11377,1,8,0:0:0:0:
264,192,12235,1,0,0:0:0:0:
264,192,13092,1,8,0:0:0:0:
264,192,13949,1,4,0:0:0:0:
264,192,14377,1,4,0:0:0:0:
264,192,14806,1,12,0:0:0:0:
264,192,15663,1,4,0:0:0:0:
264,192,16092,1,8,0:0:0:0:
264,192,16520,1,0,0:0:0:0:
264,192,16735,1,0,0:0:0:0:
264,192,16949,1,8,0:0:0:0:
264,192,17377,1,0,0:0:0:0:
264,192,17806,1,8,0:0:0:0:
264,192,18235,1,0,0:0:0:0:
256,192,19092,1,0,0:0:0:0:
256,192,19520,1,0,0:0:0:0:
256,192,19949,1,8,0:0:0:0:
256,192,20163,1,0,0:0:0:0:
256,192,20377,1,0,0:0:0:0:
256,192,20806,1,8,0:0:0:0:
256,192,21235,1,0,0:0:0:0:
256,192,21663,1,8,0:0:0:0:
264,192,22520,1,0,0:0:0:0:
264,192,22949,1,8,0:0:0:0:
264,192,23377,1,0,0:0:0:0:
264,192,23592,1,0,0:0:0:0:
264,192,23806,1,8,0:0:0:0:
264,192,24234,1,0,0:0:0:0:
264,192,24663,1,0,0:0:0:0:
264,192,25092,1,8,0:0:0:0:
264,192,25520,1,0,0:0:0:0:
264,192,25949,1,0,0:0:0:0:
264,192,26806,1,8,0:0:0:0:
256,184,27663,1,4,0:0:0:0:
256,184,28092,1,4,0:0:0:0:
256,184,28520,1,12,0:0:0:0:
64,96,29377,2,0,L|488:96,1,420
256,184,31092,1,4,0:0:0:0:
256,184,31949,1,0,0:0:0:0:
256,184,32163,1,0,0:0:0:0:
256,184,32377,1,8,0:0:0:0:
256,184,32806,1,0,0:0:0:0:
256,192,33235,1,8,0:0:0:0:
256,184,33663,1,0,0:0:0:0:
256,192,34520,1,0,0:0:0:0:
256,192,35377,1,0,0:0:0:0:
256,192,35592,1,0,0:0:0:0:
256,192,35806,1,8,0:0:0:0:
256,192,36235,1,0,0:0:0:0:
256,192,36663,1,0,0:0:0:0:
256,192,37092,1,0,0:0:0:0:
256,184,37949,1,0,0:0:0:0:
244,184,38806,1,0,0:0:0:0:
244,184,39020,1,0,0:0:0:0:
244,184,39234,1,8,0:0:0:0:
252,192,39663,1,0,0:0:0:0:
244,192,40520,1,0,0:0:0:0:
244,192,40949,1,0,0:0:0:0:
244,184,41377,1,8,0:0:0:0:
256,192,42235,1,0,0:0:0:0:
256,192,43092,1,0,0:0:0:0:
256,192,43520,1,8,0:0:0:0:
256,192,43949,1,0,0:0:0:0:
264,192,44806,1,4,0:0:0:0:
264,192,45235,1,8,0:0:0:0:
264,192,45663,1,0,0:0:0:0:
264,192,45878,1,0,0:0:0:0:
264,192,46092,1,8,0:0:0:0:
264,192,46520,1,0,0:0:0:0:
264,192,46949,1,8,0:0:0:0:
264,192,47378,1,0,0:0:0:0:
256,192,48235,1,0,0:0:0:0:
256,192,49092,1,8,0:0:0:0:
256,192,49521,1,0,0:0:0:0:
256,192,49949,1,8,0:0:0:0:
256,192,50163,1,0,0:0:0:0:
256,192,50377,1,0,0:0:0:0:
256,192,50806,1,8,0:0:0:0:
264,192,51663,1,0,0:0:0:0:
264,192,52092,1,0,0:0:0:0:
264,192,52520,1,8,0:0:0:0:
264,192,52949,1,0,0:0:0:0:
264,192,53163,1,0,0:0:0:0:
264,192,53377,1,0,0:1:0:0:
264,192,53806,1,8,0:0:0:0:
264,192,54235,1,0,0:0:0:0:
264,192,55092,1,0,0:0:0:0:
264,192,55949,1,8,0:0:0:0:
264,192,56163,1,0,0:0:0:0:
264,192,56378,1,8,0:0:0:0:
256,184,56806,1,4,0:0:0:0:
256,184,57235,1,4,0:0:0:0:
256,184,57663,1,12,0:0:0:0:
264,192,58520,1,4,0:0:0:0:
264,192,58949,1,8,0:0:0:0:
264,192,59377,1,0,0:0:0:0:
264,192,59592,1,0,0:0:0:0:
264,192,59806,1,8,0:0:0:0:
264,192,60234,1,0,0:0:0:0:
264,192,60663,1,8,0:0:0:0:
264,192,61092,1,0,0:0:0:0:
256,192,61949,1,0,0:0:0:0:
256,192,62806,1,8,0:0:0:0:
256,192,63235,1,0,0:0:0:0:
256,192,63663,1,8,0:0:0:0:
256,192,63877,1,0,0:0:0:0:
256,192,64092,1,0,0:0:0:0:
256,192,64520,1,8,0:0:0:0:
264,192,65377,1,0,0:0:0:0:
264,192,65806,1,0,0:0:0:0:
264,192,66235,1,8,0:0:0:0:
264,192,66449,1,8,0:0:0:0:
264,192,66663,1,0,0:0:0:0:
264,192,67092,1,0,0:0:0:0:
264,192,67520,1,0,0:0:0:0:
264,192,67949,1,8,0:0:0:0:
264,192,68806,1,0,0:0:0:0:
264,192,69663,1,8,0:0:0:0:
264,192,69877,1,0,0:0:0:0:
264,192,70092,1,8,0:0:0:0:
256,184,70520,1,4,0:0:0:0:
256,184,70949,1,4,0:0:0:0:
256,184,71377,1,12,0:0:0:0:
64,96,72235,2,0,L|488:96,1,420
256,184,73949,1,4,0:0:0:0:
256,184,74806,1,0,0:0:0:0:
256,184,75020,1,0,0:0:0:0:
256,184,75234,1,8,0:0:0:0:
256,184,75663,1,0,0:0:0:0:
256,192,76092,1,8,0:0:0:0:
256,184,76520,1,0,0:0:0:0:
256,192,77377,1,0,0:0:0:0:
256,192,78234,1,0,0:0:0:0:
256,192,78449,1,0,0:0:0:0:
256,192,78663,1,8,0:0:0:0:
256,192,79092,1,0,0:0:0:0:
256,192,79520,1,0,0:0:0:0:
256,192,79949,1,0,0:0:0:0:
256,184,80806,1,0,0:0:0:0:
256,184,81663,1,0,0:0:0:0:
256,184,81877,1,0,0:0:0:0:
256,184,82091,1,8,0:0:0:0:
264,192,82520,1,0,0:0:0:0:
256,192,83377,1,0,0:0:0:0:
256,192,83806,1,0,0:0:0:0:
256,184,84234,1,8,0:0:0:0:
256,192,85092,1,0,0:0:0:0:
256,192,85949,1,0,0:0:0:0:
256,192,86377,1,8,0:0:0:0:
256,192,86806,1,0,0:0:0:0:
264,192,87663,1,4,0:0:0:0:
264,192,88092,1,8,0:0:0:0:
264,192,88520,1,0,0:0:0:0:
264,192,88735,1,0,0:0:0:0:
264,192,88949,1,8,0:0:0:0:
264,192,89377,1,0,0:0:0:0:
264,192,89806,1,8,0:0:0:0:
264,192,90235,1,0,0:0:0:0:
256,192,91092,1,0,0:0:0:0:
256,192,91949,1,8,0:0:0:0:
256,192,92377,1,0,0:0:0:0:
256,192,92806,1,0,0:0:0:0:
256,192,93020,1,0,0:0:0:0:
256,192,93235,1,0,0:0:0:0:
256,192,93663,1,8,0:0:0:0:
264,192,94520,1,0,0:0:0:0:
264,192,94949,1,8,0:0:0:0:
264,192,95377,1,0,0:0:0:0:
264,192,95592,1,0,0:0:0:0:
264,192,95806,1,8,0:0:0:0:
264,192,96235,1,0,0:0:0:0:
264,192,96663,1,8,0:0:0:0:
264,192,97092,1,0,0:0:0:0:
264,192,97949,1,0,0:0:0:0:
264,192,98806,1,8,0:0:0:0:
264,192,99020,1,0,0:0:0:0:
264,192,99235,1,8,0:0:0:0:
256,184,99663,1,4,0:0:0:0:
256,184,100092,1,4,0:0:0:0:
256,184,100520,1,12,0:0:0:0:
264,192,101377,1,4,0:0:0:0:
264,192,101806,1,8,0:0:0:0:
264,192,102234,1,0,0:0:0:0:
264,192,102449,1,0,0:0:0:0:
264,192,102663,1,8,0:0:0:0:
264,192,103091,1,0,0:0:0:0:
264,192,103520,1,8,0:0:0:0:
264,192,103949,1,0,0:0:0:0:
256,192,104806,1,0,0:0:0:0:
256,192,105663,1,8,0:0:0:0:
256,192,106092,1,0,0:0:0:0:
256,192,106520,1,0,0:0:0:0:
256,192,106735,1,0,0:0:0:0:
256,192,106949,1,0,0:0:0:0:
256,192,107377,1,8,0:0:0:0:
264,192,108234,1,0,0:0:0:0:
264,192,108663,1,8,0:0:0:0:
264,192,109091,1,0,0:0:0:0:
264,192,109520,1,8,0:0:0:0:
264,192,109949,1,0,0:0:0:0:
264,192,110163,1,0,0:0:0:0:
264,192,110377,1,0,0:0:0:0:
264,192,110806,1,0,0:0:0:0:
264,192,111235,1,8,0:0:0:0:
264,192,111663,1,0,0:0:0:0:
264,192,112520,1,8,0:0:0:0:
264,192,112734,1,0,0:0:0:0:
264,192,112949,1,8,0:0:0:0:
256,184,113377,1,4,0:0:0:0:
256,184,113806,1,4,0:0:0:0:
256,184,114235,1,12,0:0:0:0:
256,184,115092,1,4,0:0:0:0:
256,184,115949,1,0,0:0:0:0:
256,184,116163,1,0,0:0:0:0:
256,184,116377,1,8,0:0:0:0:
336,96,116806,1,0,0:0:0:0:
336,96,117235,1,0,0:0:0:0:
336,96,117663,1,8,0:0:0:0:
336,96,118520,1,0,0:0:0:0:
336,96,119378,1,8,0:0:0:0:
336,96,120235,1,8,0:0:0:0:
336,96,120449,1,8,0:0:0:0:
336,96,120663,1,0,0:0:0:0:
336,96,120877,1,0,0:0:0:0:
336,96,121092,1,8,0:0:0:0:
336,96,121949,1,0,0:0:0:0:
336,96,122805,1,0,0:0:0:0:
336,96,123020,1,0,0:0:0:0:
336,96,123234,1,8,0:0:0:0:
336,96,123662,1,0,0:0:0:0:
336,96,124092,1,0,0:0:0:0:
336,96,124520,1,8,0:0:0:0:
336,96,125377,1,0,0:0:0:0:
336,96,126235,1,8,0:0:0:0:
88,216,127092,1,8,0:0:0:0:
216,160,127306,1,8,0:0:0:0:
216,160,127520,1,0,0:0:0:0:
216,160,127735,1,0,0:0:0:0:
216,160,127949,1,8,0:0:0:0:
232,184,128806,1,0,0:0:0:0:
256,192,129235,1,8,0:0:0:0:
256,192,130092,1,8,0:0:0:0:
256,192,130949,1,8,0:0:0:0:
256,192,131806,1,8,0:0:0:0:
256,192,132235,1,0,0:0:0:0:
256,192,133092,1,0,0:0:0:0:
256,192,133949,1,8,0:0:0:0:
256,192,134377,1,0,0:0:0:0:
112,192,134806,1,8,0:0:0:0:
256,192,135663,1,0,0:0:0:0:
256,192,136520,1,8,0:0:0:0:
256,192,137377,1,0,0:0:0:0:
256,192,137806,1,0,0:0:0:0:
256,192,138235,1,8,0:0:0:0:
256,192,138663,1,0,0:0:0:0:
96,72,139092,2,0,L|520:72,1,420
256,192,140806,8,0,142092,0:0:0:0:
264,192,142520,5,4,0:0:0:0:
264,192,142949,1,8,0:0:0:0:
264,192,143377,1,0,0:0:0:0:
264,192,143592,1,0,0:0:0:0:
264,192,143806,1,8,0:0:0:0:
264,192,144234,1,0,0:0:0:0:
264,192,144663,1,8,0:0:0:0:
264,192,145092,1,0,0:0:0:0:
256,192,145949,1,0,0:0:0:0:
256,192,146377,1,0,0:0:0:0:
256,192,146806,1,8,0:0:0:0:
256,192,147020,1,0,0:0:0:0:
256,192,147235,1,0,0:0:0:0:
256,192,147663,1,8,0:0:0:0:
256,192,148092,1,0,0:0:0:0:
256,192,148520,1,8,0:0:0:0:
264,192,149378,1,0,0:0:0:0:
256,192,149806,1,8,0:0:0:0:
256,192,150235,1,0,0:0:0:0:
256,192,150449,1,0,0:0:0:0:
256,192,150663,1,8,0:0:0:0:
256,192,151092,1,0,0:0:0:0:
256,192,151520,1,8,0:0:0:0:
256,192,151949,1,0,0:0:0:0:
256,192,152377,1,8,0:0:0:0:
256,192,152806,1,0,0:0:0:0:
256,192,153663,1,8,0:0:0:0:
256,192,153877,1,0,0:0:0:0:
256,192,154092,1,8,0:0:0:0:
256,192,154520,1,0,0:0:0:0:
256,192,154735,1,0,0:0:0:0:
256,192,154949,1,8,0:0:0:0:
256,192,155163,1,8,0:0:0:0:
256,192,155377,1,0,0:0:0:0:
256,192,156235,1,4,0:0:0:0:
