osu file format v14

[General]
AudioFilename: mp3.mp3
AudioLeadIn: 1000
PreviewTime: 15663
Countdown: 0
SampleSet: Soft
StackLeniency: 0.7
Mode: 0
LetterboxInBreaks: 1
WidescreenStoryboard: 0

[Editor]
DistanceSpacing: 1.1
BeatDivisor: 4
GridSize: 32
TimelineZoom: 1.3

[Metadata]
Title:Koigokoro
TitleUnicode:恋ゴコロ
Artist:Primastella
ArtistUnicode:ぷりますてら
Creator:DarknessAngel
Version:Relaxing
Source:ルーセントハート
Tags:Imai Sena Sakagami Nao Tsukishima Komugi Saiya Noir Korosuke Lucent Heart m1223961117
BeatmapID:674573
BeatmapSetID:300232

[Difficulty]
HPDrainRate:5
CircleSize:4
OverallDifficulty:4
ApproachRate:6
SliderMultiplier:1.5
SliderTickRate:2

[Events]
//Background and Video events
0,0,"BG.jpg",0,0
//Break Periods
2,74149,79756
2,129006,134613
//Storyboard Layer 0 (Background)
//Storyboard Layer 1 (Fail)
//Storyboard Layer 2 (Pass)
//Storyboard Layer 3 (Foreground)
//Storyboard Sound Samples

[TimingPoints]
235,428.571428571429,4,2,1,30,1,0
1306,-100,4,2,1,50,0,0
1520,-66.6666666666667,4,2,2,30,0,0
1949,-133.333333333333,4,2,1,50,0,0
8806,-133.333333333333,4,2,1,60,0,0
14806,-133.333333333333,4,2,3,60,0,0
15235,-50,4,2,0,50,0,0
15663,-100,4,2,2,70,0,0
26377,-100,4,2,1,70,0,0
27663,-100,4,2,2,70,0,0
28520,-100,4,2,3,70,0,0
29377,-100,4,2,2,70,0,0
30663,-66.6666666666667,4,2,2,50,0,0
31092,-100,4,2,2,60,0,0
41806,-100,4,2,1,60,0,0
44163,-100,4,2,3,60,0,0
44806,-100,4,2,2,70,0,0
55520,-100,4,2,1,70,0,0
56806,-100,4,2,2,70,0,0
57877,-100,4,2,3,70,0,0
58520,-100,4,2,2,70,0,0
71592,-100,4,2,3,70,0,0
72235,-100,4,2,2,60,0,0
73520,-100,4,2,2,50,0,0
73949,-100,4,2,2,60,0,0
84663,-100,4,2,1,60,0,0
87020,-100,4,2,3,60,0,0
87663,-100,4,2,2,70,0,0
98163,-100,4,2,1,70,0,0
99663,-100,4,2,2,70,0,0
100735,-100,4,2,3,70,0,0
101377,-100,4,2,2,70,0,0
113592,-100,4,2,1,70,0,0
114449,-100,4,2,3,70,0,0
115092,-100,4,2,20,70,0,0
128163,-100,4,2,3,70,0,0
135663,-100,4,2,1,60,0,0
141877,-100,4,2,3,60,0,0
142520,-100,4,2,2,70,0,1
154735,-100,4,2,1,70,0,1
155592,-100,4,2,3,70,0,1
156235,-100,4,2,2,70,0,0

[Colours]
Combo1 : 255,0,0
Combo2 : 252,124,214
Combo3 : 168,84,0
Combo4 : 98,247,232
Combo5 : 255,255,32

[HitObjects]
232,109,235,6,0,P|157:98|76:111,1,150
42,268,1092,2,0,L|17:350,2,75,0|2|10,0:0|0:0|0:0,0:0:0:0:
256,192,1949,5,4,0:0:0:0:
256,192,3663,5,2,0:0:0:0:
256,192,5377,5,2,0:0:0:0:
256,192,7092,21,2,0:0:0:0:
256,192,8806,6,0,P|323:184|378:198,1,112.500004291535,4|8,0:0|0:0,0:0:0:0:
483,49,9877,2,0,L|438:98,1,56.2500021457673,2|8,0:0|0:0,0:0:0:0:
256,192,10520,6,0,P|189:184|134:198,1,112.500004291535,2|8,0:0|0:0,0:0:0:0:
29,49,11592,2,0,L|74:98,1,56.2500021457673,2|8,0:0|0:0,0:0:0:0:
256,192,12235,6,0,L|256:320,1,112.500004291535,2|8,0:0|0:0,0:0:0:0:
256,118,13306,2,0,L|256:53,1,56.2500021457673,2|8,0:0|0:0,0:0:0:0:
201,271,13949,22,0,L|131:304,1,56.2500021457673,2|2,0:0|0:0,0:0:0:0:
311,271,14377,2,0,L|381:304,1,56.2500021457673,8|2,0:0|0:0,0:0:0:0:
198,187,14806,2,0,L|127:180,1,56.2500021457673,2|8,0:0|0:0,0:0:0:0:
314,187,15235,53,10,0:0:0:0:
314,187,15663,22,0,L|477:168,2,150,6|8|2,0:0|0:0|0:0,0:0:0:0:
256,127,16735,1,0,0:0:0:0:
299,56,16949,2,0,L|462:37,1,150,8|2,0:0|0:0,0:0:0:0:
506,224,17806,5,8,0:0:0:0:
344,333,18235,2,0,P|302:330|265:321,1,75,2|0,0:0|0:0,0:0:0:0:
351,312,18663,2,0,P|393:315|430:324,1,75,8|0,0:0|0:0,0:0:0:0:
340,230,19092,5,2,0:0:0:0:
163,311,19520,1,8,0:0:0:0:
87,131,19949,1,2,0:0:0:0:
9,104,20163,1,0,0:0:0:0:
24,184,20377,1,8,0:0:0:0:
177,64,20806,22,0,P|215:64|250:76,1,75,2|0,0:0|0:0,0:0:0:0:
160,143,21235,2,0,P|117:141|82:128,1,75,8|0,0:0|0:0,0:0:0:0:
251,76,21663,2,0,P|287:99|311:127,1,75,2|0,0:0|0:0,0:0:0:0:
361,217,22092,1,8,0:0:0:0:
196,319,22520,6,0,P|119:326|37:315,2,150,2|8|2,0:0|0:0|0:0,0:0:0:0:
256,262,23592,1,0,0:0:0:0:
196,205,23806,2,0,P|119:198|37:209,1,150,8|2,0:0|0:0,0:0:0:0:
140,34,24663,5,8,0:0:0:0:
330,76,25092,2,0,P|379:73|414:60,1,75,2|0,0:0|0:0,0:0:0:0:
306,70,25520,2,0,P|257:73|222:86,1,75,8|0,0:0|0:0,0:0:0:0:
147,134,25949,5,6,0:0:0:0:
256,294,26377,1,8,0:0:0:0:
365,134,26806,1,0,0:0:0:0:
307,192,27020,1,0,0:0:0:0:
365,250,27235,2,0,L|446:262,1,75,8|0,0:0|0:0,0:0:0:0:
365,134,27663,22,0,L|439:123,1,75,2|2,0:0|0:0,0:0:0:0:
347,51,28092,2,0,L|421:40,2,75,2|2|0,0:0|0:0|0:0,0:0:0:0:
286,107,28735,1,8,0:0:0:0:
164,69,28949,1,8,0:0:0:0:
144,194,29163,1,8,0:0:0:0:
22,156,29377,5,2,0:0:0:0:
126,320,29806,1,2,0:0:0:0:
272,190,30235,1,2,0:0:0:0:
285,286,30449,1,2,0:0:0:0:
144,194,30663,37,10,0:0:0:0:
293,68,31092,38,0,P|368:55|450:71,1,150,6|8,0:0|0:0,0:0:0:0:
506,250,31949,1,2,0:0:0:0:
459,318,32163,1,0,0:0:0:0:
424,243,32377,1,8,0:0:0:0:
247,326,32806,6,0,P|285:327|324:313,1,75,2|0,0:0|0:0,0:0:0:0:
308,233,33235,2,0,P|270:232|231:246,1,75,8|0,0:0|0:0,0:0:0:0:
171,295,33663,1,2,0:0:0:0:
27,162,34092,1,8,0:0:0:0:
180,42,34520,22,0,P|261:33|337:43,1,150,2|8,0:0|0:0,0:0:0:0:
485,157,35377,2,0,L|450:229,1,75,2|0,0:0|0:0,0:0:0:0:
382,179,35806,2,0,L|347:251,1,75,8|0,0:0|0:0,0:0:0:0:
408,303,36235,6,0,P|451:304|496:314,1,75,2|0,0:0|0:0,0:0:0:0:
330,324,36663,2,0,P|287:323|242:313,1,75,8|0,0:0|0:0,0:0:0:0:
232,195,37092,1,2,0:0:0:0:
349,246,37306,1,0,0:0:0:0:
255,317,37520,1,8,0:0:0:0:
61,289,37949,6,0,P|48:220|62:141,1,150,2|8,0:0|0:0,0:0:0:0:
231,45,38806,2,0,P|239:84|236:128,1,75,2|0,0:0|0:0,0:0:0:0:
171,168,39235,2,0,P|199:143|237:128,1,75,8|0,0:0|0:0,0:0:0:0:
309,162,39663,5,2,0:0:0:0:
130,241,40092,1,8,0:0:0:0:
324,248,40520,1,2,0:0:0:0:
145,327,40949,1,8,0:0:0:0:
339,334,41377,22,0,P|381:311|400:284,1,75,6|0,0:0|0:0,0:0:0:0:
324,248,41806,2,0,P|282:271|263:298,1,75,8|0,0:0|0:0,0:0:0:0:
226,364,42235,2,0,P|241:288|223:211,1,150,0|8,0:0|0:0,0:0:0:0:
90,78,43092,6,0,P|51:74|14:78,1,75
109,101,43520,2,0,P|148:105|185:101,1,75,8|0,0:0|0:0,0:0:0:0:
245,46,43949,1,0,0:0:0:0:
148,189,44163,37,8,0:0:0:0:
15,77,44377,1,10,0:0:0:0:
96,255,44806,38,0,P|174:284|241:286,1,150,6|8,0:0|0:0,0:0:0:0:
315,251,45449,1,0,0:0:0:0:
378,198,45663,2,0,P|394:235|394:271,1,75,2|0,0:0|0:0,0:0:0:0:
341,332,46092,2,0,P|379:348|418:348,1,75,8|0,0:0|0:0,0:0:0:0:
470,290,46520,6,0,P|467:208|432:138,1,150,2|8,0:0|0:0,0:0:0:0:
276,39,47377,1,2,0:0:0:0:
95,112,47806,1,8,0:0:0:0:
248,232,48235,22,0,P|328:251|400:249,2,150,2|8|2,0:0|0:0|0:0,0:0:0:0:
169,205,49306,1,0,0:0:0:0:
88,186,49520,2,0,P|39:198|9:212,1,75,8|0,0:0|0:0,0:0:0:0:
86,334,49949,6,0,P|102:300|111:264,1,75,2|0,0:0|0:0,0:0:0:0:
151,132,50377,2,0,P|164:167|169:205,1,75,8|0,0:0|0:0,0:0:0:0:
250,332,50806,2,0,P|220:304|189:282,1,75,2|0,0:0|0:0,0:0:0:0:
88,186,51235,1,8,0:0:0:0:
220,43,51663,5,2,0:0:0:0:
398,122,52092,1,8,0:0:0:0:
383,40,52306,1,0,0:0:0:0:
313,84,52520,2,0,P|271:154|255:229,1,150,2|8,0:0|0:0,0:0:0:0:
402,348,53377,5,2,0:0:0:0:
470,301,53592,1,0,0:0:0:0:
429,229,53806,2,0,P|388:220|347:226,1,75,8|0,0:0|0:0,0:0:0:0:
327,301,54235,2,0,P|252:310|176:299,1,150,2|8,0:0|0:0,0:0:0:0:
152,101,55092,22,0,P|190:93|226:93,1,75,6|0,0:0|0:0,0:0:0:0:
146,114,55520,2,0,P|108:122|72:122,1,75,8|0,0:0|0:0,0:0:0:0:
4,73,55949,1,0,0:0:0:0:
55,260,56377,1,8,0:0:0:0:
230,346,56806,6,0,L|265:271,1,75,2|2,0:0|0:0,0:0:0:0:
142,300,57235,2,0,L|174:233,1,75,2|2,0:0|0:0,0:0:0:0:
55,260,57663,2,0,L|86:192,1,75,2|8,0:0|0:0,0:0:0:0:
130,84,58092,1,8,0:0:0:0:
45,114,58306,1,8,0:0:0:0:
172,164,58520,6,0,P|250:172|324:155,1,150,6|8,0:0|0:0,0:0:0:0:
376,96,59163,2,0,P|351:62|321:38,2,75,0|2|0,0:0|0:0|0:0,0:0:0:0:
400,175,59806,2,0,P|421:211|452:235,1,75,8|0,0:0|0:0,0:0:0:0:
482,160,60235,5,2,0:0:0:0:
383,328,60663,1,8,0:0:0:0:
256,179,61092,1,2,0:0:0:0:
129,328,61520,1,8,0:0:0:0:
2,179,61949,22,0,P|11:137|25:107,1,75,2|0,0:0|0:0,0:0:0:0:
102,135,62377,2,0,P|93:177|79:207,1,75,8|0,0:0|0:0,0:0:0:0:
17,261,62806,1,2,0:0:0:0:
185,162,63235,1,8,0:0:0:0:
75,322,63663,6,0,P|114:329|152:326,1,75,2|0,0:0|0:0,0:0:0:0:
194,246,64092,2,0,P|155:239|117:242,1,75,8|0,0:0|0:0,0:0:0:0:
6,200,64520,1,2,0:0:0:0:
105,121,64735,1,0,0:0:0:0:
119,241,64949,1,8,0:0:0:0:
218,73,65377,5,2,0:0:0:0:
412,57,65806,1,8,0:0:0:0:
459,124,66020,1,0,0:0:0:0:
404,186,66235,2,0,P|400:227|407:267,1,75,2|0,0:0|0:0,0:0:0:0:
459,322,66663,2,0,P|381:311|306:324,1,150,8|2,0:0|0:0,0:0:0:0:
124,378,67520,5,8,0:0:0:0:
70,190,67949,2,0,P|67:140|71:113,1,75,2|0,0:0|0:0,0:0:0:0:
82,212,68377,2,0,P|85:262|81:289,1,75,8|0,0:0|0:0,0:0:0:0:
13,334,68806,21,2,0:0:0:0:
196,266,69235,1,8,0:0:0:0:
70,115,69663,2,0,P|114:98|148:92,1,75,2|0,0:0|0:0,0:0:0:0:
201,149,70092,2,0,P|157:166|123:172,1,75,8|0,0:0|0:0,0:0:0:0:
257,91,70520,6,0,P|277:130|282:165,1,75,6|0,0:0|0:0,0:0:0:0:
209,294,70949,2,0,P|214:257|232:224,1,75
315,235,71377,1,0,0:0:0:0:
201,149,71592,5,8,0:0:0:0:
349,101,71806,1,8,0:0:0:0:
315,235,72020,1,8,0:0:0:0:
465,193,72235,5,2,0:0:0:0:
313,315,72663,1,2,0:0:0:0:
275,123,73092,1,2,0:0:0:0:
232,224,73306,1,2,0:0:0:0:
380,178,73520,5,10,0:0:0:0:
380,178,73949,1,4,0:0:0:0:
216,127,80806,6,0,P|142:113|65:130,1,150,2|8,0:0|0:0,0:0:0:0:
122,315,81663,1,2,0:0:0:0:
199,287,81877,1,0,0:0:0:0:
265,335,82092,2,0,P|303:335|340:324,1,75,8|0,0:0|0:0,0:0:0:0:
403,274,82520,6,0,P|413:194|399:122,1,150,2|8,0:0|0:0,0:0:0:0:
212,72,83377,2,0,B|256:82|257:81|301:81,1,75,2|0,0:0|0:0,0:0:0:0:
206,60,83806,2,0,B|162:50|161:51|117:51,1,75,8|0,0:0|0:0,0:0:0:0:
57,87,84235,5,6,0:0:0:0:
4,274,84663,1,8,0:0:0:0:
186,344,85092,1,0,0:0:0:0:
248,289,85306,1,0,0:0:0:0:
324,318,85520,2,0,P|368:311|401:293,1,75,8|0,0:0|0:0,0:0:0:0:
383,215,85949,6,0,P|339:222|306:240,1,75
241,193,86377,2,0,P|285:200|318:218,1,75,8|0,0:0|0:0,0:0:0:0:
348,139,86806,1,0,0:0:0:0:
248,289,87020,5,8,0:0:0:0:
434,286,87235,1,10,0:0:0:0:
480,96,87663,6,0,P|450:63|419:42,1,75,6|0,0:0|0:0,0:0:0:0:
343,57,88092,2,0,P|303:62|263:62,1,75,8|0,0:0|0:0,0:0:0:0:
186,49,88520,2,0,P|120:87|76:151,1,150,2|8,0:0|0:0,0:0:0:0:
85,228,89163,1,0,0:0:0:0:
10,193,89377,5,2,0:0:0:0:
105,363,89806,1,8,0:0:0:0:
204,194,90235,1,2,0:0:0:0:
10,193,90663,1,8,0:0:0:0:
187,275,91092,6,0,P|226:270|260:255,1,75,2|0,0:0|0:0,0:0:0:0:
204,194,91520,2,0,P|165:199|131:214,1,75,8|0,0:0|0:0,0:0:0:0:
107,291,91949,1,2,0:0:0:0:
186,113,92377,1,8,0:0:0:0:
338,235,92806,6,0,L|312:312,1,75,2|0,0:0|0:0,0:0:0:0:
179,287,93235,2,0,P|218:269|252:264,1,75,8|0,0:0|0:0,0:0:0:0:
163,196,93663,2,0,P|124:214|90:219,1,75,2|0,0:0|0:0,0:0:0:0:
12,133,94092,1,8,0:0:0:0:
173,24,94520,21,2,0:0:0:0:
343,118,94949,2,0,P|386:123|419:118,1,75,8|0,0:0|0:0,0:0:0:0:
486,74,95377,2,0,P|501:156|486:225,1,150,2|8,0:0|0:0,0:0:0:0:
328,333,96235,5,2,0:0:0:0:
397,288,96449,1,0,0:0:0:0:
322,252,96663,1,8,0:0:0:0:
253,298,96877,1,0,0:0:0:0:
248,215,97092,1,2,0:0:0:0:
95,335,97520,1,8,0:0:0:0:
10,159,97949,5,6,0:0:0:0:
163,38,98377,1,8,0:0:0:0:
248,215,98806,1,0,0:0:0:0:
306,157,99020,1,0,0:0:0:0:
376,200,99235,2,0,P|417:201|451:189,1,75,8|0,0:0|0:0,0:0:0:0:
485,48,99663,6,0,P|496:83|494:120,1,75,2|2,0:0|0:0,0:0:0:0:
390,92,100092,2,0,P|379:57|381:20,1,75,2|2,0:0|0:0,0:0:0:0:
291,80,100520,2,0,P|254:96|219:103,1,75,2|8,0:0|0:0,0:0:0:0:
119,52,100949,1,8,0:0:0:0:
32,123,101163,1,8,0:0:0:0:
72,227,101377,22,0,P|125:283|193:314,1,150,6|8,0:0|0:0,0:0:0:0:
272,303,102020,1,0,0:0:0:0:
275,220,102235,2,0,P|222:164|154:133,1,150,2|8,0:0|0:0,0:0:0:0:
323,32,103092,6,0,P|365:35|402:30,1,75,2|0,0:0|0:0,0:0:0:0:
477,50,103520,2,0,P|435:47|398:52,1,75,8|0,0:0|0:0,0:0:0:0:
370,127,103949,2,0,P|398:157|429:179,1,75,2|0,0:0|0:0,0:0:0:0:
465,248,104377,2,0,P|436:217|405:195,1,75,8|0,0:0|0:0,0:0:0:0:
327,202,104806,5,2,0:0:0:0:
509,132,105235,1,8,0:0:0:0:
374,272,105663,1,2,0:0:0:0:
291,277,105877,1,0,0:0:0:0:
327,202,106092,1,8,0:0:0:0:
136,164,106520,5,2,0:0:0:0:
231,78,106735,1,0,0:0:0:0:
104,92,106949,1,8,0:0:0:0:
214,155,107163,1,0,0:0:0:0:
162,38,107377,1,2,0:0:0:0:
9,159,107806,1,8,0:0:0:0:
131,310,108235,22,0,P|206:329|285:324,1,150,2|8,0:0|0:0,0:0:0:0:
352,289,108877,1,0,0:0:0:0:
391,216,109092,2,0,P|374:171|347:138,1,75,2|0,0:0|0:0,0:0:0:0:
344,68,109520,2,0,P|361:113|388:146,1,75,8|0,0:0|0:0,0:0:0:0:
429,70,109949,5,2,0:0:0:0:
256,160,110377,1,8,0:0:0:0:
83,70,110806,2,0,P|53:91|23:120,1,75,2|0,0:0|0:0,0:0:0:0:
50,196,111235,2,0,P|80:175|110:146,1,75,8|0,0:0|0:0,0:0:0:0:
164,89,111663,6,0,P|246:77|313:90,1,150,2|8,0:0|0:0,0:0:0:0:
477,192,112520,1,2,0:0:0:0:
418,250,112735,1,0,0:0:0:0:
497,272,112949,1,8,0:0:0:0:
439,330,113163,1,0,0:0:0:0:
327,309,113377,6,0,L|268:255,1,75,6|0,0:0|0:0,0:0:0:0:
153,253,113806,2,0,L|209:203,1,75
214,86,114235,2,0,L|264:141,1,75,0|8,0:0|0:0,0:0:0:0:
380,146,114663,21,8,0:0:0:0:
327,309,114877,1,8,0:0:0:0:
208,203,115092,6,0,L|361:228,1,150,12|8,0:0|0:0,0:0:0:0:
90,105,116163,1,2,0:0:0:0:
90,105,116377,1,8,0:0:0:0:
283,72,116806,6,0,L|209:203,1,150,8|8,0:0|0:0,0:0:0:0:
469,70,117877,1,2,0:0:0:0:
469,70,118092,1,8,0:0:0:0:
283,72,118520,6,0,L|335:212,1,150,8|8,0:0|0:0,0:0:0:0:
73,344,119592,1,2,0:0:0:0:
73,344,119806,1,8,0:0:0:0:
15,157,120235,21,10,0:0:0:0:
58,87,120449,1,2,0:0:0:0:
99,158,120663,1,8,0:0:0:0:
57,229,120877,1,2,0:0:0:0:
139,231,121092,1,10,0:0:0:0:
256,75,121520,1,10,0:0:0:0:
440,137,121949,6,0,L|415:291,1,150,8|8,0:0|0:0,0:0:0:0:
127,335,123020,1,2,0:0:0:0:
180,272,123235,2,0,P|219:271|256:281,1,75,8|0,0:0|0:0,0:0:0:0:
327,316,123663,6,0,L|351:167,1,150,8|8,0:0|0:0,0:0:0:0:
73,74,124735,1,2,0:0:0:0:
128,135,124949,2,0,P|171:132|206:119,1,75,8|0,0:0|0:0,0:0:0:0:
278,95,125377,6,0,L|253:243,1,150,8|8,0:0|0:0,0:0:0:0:
469,45,126449,1,2,0:0:0:0:
414,106,126663,2,0,B|417:144|439:185,1,75,8|0,0:0|0:0,0:0:0:0:
487,241,127092,1,10,0:0:0:0:
256,192,127199,12,4,128806,0:0:0:0:
425,135,135663,21,4,0:0:0:0:
310,63,136092,1,8,0:0:0:0:
46,123,136949,1,8,0:0:0:0:
305,198,137806,1,8,0:0:0:0:
41,258,138663,1,8,0:0:0:0:
155,330,139092,21,0,0:0:0:0:
161,195,139520,1,8,0:0:0:0:
417,278,140377,1,8,0:0:0:0:
461,150,140806,6,0,P|454:100|436:66,1,75
305,100,141235,2,0,P|340:119|378:129,1,75
369,40,141663,1,0,0:0:0:0:
289,184,141877,5,8,0:0:0:0:
461,150,142092,1,10,0:0:0:0:
328,292,142520,6,0,P|254:313|178:313,1,150,6|8,0:0|0:0,0:0:0:0:
105,279,143163,1,0,0:0:0:0:
54,213,143377,2,0,P|45:133|56:56,2,150,2|8|2,0:0|0:0|0:0,0:0:0:0:
243,167,144663,6,0,P|322:155|401:164,1,150,8|2,0:0|0:0,0:0:0:0:
474,338,145520,1,8,0:0:0:0:
281,367,145949,5,2,0:0:0:0:
268,285,146163,1,0,0:0:0:0:
345,314,146377,1,8,0:0:0:0:
155,266,146806,1,2,0:0:0:0:
115,193,147020,1,0,0:0:0:0:
74,264,147235,1,8,0:0:0:0:
144,82,147663,6,0,L|71:54,1,75,2|0,0:0|0:0,0:0:0:0:
210,140,148092,2,0,L|283:168,1,75,8|0,0:0|0:0,0:0:0:0:
275,52,148520,2,0,L|202:24,1,75,2|0,0:0|0:0,0:0:0:0:
344,107,148949,1,8,0:0:0:0:
224,260,149377,22,0,P|145:286|66:284,2,150,2|8|2,0:0|0:0|0:0,0:0:0:0:
289,209,150449,1,0,0:0:0:0:
371,205,150663,2,0,P|406:218|436:244,1,75,8|0,0:0|0:0,0:0:0:0:
471,316,151092,6,0,P|456:232|472:166,1,150,2|8,0:0|0:0,0:0:0:0:
317,48,151949,2,0,P|361:55|396:51,1,75,2|0,0:0|0:0,0:0:0:0:
386,134,152377,2,0,P|342:127|307:131,1,75,8|0,0:0|0:0,0:0:0:0:
240,171,152806,5,2,0:0:0:0:
75,65,153235,1,8,0:0:0:0:
37,255,153663,1,2,0:0:0:0:
90,317,153877,1,0,0:0:0:0:
117,239,154092,1,8,0:0:0:0:
171,300,154306,1,0,0:0:0:0:
270,250,154520,6,0,P|307:244|349:248,1,75,6|0,0:0|0:0,0:0:0:0:
415,340,154949,2,0,P|378:346|336:342,1,75,8|0,0:0|0:0,0:0:0:0:
439,249,155377,1,0,0:0:0:0:
326,155,155592,21,8,0:0:0:0:
499,179,155806,1,8,0:0:0:0:
386,85,156021,1,8,0:0:0:0:
344,247,156235,1,4,0:0:0:0:
