osu file format v14

[General]
AudioFilename: mp3.mp3
AudioLeadIn: 1000
PreviewTime: 15663
Countdown: 0
SampleSet: Soft
StackLeniency: 0.7
Mode: 0
LetterboxInBreaks: 1
WidescreenStoryboard: 0

[Editor]
DistanceSpacing: 1.4
BeatDivisor: 4
GridSize: 32
TimelineZoom: 1

[Metadata]
Title:Koigokoro
TitleUnicode:恋ゴコロ
Artist:Primastella
ArtistUnicode:ぷりますてら
Creator:DarknessAngel
Version:Insane
Source:ルーセントハート
Tags:Imai Sena Sakagami Nao Tsukishima Komugi Saiya Noir Korosuke Lucent Heart m1223961117
BeatmapID:673332
BeatmapSetID:300232

[Difficulty]
HPDrainRate:7
CircleSize:4
OverallDifficulty:7
ApproachRate:8.3
SliderMultiplier:2
SliderTickRate:2

[Events]
//Background and Video events
0,0,"BG.jpg",0,0
//Break Periods
2,129006,134959
//Storyboard Layer 0 (Background)
//Storyboard Layer 1 (Fail)
//Storyboard Layer 2 (Pass)
//Storyboard Layer 3 (Foreground)
//Storyboard Sound Samples

[TimingPoints]
235,428.571428571429,4,2,1,30,1,0
1092,-100,4,2,1,50,0,0
1520,-50,4,2,2,30,0,0
1735,-50,4,2,1,30,0,0
1949,-133.333333333333,4,2,1,50,0,0
8806,-133.333333333333,4,2,1,60,0,0
14806,-133.333333333333,4,2,3,60,0,0
15235,-50,4,2,0,50,0,0
15663,-100,4,2,2,70,0,0
26377,-100,4,2,1,70,0,0
27663,-100,4,2,2,70,0,0
28520,-100,4,2,3,70,0,0
29377,-100,4,2,2,70,0,0
30663,-50,4,2,2,50,0,0
31092,-100,4,2,2,60,0,0
41806,-100,4,2,1,60,0,0
44163,-100,4,2,3,60,0,0
44806,-100,4,2,2,70,0,0
55520,-100,4,2,1,70,0,0
56806,-100,4,2,2,70,0,0
57877,-100,4,2,3,70,0,0
58520,-100,4,2,2,70,0,0
71592,-100,4,2,3,70,0,0
72235,-100,4,2,2,60,0,0
73520,-50,4,2,2,50,0,0
73949,-100,4,2,2,60,0,0
84663,-100,4,2,1,60,0,0
87020,-100,4,2,3,60,0,0
87663,-100,4,2,2,70,0,0
98163,-100,4,2,1,70,0,0
99663,-100,4,2,2,70,0,0
100735,-100,4,2,3,70,0,0
101377,-100,4,2,2,70,0,0
113592,-100,4,2,1,70,0,0
114449,-100,4,2,3,70,0,0
115092,-100,4,2,20,70,0,0
128163,-100,4,2,3,70,0,0
135663,-100,4,2,1,60,0,0
141877,-100,4,2,3,60,0,0
142520,-100,4,2,2,70,0,1
154735,-100,4,2,1,70,0,1
155592,-100,4,2,3,70,0,1
156235,-100,4,2,2,70,0,0

[Colours]
Combo1 : 255,0,0
Combo2 : 252,124,214
Combo3 : 168,84,0
Combo4 : 98,247,232
Combo5 : 255,255,32

[HitObjects]
186,105,235,5,0,0:0:0:0:
108,85,449,1,0,0:0:0:0:
83,86,556,1,0,0:0:0:0:
58,92,663,1,0,0:0:0:0:
21,162,877,1,0,0:0:0:0:
186,105,1092,5,0,0:0:0:0:
21,162,1306,1,2,0:0:0:0:
135,224,1520,38,0,B|153:181|92:167|45:222|84:295|150:309,1,200,10|0,0:0|0:0,0:0:0:0:
297,338,1949,38,0,P|381:329|456:299,1,150.000005722046,4|2,0:0|0:0,0:0:0:0:
462,210,2592,1,0,0:0:0:0:
392,141,2806,2,0,P|345:132|299:134,1,75.0000028610231
422,61,3235,2,0,P|469:52|515:54,1,75.0000028610231,2|0,0:0|0:0,0:0:0:0:
317,131,3663,5,0,0:0:0:0:
422,61,3877,1,0,0:0:0:0:
317,131,4092,1,2,0:0:0:0:
462,210,4306,1,0,0:0:0:0:
317,131,4520,21,0,0:0:0:0:
225,99,4735,1,0,0:0:0:0:
195,99,4842,1,0,0:0:0:0:
166,109,4949,1,2,0:0:0:0:
95,176,5163,1,0,0:0:0:0:
57,38,5377,5,0,0:0:0:0:
237,278,5806,1,2,0:0:0:0:
449,65,6235,1,0,0:0:0:0:
353,43,6449,1,0,0:0:0:0:
353,43,6556,1,0,0:0:0:0:
353,43,6663,1,2,0:0:0:0:
288,116,6877,1,0,0:0:0:0:
449,65,7092,5,0,0:0:0:0:
403,218,7306,1,0,0:0:0:0:
288,116,7520,1,2,0:0:0:0:
403,218,7735,1,0,0:0:0:0:
256,306,7949,1,0,0:0:0:0:
161,281,8163,1,0,0:0:0:0:
141,263,8270,1,0,0:0:0:0:
123,243,8377,1,2,0:0:0:0:
109,219,8485,1,0,0:0:0:0:
100,194,8592,1,0,0:0:0:0:
150,48,8806,5,4,0:0:0:0:
233,97,9020,1,2,0:0:0:0:
233,97,9127,1,0,0:0:0:0:
233,97,9235,1,8,0:0:0:0:
304,30,9449,1,2,0:0:0:0:
388,77,9663,1,0,0:0:0:0:
388,77,9770,1,0,0:0:0:0:
388,77,9877,1,2,0:0:0:0:
388,77,9985,1,0,0:0:0:0:
388,77,10092,1,8,0:0:0:0:
474,31,10306,1,2,0:0:0:0:
457,126,10520,21,0,0:0:0:0:
509,208,10735,1,2,0:0:0:0:
509,208,10842,1,0,0:0:0:0:
509,208,10949,1,8,0:0:0:0:
466,295,11163,1,2,0:0:0:0:
374,260,11377,1,0,0:0:0:0:
347,258,11485,1,0,0:0:0:0:
320,256,11592,1,2,0:0:0:0:
293,258,11699,1,0,0:0:0:0:
267,265,11806,2,0,P|229:281|203:301,1,75.0000028610231,0|2,0:0|0:0,0:0:0:0:
105,313,12235,5,0,0:0:0:0:
33,246,12449,1,2,0:0:0:0:
33,246,12556,1,0,0:0:0:0:
33,246,12663,1,0,0:0:0:0:
86,164,12877,1,2,0:0:0:0:
10,101,13092,1,0,0:0:0:0:
33,89,13199,1,0,0:0:0:0:
57,80,13306,1,2,0:0:0:0:
82,74,13413,1,0,0:0:0:0:
108,73,13520,1,8,0:0:0:0:
197,122,13735,1,2,0:0:0:0:
324,37,13949,5,0,0:0:0:0:
449,240,14163,1,2,0:0:0:0:
197,122,14377,1,8,0:0:0:0:
452,113,14592,1,2,0:0:0:0:
286,351,14806,5,0,0:0:0:0:
197,122,15020,1,8,0:0:0:0:
449,240,15235,6,0,B|481:272|477:315|426:349|384:320|338:304|321:263,1,200,10|0,0:0|0:0,0:0:0:0:
42,243,15663,6,0,P|111:271|175:310,1,150,6|0,0:0|0:0,0:0:0:0:
226,275,16092,2,0,L|194:370,1,100,8|0,0:0|0:0,0:0:0:0:
197,123,16520,2,0,L|229:21,1,100,2|0,0:0|0:0,0:0:0:0:
285,188,16949,1,8,0:0:0:0:
137,212,17163,1,0,0:0:0:0:
197,123,17377,5,2,0:0:0:0:
226,275,17592,1,0,0:0:0:0:
226,275,17699,1,0,0:0:0:0:
226,275,17806,1,8,0:0:0:0:
137,212,18020,1,0,0:0:0:0:
285,188,18235,2,0,L|388:185,1,100,2|0,0:0|0:0,0:0:0:0:
137,212,18663,2,0,L|34:209,1,100,8|0,0:0|0:0,0:0:0:0:
9,89,19092,5,2,0:0:0:0:
256,352,19520,1,8,0:0:0:0:
503,89,19949,1,2,0:0:0:0:
415,41,20163,1,0,0:0:0:0:
380,35,20270,1,0,0:0:0:0:
347,47,20377,1,8,0:0:0:0:
285,126,20592,1,0,0:0:0:0:
145,53,20806,5,2,0:0:0:0:
402,142,21020,1,0,0:0:0:0:
202,220,21235,1,8,0:0:0:0:
243,37,21449,1,0,0:0:0:0:
434,246,21663,1,2,0:0:0:0:
194,126,21877,1,0,0:0:0:0:
339,188,22092,1,8,0:0:0:0:
243,37,22306,1,0,0:0:0:0:
339,188,22520,22,0,P|324:246|291:330,1,150,2|0,0:0|0:0,0:0:0:0:
225,326,22949,2,0,L|338:366,1,100,8|0,0:0|0:0,0:0:0:0:
497,325,23377,2,0,L|402:291,1,100,2|0,0:0|0:0,0:0:0:0:
125,287,23806,1,8,0:0:0:0:
199,180,24020,1,0,0:0:0:0:
69,193,24235,5,2,0:0:0:0:
143,86,24449,1,0,0:0:0:0:
143,86,24556,1,0,0:0:0:0:
143,86,24663,2,0,P|194:73|243:77,1,100,8|0,0:0|0:0,0:0:0:0:
449,190,25092,2,0,P|398:203|349:199,1,100,2|0,0:0|0:0,0:0:0:0:
387,67,25520,2,0,L|396:172,1,100,8|0,0:0|0:0,0:0:0:0:
465,309,25949,5,6,0:0:0:0:
96,277,26377,1,8,0:0:0:0:
351,199,26806,1,0,0:0:0:0:
289,120,27020,1,0,0:0:0:0:
289,120,27127,1,0,0:0:0:0:
289,120,27235,1,8,0:0:0:0:
204,173,27449,1,0,0:0:0:0:
80,61,27663,5,2,0:0:0:0:
96,277,27877,1,2,0:0:0:0:
289,120,28092,1,2,0:0:0:0:
465,309,28306,1,2,0:0:0:0:
296,274,28520,21,0,0:0:0:0:
425,87,28735,1,8,0:0:0:0:
204,173,28949,1,8,0:0:0:0:
80,61,29163,1,8,0:0:0:0:
219,52,29377,5,2,0:0:0:0:
194,76,29485,1,0,0:0:0:0:
168,99,29592,1,0,0:0:0:0:
139,119,29699,1,0,0:0:0:0:
109,137,29806,2,0,L|54:156,1,50,2|0,0:0|0:0,0:0:0:0:
92,233,30020,2,0,L|37:252,1,50
135,322,30235,6,0,L|182:338,1,50,2|0,0:0|0:0,0:0:0:0:
231,214,30449,2,0,L|204:173,1,50,2|0,0:0|0:0,0:0:0:0:
295,300,30663,22,0,B|316:321|316:321|332:291|332:291|357:313|357:313|388:291|442:316|472:291,1,200,10|0,0:0|0:0,0:0:0:0:
472,164,31092,53,6,0:0:0:0:
424,75,31306,1,0,0:0:0:0:
338,126,31520,1,8,0:0:0:0:
268,53,31735,1,0,0:0:0:0:
268,53,31842,1,0,0:0:0:0:
268,53,31949,1,2,0:0:0:0:
141,208,32163,1,0,0:0:0:0:
268,53,32377,2,0,P|215:43|167:44,1,100,8|0,0:0|0:0,0:0:0:0:
11,105,32806,22,0,P|64:115|112:114,1,100,2|0,0:0|0:0,0:0:0:0:
141,208,33235,2,0,P|88:198|40:199,1,100,8|0,0:0|0:0,0:0:0:0:
203,128,33663,1,2,0:0:0:0:
42,198,33877,1,0,0:0:0:0:
109,114,34092,1,8,0:0:0:0:
141,208,34306,1,0,0:0:0:0:
392,237,34520,6,0,L|324:165,1,100,2|0,0:0|0:0,0:0:0:0:
141,208,34949,2,0,L|139:307,1,100,8|0,0:0|0:0,0:0:0:0:
233,340,35377,1,2,0:0:0:0:
331,319,35592,1,0,0:0:0:0:
331,319,35699,1,0,0:0:0:0:
331,319,35806,1,8,0:0:0:0:
264,244,36020,1,0,0:0:0:0:
324,164,36235,5,2,0:0:0:0:
138,307,36449,1,0,0:0:0:0:
392,237,36663,1,8,0:0:0:0:
141,208,36877,1,0,0:0:0:0:
233,340,37092,5,2,0:0:0:0:
324,164,37306,1,0,0:0:0:0:
324,164,37413,1,0,0:0:0:0:
324,164,37520,1,8,0:0:0:0:
141,208,37735,1,0,0:0:0:0:
324,164,37949,22,0,P|375:145|421:109,1,100,2|0,0:0|0:0,0:0:0:0:
358,33,38377,2,0,P|307:52|261:88,1,100,8|0,0:0|0:0,0:0:0:0:
188,137,38806,1,2,0:0:0:0:
88,131,39020,1,0,0:0:0:0:
88,131,39127,1,0,0:0:0:0:
88,131,39235,1,8,0:0:0:0:
77,31,39449,1,0,0:0:0:0:
188,137,39663,5,2,0:0:0:0:
77,31,39877,1,0,0:0:0:0:
188,137,40092,2,0,P|162:193|130:222,1,100,8|0,0:0|0:0,0:0:0:0:
44,259,40520,2,0,P|85:230|134:218,1,100,2|0,0:0|0:0,0:0:0:0:
214,274,40949,2,0,P|169:252|134:218,1,100,8|0,0:0|0:0,0:0:0:0:
77,31,41377,5,6,0:0:0:0:
256,352,41806,1,8,0:0:0:0:
474,122,42235,1,0,0:0:0:0:
392,64,42449,1,0,0:0:0:0:
357,62,42556,1,0,0:0:0:0:
323,71,42663,1,8,0:0:0:0:
256,145,42877,1,0,0:0:0:0:
269,244,43092,5,0,0:0:0:0:
296,265,43199,1,0,0:0:0:0:
322,288,43306,1,0,0:0:0:0:
347,311,43413,1,0,0:0:0:0:
381,312,43520,1,8,0:0:0:0:
415,304,43627,1,0,0:0:0:0:
445,285,43735,1,0,0:0:0:0:
465,256,43842,1,0,0:0:0:0:
471,221,43949,22,0,L|442:160,1,50
351,171,44163,2,0,L|372:216,1,50,8|0,0:0|0:0,0:0:0:0:
465,49,44377,53,10,0:0:0:0:
52,124,44806,22,0,P|147:135|217:114,1,150,6|0,0:0|0:0,0:0:0:0:
198,122,45235,1,8,0:0:0:0:
324,148,45449,1,0,0:0:0:0:
176,244,45663,2,0,L|165:351,1,100,2|0,0:0|0:0,0:0:0:0:
324,148,46092,2,0,L|314:49,1,100,8|0,0:0|0:0,0:0:0:0:
198,122,46520,5,2,0:0:0:0:
324,148,46735,1,0,0:0:0:0:
324,148,46842,1,0,0:0:0:0:
324,148,46949,1,8,0:0:0:0:
176,244,47163,1,0,0:0:0:0:
301,270,47377,2,0,P|361:264|401:242,1,100,2|0,0:0|0:0,0:0:0:0:
199,122,47806,2,0,P|139:128|99:150,1,100,8|0,0:0|0:0,0:0:0:0:
302,292,48235,5,2,0:0:0:0:
302,292,48663,2,0,P|360:286|408:294,1,100,8|0,0:0|0:0,0:0:0:0:
479,229,49092,1,2,0:0:0:0:
403,163,49306,1,0,0:0:0:0:
403,163,49413,1,0,0:0:0:0:
403,163,49520,1,8,0:0:0:0:
463,83,49735,1,0,0:0:0:0:
303,161,49949,21,2,0:0:0:0:
479,229,50163,1,0,0:0:0:0:
360,72,50377,1,8,0:0:0:0:
216,211,50592,1,0,0:0:0:0:
403,163,50806,1,2,0:0:0:0:
237,85,51020,1,0,0:0:0:0:
479,229,51235,1,8,0:0:0:0:
237,85,51449,1,0,0:0:0:0:
81,158,51663,5,2,0:0:0:0:
81,158,51985,1,0,0:0:0:0:
81,158,52092,2,0,P|62:216|53:263,1,100,8|0,0:0|0:0,0:0:0:0:
179,332,52520,2,0,P|198:274|207:227,1,100,2|0,0:0|0:0,0:0:0:0:
237,85,52949,2,0,L|355:80,1,100,8|0,0:0|0:0,0:0:0:0:
473,162,53377,5,2,0:0:0:0:
358,175,53592,1,0,0:0:0:0:
358,175,53699,1,0,0:0:0:0:
358,175,53806,1,8,0:0:0:0:
461,64,54020,1,0,0:0:0:0:
358,175,54235,2,0,P|346:244|337:332,1,150,2|0,0:0|0:0,0:0:0:0:
337,323,54663,2,0,L|230:337,1,100,8|0,0:0|0:0,0:0:0:0:
443,266,55092,5,6,0:0:0:0:
127,226,55413,1,0,0:0:0:0:
127,226,55520,2,0,L|234:239,1,100,8|0,0:0|0:0,0:0:0:0:
116,140,55949,1,0,0:0:0:0:
269,116,56163,1,0,0:0:0:0:
127,54,56377,1,8,0:0:0:0:
288,33,56592,1,0,0:0:0:0:
116,140,56806,21,2,0:0:0:0:
335,292,57020,1,2,0:0:0:0:
269,116,57235,1,2,0:0:0:0:
127,226,57449,1,2,0:0:0:0:
288,33,57663,5,2,0:0:0:0:
335,292,57877,1,8,0:0:0:0:
379,64,58092,1,8,0:0:0:0:
127,226,58306,1,8,0:0:0:0:
280,201,58520,6,0,P|356:194|434:238,1,150,6|0,0:0|0:0,0:0:0:0:
420,225,58949,1,8,0:0:0:0:
487,130,59163,1,0,0:0:0:0:
379,64,59377,2,0,L|277:71,1,100,2|0,0:0|0:0,0:0:0:0:
78,107,59806,2,0,L|180:114,1,100,8|0,0:0|0:0,0:0:0:0:
280,201,60235,5,2,0:0:0:0:
220,281,60449,1,0,0:0:0:0:
220,281,60556,1,0,0:0:0:0:
220,281,60663,1,8,0:0:0:0:
299,341,60877,1,0,0:0:0:0:
361,262,61092,2,0,L|468:260,1,100,2|0,0:0|0:0,0:0:0:0:
220,281,61520,2,0,L|113:279,1,100,8|0,0:0|0:0,0:0:0:0:
29,173,61949,21,2,0:0:0:0:
29,173,62377,2,0,P|37:111|50:73,1,100,8|0,0:0|0:0,0:0:0:0:
143,40,62806,1,2,0:0:0:0:
236,75,63020,1,0,0:0:0:0:
236,75,63127,1,0,0:0:0:0:
236,75,63235,1,8,0:0:0:0:
329,40,63449,1,0,0:0:0:0:
191,191,63663,5,2,0:0:0:0:
143,40,63877,1,0,0:0:0:0:
321,153,64092,1,8,0:0:0:0:
96,251,64306,1,0,0:0:0:0:
236,75,64520,1,2,0:0:0:0:
440,164,64735,1,0,0:0:0:0:
191,191,64949,1,8,0:0:0:0:
329,40,65163,1,0,0:0:0:0:
315,328,65377,5,2,0:0:0:0:
315,328,65699,1,0,0:0:0:0:
315,328,65806,2,0,P|376:324|417:315,1,100,8|0,0:0|0:0,0:0:0:0:
289,178,66235,2,0,P|240:181|191:191,1,100,2|0,0:0|0:0,0:0:0:0:
65,276,66663,1,8,0:0:0:0:
27,172,66877,1,0,0:0:0:0:
178,48,67092,5,2,0:0:0:0:
158,157,67306,1,0,0:0:0:0:
158,157,67413,1,0,0:0:0:0:
158,157,67520,1,8,0:0:0:0:
34,59,67735,1,0,0:0:0:0:
158,157,67949,2,0,P|245:144|335:147,1,150,2|0,0:0|0:0,0:0:0:0:
357,103,68377,2,0,P|304:107|250:100,1,100,8|0,0:0|0:0,0:0:0:0:
463,48,68806,21,2,0:0:0:0:
508,285,69127,1,0,0:0:0:0:
508,285,69235,2,0,L|421:358,1,100,8|0,0:0|0:0,0:0:0:0:
288,213,69663,1,2,0:0:0:0:
392,247,69877,1,0,0:0:0:0:
236,335,70092,1,8,0:0:0:0:
134,291,70306,1,0,0:0:0:0:
288,213,70520,5,6,0:0:0:0:
52,144,70735,1,0,0:0:0:0:
258,98,70949,1,0,0:0:0:0:
134,291,71163,1,0,0:0:0:0:
139,52,71377,5,0,0:0:0:0:
48,262,71592,1,8,0:0:0:0:
288,213,71806,1,8,0:0:0:0:
52,144,72020,1,8,0:0:0:0:
139,52,72235,6,0,L|178:13,2,50,2|0|0,0:0|0:0|0:0,0:0:0:0:
258,98,72663,2,0,L|316:83,2,50,2|0|0,0:0|0:0|0:0,0:0:0:0:
288,213,73092,22,0,L|357:232,1,50,2|0,0:0|0:0,0:0:0:0:
450,134,73306,2,0,L|397:139,1,50,2|0,0:0|0:0,0:0:0:0:
401,276,73520,54,0,B|490:256|484:203|431:194|370:231|476:285|503:274,1,200,10|0,0:0|0:0,0:0:0:0:
320,318,73949,22,0,P|267:301|213:290,1,100,6|0,0:0|0:0,0:0:0:0:
128,321,74377,1,8,0:0:0:0:
63,244,74592,1,0,0:0:0:0:
63,244,74699,1,0,0:0:0:0:
63,244,74806,1,2,0:0:0:0:
236,139,75020,1,0,0:0:0:0:
63,244,75235,2,0,P|46:195|40:144,1,100,8|0,0:0|0:0,0:0:0:0:
114,29,75663,6,0,P|131:78|137:129,1,100,2|0,0:0|0:0,0:0:0:0:
236,139,76092,2,0,P|219:90|213:39,1,100,8|0,0:0|0:0,0:0:0:0:
136,125,76520,1,2,0:0:0:0:
213,42,76735,1,0,0:0:0:0:
114,29,76949,1,8,0:0:0:0:
236,139,77163,1,0,0:0:0:0:
403,159,77377,6,0,P|454:166|517:153,1,100,2|0,0:0|0:0,0:0:0:0:
397,284,77806,2,0,P|346:277|283:290,1,100,8|0,0:0|0:0,0:0:0:0:
207,326,78235,1,2,0:0:0:0:
139,252,78449,1,0,0:0:0:0:
139,252,78556,1,0,0:0:0:0:
139,252,78663,1,8,0:0:0:0:
42,279,78877,1,0,0:0:0:0:
235,225,79092,21,2,0:0:0:0:
71,178,79306,1,0,0:0:0:0:
207,326,79520,1,8,0:0:0:0:
169,136,79735,1,0,0:0:0:0:
42,279,79949,5,2,0:0:0:0:
235,225,80163,1,0,0:0:0:0:
235,225,80270,1,0,0:0:0:0:
235,225,80377,1,8,0:0:0:0:
71,178,80592,1,0,0:0:0:0:
235,225,80806,6,0,P|289:215|341:215,1,100,2|0,0:0|0:0,0:0:0:0:
414,274,81235,2,0,P|465:246|504:202,1,100,8|0,0:0|0:0,0:0:0:0:
506,117,81663,1,2,0:0:0:0:
434,46,81877,1,0,0:0:0:0:
434,46,81985,1,0,0:0:0:0:
434,46,82092,1,8,0:0:0:0:
349,99,82306,1,0,0:0:0:0:
506,117,82520,5,2,0:0:0:0:
349,99,82735,1,0,0:0:0:0:
349,99,82842,1,0,0:0:0:0:
349,99,82949,2,0,P|297:95|243:107,1,100,8|0,0:0|0:0,0:0:0:0:
175,170,83377,1,2,0:0:0:0:
75,81,83592,1,0,0:0:0:0:
250,104,83806,1,8,0:0:0:0:
122,255,84020,1,0,0:0:0:0:
75,81,84235,21,6,0:0:0:0:
448,192,84663,1,8,0:0:0:0:
193,325,85092,1,0,0:0:0:0:
122,255,85306,1,0,0:0:0:0:
122,255,85413,1,0,0:0:0:0:
122,255,85520,1,8,0:0:0:0:
34,304,85735,1,0,0:0:0:0:
61,171,85949,5,0,0:0:0:0:
73,138,86056,1,0,0:0:0:0:
85,105,86163,1,0,0:0:0:0:
97,72,86270,1,0,0:0:0:0:
109,39,86377,2,0,L|164:23,1,50,8|0,0:0|0:0,0:0:0:0:
227,138,86592,2,0,L|178:124,1,50
304,49,86806,6,0,L|331:112,1,50
439,236,87020,2,0,L|419:190,1,50,8|0,0:0|0:0,0:0:0:0:
444,23,87235,21,10,0:0:0:0:
330,295,87663,54,0,P|243:289|172:310,1,150,6|0,0:0|0:0,0:0:0:0:
135,350,88092,2,0,L|73:269,1,100,8|0,0:0|0:0,0:0:0:0:
81,84,88520,2,0,L|141:163,1,100,2|0,0:0|0:0,0:0:0:0:
330,295,88949,2,0,L|229:295,1,100,8|0,0:0|0:0,0:0:0:0:
316,146,89377,21,2,0:0:0:0:
381,69,89592,1,0,0:0:0:0:
381,69,89699,1,0,0:0:0:0:
381,69,89806,1,8,0:0:0:0:
465,121,90020,1,0,0:0:0:0:
316,146,90235,2,0,P|262:153|206:146,1,100,2|0,0:0|0:0,0:0:0:0:
73,262,90663,2,0,P|66:208|73:152,1,100,8|0,0:0|0:0,0:0:0:0:
316,146,91092,6,0,P|334:253|310:348,1,200,2|8,0:0|0:0,0:0:0:0:
313,340,91842,1,0,0:0:0:0:
313,340,91949,2,0,L|423:342,1,100,2|0,0:0|0:0,0:0:0:0:
190,286,92377,2,0,L|80:284,1,100,8|0,0:0|0:0,0:0:0:0:
167,178,92806,5,2,0:0:0:0:
313,340,93020,1,0,0:0:0:0:
316,146,93235,1,8,0:0:0:0:
190,286,93449,1,0,0:0:0:0:
412,341,93663,1,2,0:0:0:0:
506,244,93877,1,0,0:0:0:0:
316,146,94092,1,8,0:0:0:0:
190,286,94306,1,0,0:0:0:0:
316,146,94520,6,0,P|389:140|467:149,1,150,2|0,0:0|0:0,0:0:0:0:
465,148,94949,1,8,0:0:0:0:
403,33,95163,1,0,0:0:0:0:
197,138,95377,1,2,0:0:0:0:
36,94,95592,1,0,0:0:0:0:
139,220,95806,1,8,0:0:0:0:
131,61,96020,1,0,0:0:0:0:
43,193,96235,21,2,0:0:0:0:
139,220,96449,1,0,0:0:0:0:
139,220,96556,1,0,0:0:0:0:
139,220,96663,1,8,0:0:0:0:
197,138,96877,1,0,0:0:0:0:
325,203,97092,2,0,P|332:253|335:317,1,100,2|0,0:0|0:0,0:0:0:0:
197,138,97520,2,0,P|199:88|206:38,1,100,8|0,0:0|0:0,0:0:0:0:
338,91,97949,5,6,0:0:0:0:
430,53,98163,1,0,0:0:0:0:
430,53,98270,1,0,0:0:0:0:
430,53,98377,1,8,0:0:0:0:
502,122,98592,1,0,0:0:0:0:
453,209,98806,1,0,0:0:0:0:
354,190,99020,1,0,0:0:0:0:
354,190,99127,1,0,0:0:0:0:
354,190,99235,1,8,0:0:0:0:
304,277,99449,1,0,0:0:0:0:
453,209,99663,5,2,0:0:0:0:
245,182,99877,1,2,0:0:0:0:
375,347,100092,1,2,0:0:0:0:
361,88,100306,1,2,0:0:0:0:
170,272,100520,5,2,0:0:0:0:
453,209,100735,1,8,0:0:0:0:
267,326,100949,1,8,0:0:0:0:
361,88,101163,1,8,0:0:0:0:
97,82,101377,22,0,P|66:157|49:235,1,150,6|0,0:0|0:0,0:0:0:0:
41,288,101806,2,0,L|110:372,1,100,8|0,0:0|0:0,0:0:0:0:
296,303,102235,2,0,L|227:219,1,100,2|0,0:0|0:0,0:0:0:0:
97,82,102663,2,0,L|197:82,1,100,8|0,0:0|0:0,0:0:0:0:
401,118,103092,5,2,0:0:0:0:
315,168,103306,1,0,0:0:0:0:
315,168,103413,1,0,0:0:0:0:
315,168,103520,1,8,0:0:0:0:
316,67,103735,1,0,0:0:0:0:
441,209,103949,2,0,P|425:266|412:318,1,100,2|0,0:0|0:0,0:0:0:0:
401,118,104377,2,0,P|417:61|430:9,1,100,8|0,0:0|0:0,0:0:0:0:
315,168,104806,6,0,P|215:173|117:151,1,200,2|8,0:0|0:0,0:0:0:0:
118,151,105556,1,0,0:0:0:0:
118,151,105663,2,0,L|110:34,1,100,2|0,0:0|0:0,0:0:0:0:
191,244,106092,2,0,L|184:343,1,100,8|0,0:0|0:0,0:0:0:0:
34,284,106520,5,2,0:0:0:0:
118,151,106735,1,0,0:0:0:0:
191,244,106949,1,8,0:0:0:0:
358,204,107163,1,0,0:0:0:0:
310,333,107377,1,2,0:0:0:0:
118,151,107592,1,0,0:0:0:0:
34,284,107806,1,8,0:0:0:0:
241,138,108020,1,0,0:0:0:0:
358,204,108235,22,0,P|437:184|493:137,1,150,2|0,0:0|0:0,0:0:0:0:
489,141,108663,1,8,0:0:0:0:
430,43,108877,1,0,0:0:0:0:
315,53,109092,1,2,0:0:0:0:
489,141,109306,1,0,0:0:0:0:
430,43,109520,1,8,0:0:0:0:
358,204,109735,1,0,0:0:0:0:
452,324,109949,5,2,0:0:0:0:
506,240,110163,1,0,0:0:0:0:
506,240,110270,1,0,0:0:0:0:
506,240,110377,1,8,0:0:0:0:
489,141,110592,1,0,0:0:0:0:
358,204,110806,2,0,L|255:187,1,100,2|0,0:0|0:0,0:0:0:0:
62,276,111235,2,0,L|160:259,1,100,8|0,0:0|0:0,0:0:0:0:
65,69,111663,5,2,0:0:0:0:
256,352,112092,1,8,0:0:0:0:
369,103,112520,1,2,0:0:0:0:
292,167,112735,1,0,0:0:0:0:
292,167,112842,1,0,0:0:0:0:
292,167,112949,1,8,0:0:0:0:
238,82,113163,1,0,0:0:0:0:
451,159,113377,5,6,0:0:0:0:
391,239,113592,1,0,0:0:0:0:
364,262,113699,1,0,0:0:0:0:
337,284,113806,1,8,0:0:0:0:
307,302,113913,1,0,0:0:0:0:
275,316,114020,1,0,0:0:0:0:
242,327,114127,1,0,0:0:0:0:
207,334,114235,1,0,0:0:0:0:
116,237,114449,21,8,0:0:0:0:
207,334,114663,1,8,0:0:0:0:
341,143,114877,1,8,0:0:0:0:
207,334,115092,5,12,0:0:0:0:
41,160,115520,1,8,0:0:0:0:
41,160,115735,1,0,0:0:0:0:
259,60,116163,1,2,0:0:0:0:
243,72,116270,1,2,0:0:0:0:
223,72,116377,1,8,0:0:0:0:
210,87,116485,1,2,0:0:0:0:
191,95,116592,1,0,0:0:0:0:
139,180,116806,5,8,0:0:0:0:
363,264,117235,1,8,0:0:0:0:
363,264,117449,1,0,0:0:0:0:
507,73,117877,1,2,0:0:0:0:
499,92,117984,1,2,0:0:0:0:
481,101,118091,1,8,0:0:0:0:
477,120,118199,1,2,0:0:0:0:
464,135,118306,1,0,0:0:0:0:
458,236,118520,5,8,0:0:0:0:
288,66,118949,1,8,0:0:0:0:
288,66,119163,1,0,0:0:0:0:
144,258,119592,1,2,0:0:0:0:
152,239,119699,1,2,0:0:0:0:
170,230,119806,1,8,0:0:0:0:
173,210,119914,1,2,0:0:0:0:
187,196,120021,1,0,0:0:0:0:
193,95,120235,21,10,0:0:0:0:
333,202,120449,1,2,0:0:0:0:
187,196,120663,1,8,0:0:0:0:
288,66,120877,1,2,0:0:0:0:
333,202,121092,1,8,0:0:0:0:
432,99,121306,1,2,0:0:0:0:
441,117,121413,1,2,0:0:0:0:
437,136,121520,1,8,0:0:0:0:
448,152,121628,1,2,0:0:0:0:
449,171,121735,1,0,0:0:0:0:
429,299,121949,6,0,P|351:328|238:299,1,200,8|8,0:0|0:0,0:0:0:0:
241,301,122592,1,0,0:0:0:0:
223,292,123020,5,2,0:0:0:0:
205,283,123127,1,2,0:0:0:0:
197,265,123234,1,8,0:0:0:0:
178,258,123342,1,2,0:0:0:0:
167,243,123449,1,0,0:0:0:0:
135,117,123663,6,0,P|220:58|318:44,1,200,8|8,0:0|0:0,0:0:0:0:
313,43,124306,1,0,0:0:0:0:
332,51,124735,21,2,0:0:0:0:
352,54,124842,1,2,0:0:0:0:
364,69,124949,1,8,0:0:0:0:
384,71,125057,1,0,0:0:0:0:
399,82,125163,1,2,0:0:0:0:
458,196,125377,6,0,P|402:283|318:334,1,200,8|8,0:0|0:0,0:0:0:0:
323,334,126020,1,0,0:0:0:0:
303,334,126449,5,2,0:0:0:0:
283,339,126556,1,2,0:0:0:0:
266,330,126663,1,8,0:0:0:0:
247,336,126771,1,2,0:0:0:0:
229,332,126878,1,0,0:0:0:0:
107,285,127092,5,10,0:0:0:0:
214,211,127306,1,2,0:0:0:0:
214,211,127413,1,0,0:0:0:0:
214,211,127520,1,0,0:0:0:0:
95,157,127735,1,2,0:0:0:0:
229,332,127949,1,0,0:0:0:0:
329,151,128163,21,8,0:0:0:0:
95,157,128377,1,8,0:0:0:0:
229,332,128592,1,8,0:0:0:0:
214,211,128806,1,4,0:0:0:0:
190,108,135663,5,4,0:0:0:0:
448,81,136092,1,8,0:0:0:0:
344,319,136520,1,0,0:0:0:0:
252,278,136735,1,0,0:0:0:0:
227,279,136842,1,0,0:0:0:0:
202,279,136949,1,8,0:0:0:0:
433,218,137377,5,0,0:0:0:0:
269,41,137806,1,8,0:0:0:0:
91,203,138235,1,0,0:0:0:0:
29,124,138449,1,0,0:0:0:0:
28,99,138556,1,0,0:0:0:0:
27,74,138663,1,8,0:0:0:0:
245,173,139092,5,0,0:0:0:0:
84,350,139520,1,8,0:0:0:0:
304,254,139949,1,0,0:0:0:0:
388,201,140163,1,0,0:0:0:0:
391,176,140270,1,0,0:0:0:0:
394,151,140377,1,8,0:0:0:0:
466,82,140592,1,0,0:0:0:0:
245,173,140806,21,0,0:0:0:0:
499,177,141020,1,0,0:0:0:0:
304,254,141235,1,0,0:0:0:0:
286,77,141449,1,0,0:0:0:0:
436,261,141663,1,0,0:0:0:0:
377,20,141877,53,8,0:0:0:0:
368,348,142092,1,10,0:0:0:0:
368,348,142520,22,0,P|236:321|190:328,1,150,6|0,0:0|0:0,0:0:0:0:
163,337,142949,2,0,L|81:278,1,100,8|0,0:0|0:0,0:0:0:0:
46,101,143377,2,0,L|127:159,1,100,2|0,0:0|0:0,0:0:0:0:
342,187,143806,1,8,0:0:0:0:
227,224,144020,1,0,0:0:0:0:
263,110,144235,5,2,0:0:0:0:
449,207,144449,1,0,0:0:0:0:
227,224,144663,1,8,0:0:0:0:
396,95,144877,1,0,0:0:0:0:
345,290,145092,2,0,L|283:372,1,100,2|0,0:0|0:0,0:0:0:0:
227,224,145520,2,0,L|157:303,1,100,8|0,0:0|0:0,0:0:0:0:
345,290,145949,6,0,P|403:296|457:286,1,100,2|0,0:0|0:0,0:0:0:0:
227,224,146377,2,0,P|169:218|115:228,1,100,8|0,0:0|0:0,0:0:0:0:
33,258,146806,1,2,0:0:0:0:
4,162,147020,1,0,0:0:0:0:
4,162,147127,1,0,0:0:0:0:
4,162,147235,1,8,0:0:0:0:
53,75,147449,1,0,0:0:0:0:
227,224,147663,21,2,0:0:0:0:
4,162,147877,1,0,0:0:0:0:
222,122,148092,1,8,0:0:0:0:
33,258,148306,1,0,0:0:0:0:
53,75,148520,1,2,0:0:0:0:
227,224,148735,1,0,0:0:0:0:
227,224,148842,1,0,0:0:0:0:
227,224,148949,1,8,0:0:0:0:
146,57,149163,1,0,0:0:0:0:
227,224,149377,6,0,P|293:227|383:246,1,150,2|0,0:0|0:0,0:0:0:0:
431,266,149806,2,0,L|417:369,1,100,8|0,0:0|0:0,0:0:0:0:
357,154,150235,2,0,L|406:58,1,100,2|0,0:0|0:0,0:0:0:0:
224,115,150663,2,0,L|119:157,1,100,8|0,0:0|0:0,0:0:0:0:
33,258,151092,5,2,0:0:0:0:
152,257,151306,1,0,0:0:0:0:
63,337,151520,1,8,0:0:0:0:
183,336,151735,1,0,0:0:0:0:
131,152,151949,1,2,0:0:0:0:
33,258,152163,1,0,0:0:0:0:
183,336,152377,1,8,0:0:0:0:
224,115,152592,1,0,0:0:0:0:
107,55,152806,6,0,P|58:48|2:59,1,100,2|0,0:0|0:0,0:0:0:0:
224,116,153235,2,0,P|273:123|329:112,1,100,8|0,0:0|0:0,0:0:0:0:
392,42,153663,1,2,0:0:0:0:
489,69,153877,1,0,0:0:0:0:
489,69,153985,1,0,0:0:0:0:
489,69,154092,1,8,0:0:0:0:
485,168,154306,1,0,0:0:0:0:
322,114,154520,21,4,0:0:0:0:
489,69,154735,1,0,0:0:0:0:
423,254,154949,1,8,0:0:0:0:
392,42,155163,1,0,0:0:0:0:
485,168,155377,5,0,0:0:0:0:
217,219,155592,1,8,0:0:0:0:
423,254,155806,1,8,0:0:0:0:
392,42,156020,1,8,0:0:0:0:
512,313,156235,1,6,0:0:0:0:
