osu file format v14

[General]
AudioFilename: mp3.mp3
AudioLeadIn: 1000
PreviewTime: 15663
Countdown: 0
SampleSet: Soft
StackLeniency: 0.7
Mode: 0
LetterboxInBreaks: 1
WidescreenStoryboard: 0

[Editor]
DistanceSpacing: 1.1
BeatDivisor: 4
GridSize: 32
TimelineZoom: 1.3

[Metadata]
Title:Koigokoro
TitleUnicode:恋ゴコロ
Artist:Primastella
ArtistUnicode:ぷりますてら
Creator:DarknessAngel
Version:Hard
Source:ルーセントハート
Tags:Imai Sena Sakagami Nao Tsukishima Komugi Saiya Noir Korosuke Lucent Heart m1223961117
BeatmapID:673470
BeatmapSetID:300232

[Difficulty]
HPDrainRate:6
CircleSize:3
OverallDifficulty:6
ApproachRate:7.7
SliderMultiplier:1.8
SliderTickRate:2

[Events]
//Background and Video events
0,0,"BG.jpg",0,0
//Break Periods
2,74149,80011
2,129006,134868
//Storyboard Layer 0 (Background)
//Storyboard Layer 1 (Fail)
//Storyboard Layer 2 (Pass)
//Storyboard Layer 3 (Foreground)
//Storyboard Sound Samples

[TimingPoints]
235,428.571428571429,4,2,1,30,1,0
1092,-100,4,2,1,50,0,0
1520,-66.6666666666667,4,2,2,30,0,0
1735,-50,4,2,1,30,0,0
1949,-133.333333333333,4,2,1,50,0,0
8806,-133.333333333333,4,2,1,60,0,0
14806,-133.333333333333,4,2,3,60,0,0
15235,-50,4,2,0,50,0,0
15663,-100,4,2,2,70,0,0
26377,-100,4,2,1,70,0,0
27663,-100,4,2,2,70,0,0
28520,-100,4,2,3,70,0,0
29377,-100,4,2,2,70,0,0
30663,-66.6666666666667,4,2,2,50,0,0
31092,-100,4,2,2,60,0,0
41806,-100,4,2,1,60,0,0
44163,-100,4,2,3,60,0,0
44806,-100,4,2,2,70,0,0
55520,-100,4,2,1,70,0,0
56806,-100,4,2,2,70,0,0
57877,-100,4,2,3,70,0,0
58520,-100,4,2,2,70,0,0
71592,-100,4,2,3,70,0,0
72235,-100,4,2,2,60,0,0
73520,-50,4,2,2,50,0,0
73949,-100,4,2,2,60,0,0
84663,-100,4,2,1,60,0,0
87020,-100,4,2,3,60,0,0
87663,-100,4,2,2,70,0,0
98163,-100,4,2,1,70,0,0
99663,-100,4,2,2,70,0,0
100735,-100,4,2,3,70,0,0
101377,-100,4,2,2,70,0,0
113592,-100,4,2,1,70,0,0
114449,-100,4,2,3,70,0,0
115092,-100,4,2,20,70,0,0
128163,-100,4,2,3,70,0,0
135663,-100,4,2,1,60,0,0
141877,-100,4,2,3,60,0,0
142520,-100,4,2,2,70,0,1
154735,-100,4,2,1,70,0,1
155592,-100,4,2,3,70,0,1
156235,-100,4,2,2,70,0,0

[Colours]
Combo1 : 255,0,0
Combo2 : 252,124,214
Combo3 : 168,84,0
Combo4 : 98,247,232
Combo5 : 255,255,32

[HitObjects]
108,89,235,5,0,0:0:0:0:
195,110,449,2,0,L|250:93,2,45
135,176,877,1,0,0:0:0:0:
143,270,1092,2,0,P|172:324|203:361,1,90,0|2,0:0|0:0,0:0:0:0:
270,218,1520,54,0,P|242:157|195:110,1,135.000005149842,10|0,0:0|0:0,0:0:0:0:
195,110,1949,22,0,P|263:114|345:96,1,135.000005149842,0|2,0:0|0:0,0:0:0:0:
398,49,2592,1,0,0:0:0:0:
469,99,2806,2,0,P|478:137|478:177,1,67.5000025749208
406,215,3235,2,0,P|407:248|415:281,1,67.5000025749208,2|0,0:0|0:0,0:0:0:0:
290,354,3663,6,0,P|244:357|211:363,1,67.5000025749208
348,288,4092,2,0,P|394:285|427:279,1,67.5000025749208,2|0,0:0|0:0,0:0:0:0:
294,219,4520,1,0,0:0:0:0:
294,219,4949,1,2,0:0:0:0:
70,322,5377,6,0,P|37:245|25:180,1,135.000005149842,0|2,0:0|0:0,0:0:0:0:
26,195,6235,1,0,0:0:0:0:
59,114,6449,1,0,0:0:0:0:
145,129,6663,1,2,0:0:0:0:
206,66,6877,1,0,0:0:0:0:
281,111,7092,22,0,P|319:111|362:98,1,67.5000025749208
461,189,7520,2,0,P|423:189|380:202,1,67.5000025749208,2|0,0:0|0:0,0:0:0:0:
307,207,7949,1,0,0:0:0:0:
446,89,8163,1,0,0:0:0:0:
307,207,8377,2,0,P|285:233|252:262,1,67.5000025749208,2|0,0:0|0:0,0:0:0:0:
159,346,8806,6,0,L|299:347,1,135.000005149842,4|8,0:0|0:0,0:0:0:0:
165,172,9663,2,0,L|30:171,1,135.000005149842,2|8,0:0|0:0,0:0:0:0:
199,37,10520,5,2,0:0:0:0:
316,218,10949,1,8,0:0:0:0:
395,17,11377,1,2,0:0:0:0:
512,198,11806,1,8,0:0:0:0:
256,354,12235,5,2,0:0:0:0:
112,192,12663,1,8,0:0:0:0:
256,30,13092,1,2,0:0:0:0:
400,192,13520,1,8,0:0:0:0:
207,122,13949,22,0,P|177:102|154:62,1,67.5000025749208,2|2,0:0|0:0,0:0:0:0:
305,122,14377,2,0,P|335:102|358:62,1,67.5000025749208,8|2,0:0|0:0,0:0:0:0:
256,30,14806,1,2,0:0:0:0:
112,192,15020,53,8,0:0:0:0:
256,30,15235,1,10,0:0:0:0:
457,286,15663,22,0,P|397:310|279:297,1,180,6|8,0:0|0:0,0:0:0:0:
238,210,16306,1,0,0:0:0:0:
306,138,16520,2,0,P|359:131|413:138,1,90,2|0,0:0|0:0,0:0:0:0:
238,210,16949,2,0,P|185:217|131:210,1,90,8|0,0:0|0:0,0:0:0:0:
64,162,17377,5,2,0:0:0:0:
26,69,17592,1,0,0:0:0:0:
100,133,17806,1,8,0:0:0:0:
62,40,18020,1,0,0:0:0:0:
192,75,18235,2,0,L|289:88,1,90,2|0,0:0|0:0,0:0:0:0:
404,131,18663,2,0,L|314:119,1,90,8|0,0:0|0:0,0:0:0:0:
441,33,19092,5,2,0:0:0:0:
356,321,19520,1,8,0:0:0:0:
128,192,19949,1,2,0:0:0:0:
178,106,20163,1,0,0:0:0:0:
261,159,20377,1,8,0:0:0:0:
213,245,20592,1,0,0:0:0:0:
43,149,20806,21,2,0:0:0:0:
261,159,21020,1,0,0:0:0:0:
78,278,21235,1,8,0:0:0:0:
178,106,21449,1,0,0:0:0:0:
344,202,21663,1,2,0:0:0:0:
213,245,21877,1,0,0:0:0:0:
178,106,22092,1,8,0:0:0:0:
314,72,22306,1,0,0:0:0:0:
442,131,22520,6,0,P|460:204|420:301,1,180,2|8,0:0|0:0,0:0:0:0:
335,347,23163,1,0,0:0:0:0:
244,308,23377,2,0,P|199:299|152:301,1,90,2|0,0:0|0:0,0:0:0:0:
17,218,23806,2,0,P|62:227|109:225,1,90,8|0,0:0|0:0,0:0:0:0:
187,121,24235,5,2,0:0:0:0:
102,70,24449,1,0,0:0:0:0:
198,89,24663,2,0,P|227:135|236:178,1,90,8|0,0:0|0:0,0:0:0:0:
376,293,25092,2,0,P|366:242|366:199,1,90,2|0,0:0|0:0,0:0:0:0:
302,34,25520,2,0,P|312:85|312:128,1,90,8|0,0:0|0:0,0:0:0:0:
160,252,25949,6,0,P|241:241|345:248,1,180,6|8,0:0|0:0,0:0:0:0:
338,246,26806,1,0,0:0:0:0:
423,196,27020,1,0,0:0:0:0:
363,116,27235,1,8,0:0:0:0:
444,60,27449,1,0,0:0:0:0:
284,55,27663,21,2,0:0:0:0:
423,196,27877,1,2,0:0:0:0:
278,167,28092,1,2,0:0:0:0:
444,60,28306,1,2,0:0:0:0:
338,246,28520,5,0,0:0:0:0:
199,106,28735,1,8,0:0:0:0:
363,116,28949,1,8,0:0:0:0:
208,237,29163,1,8,0:0:0:0:
84,215,29377,6,0,L|37:229,2,45,2|0|0,0:0|0:0|0:0,0:0:0:0:
101,312,29806,2,0,L|54:326,2,45,2|0|0,0:0|0:0|0:0,0:0:0:0:
208,237,30235,1,2,0:0:0:0:
332,322,30449,1,2,0:0:0:0:
455,221,30663,22,0,B|447:111|370:144|403:174,1,135.000005149842,10|0,0:0|0:0,0:0:0:0:
401,172,31092,54,0,P|453:147|474:122,1,90,6|0,0:0|0:0,0:0:0:0:
386,75,31520,2,0,P|329:88|297:82,1,90,8|0,0:0|0:0,0:0:0:0:
210,37,31949,1,2,0:0:0:0:
123,82,32163,1,0,0:0:0:0:
195,149,32377,1,8,0:0:0:0:
105,191,32592,1,0,0:0:0:0:
142,292,32806,22,0,L|239:323,1,90,2|0,0:0|0:0,0:0:0:0:
105,191,33235,2,0,L|19:163,1,90,8|0,0:0|0:0,0:0:0:0:
123,82,33663,1,2,0:0:0:0:
329,301,34092,1,8,0:0:0:0:
464,129,34520,6,0,P|461:78|448:33,1,90,2|0,0:0|0:0,0:0:0:0:
352,51,34949,2,0,P|354:96|365:140,1,90,8|0,0:0|0:0,0:0:0:0:
424,219,35377,1,2,0:0:0:0:
375,305,35592,1,0,0:0:0:0:
278,281,35806,2,0,P|221:282|179:288,1,90,8|0,0:0|0:0,0:0:0:0:
46,332,36235,5,2,0:0:0:0:
150,201,36449,1,0,0:0:0:0:
6,251,36663,1,8,0:0:0:0:
110,120,36877,1,0,0:0:0:0:
16,153,37092,5,2,0:0:0:0:
150,201,37306,1,0,0:0:0:0:
84,33,37520,2,0,P|34:33|-9:44,1,90,8|0,0:0|0:0,0:0:0:0:
110,120,37949,22,0,P|160:120|203:109,1,90,2|0,0:0|0:0,0:0:0:0:
290,73,38377,2,0,P|240:73|197:62,1,90,8|0,0:0|0:0,0:0:0:0:
295,31,38806,1,2,0:0:0:0:
393,35,39020,1,0,0:0:0:0:
405,133,39235,1,8,0:0:0:0:
493,88,39449,1,0,0:0:0:0:
414,148,39663,6,0,P|374:177|343:213,1,90,2|0,0:0|0:0,0:0:0:0:
307,298,40092,2,0,P|347:269|378:233,1,90,8|0,0:0|0:0,0:0:0:0:
245,186,40520,1,2,0:0:0:0:
509,339,40949,1,8,0:0:0:0:
245,186,41377,6,0,P|157:172|58:189,1,180,6|8,0:0|0:0,0:0:0:0:
67,185,42235,2,0,L|56:91,1,90
137,263,42663,2,0,L|126:352,1,90,8|0,0:0|0:0,0:0:0:0:
35,283,43092,5,0,0:0:0:0:
167,161,43306,1,0,0:0:0:0:
277,279,43520,1,8,0:0:0:0:
403,176,43735,1,0,0:0:0:0:
291,58,43949,1,0,0:0:0:0:
167,161,44163,5,8,0:0:0:0:
403,176,44377,1,10,0:0:0:0:
167,161,44806,6,0,P|142:205|128:256,1,90,6|0,0:0|0:0,0:0:0:0:
191,163,45235,2,0,P|151:115|117:93,1,90,8|0,0:0|0:0,0:0:0:0:
177,185,45663,1,2,0:0:0:0:
246,255,45877,1,0,0:0:0:0:
320,189,46092,1,8,0:0:0:0:
389,259,46306,1,0,0:0:0:0:
427,147,46520,6,0,P|468:129|514:120,1,90,2|0,0:0|0:0,0:0:0:0:
355,71,46949,2,0,P|308:63|264:65,1,90,8|0,0:0|0:0,0:0:0:0:
457,27,47377,1,2,0:0:0:0:
256,288,47806,1,8,0:0:0:0:
141,120,48235,6,0,P|89:139|45:165,1,90,2|0,0:0|0:0,0:0:0:0:
168,271,48663,2,0,P|211:284|256:288,1,90,8|0,0:0|0:0,0:0:0:0:
346,247,49092,1,2,0:0:0:0:
290,165,49306,1,0,0:0:0:0:
386,144,49520,1,8,0:0:0:0:
330,62,49735,1,0,0:0:0:0:
484,144,49949,5,2,0:0:0:0:
290,165,50163,1,0,0:0:0:0:
330,62,50377,1,8,0:0:0:0:
346,247,50592,1,0,0:0:0:0:
484,144,50806,1,2,0:0:0:0:
290,165,51020,1,0,0:0:0:0:
447,236,51235,1,8,0:0:0:0:
433,58,51449,1,0,0:0:0:0:
290,164,51663,22,0,P|200:168|114:143,1,180,2|8,0:0|0:0,0:0:0:0:
73,53,52306,1,0,0:0:0:0:
171,46,52520,2,0,P|221:42|274:64,1,90,2|0,0:0|0:0,0:0:0:0:
114,144,52949,2,0,P|64:148|12:137,1,90,8|0,0:0|0:0,0:0:0:0:
73,53,53377,5,2,0:0:0:0:
216,137,53592,1,0,0:0:0:0:
130,241,53806,1,8,0:0:0:0:
239,309,54020,1,0,0:0:0:0:
315,245,54235,2,0,P|358:237|408:246,1,90,2|0,0:0|0:0,0:0:0:0:
461,324,54663,2,0,P|422:302|390:263,1,90,8|0,0:0|0:0,0:0:0:0:
479,141,55092,5,6,0:0:0:0:
239,309,55520,1,8,0:0:0:0:
97,95,55949,1,0,0:0:0:0:
17,154,56163,1,0,0:0:0:0:
107,193,56377,2,0,P|150:201|197:198,1,90,8|0,0:0|0:0,0:0:0:0:
261,73,56806,5,2,0:0:0:0:
97,95,57020,1,2,0:0:0:0:
170,27,57235,1,2,0:0:0:0:
107,193,57449,1,2,0:0:0:0:
261,73,57663,21,2,0:0:0:0:
97,95,57877,1,8,0:0:0:0:
195,198,58092,1,8,0:0:0:0:
170,27,58306,1,8,0:0:0:0:
277,160,58520,6,0,P|295:252|281:342,1,180,6|8,0:0|0:0,0:0:0:0:
187,364,59163,1,0,0:0:0:0:
285,363,59377,2,0,P|340:360|386:365,1,90,2|0,0:0|0:0,0:0:0:0:
501,276,59806,2,0,P|446:279|400:274,1,90,8|0,0:0|0:0,0:0:0:0:
316,162,60235,5,2,0:0:0:0:
349,68,60449,1,0,0:0:0:0:
437,111,60663,2,0,P|470:152|490:192,1,90,8|0,0:0|0:0,0:0:0:0:
316,162,61092,2,0,P|266:164|217:154,1,90,2|0,0:0|0:0,0:0:0:0:
127,256,61520,2,0,P|177:254|226:264,1,90,8|0,0:0|0:0,0:0:0:0:
175,70,61949,5,2,0:0:0:0:
22,309,62377,1,8,0:0:0:0:
307,300,62806,1,2,0:0:0:0:
355,213,63020,1,0,0:0:0:0:
445,253,63235,2,0,P|485:217|507:182,1,90,8|0,0:0|0:0,0:0:0:0:
448,52,63663,22,0,P|408:88|386:123,1,90,2|0,0:0|0:0,0:0:0:0:
307,300,64092,2,0,P|259:271|207:255,1,90,8|0,0:0|0:0,0:0:0:0:
445,253,64520,1,2,0:0:0:0:
388,118,64735,1,0,0:0:0:0:
307,300,64949,1,8,0:0:0:0:
251,165,65163,1,0,0:0:0:0:
445,253,65377,5,2,0:0:0:0:
445,253,65806,1,8,0:0:0:0:
355,213,66020,1,0,0:0:0:0:
307,300,66235,1,2,0:0:0:0:
216,259,66449,1,0,0:0:0:0:
117,260,66663,2,0,P|101:316|99:359,1,90,8|0,0:0|0:0,0:0:0:0:
162,175,67092,6,0,P|157:130|143:87,1,90,2|0,0:0|0:0,0:0:0:0:
29,49,67520,2,0,P|62:85|107:106,1,90,8|0,0:0|0:0,0:0:0:0:
312,60,67949,1,2,0:0:0:0:
312,60,68377,2,0,P|261:48|212:45,1,90,8|0,0:0|0:0,0:0:0:0:
250,161,68806,6,0,P|345:180|456:169,1,180,2|8,0:0|0:0,0:0:0:0:
215,325,69663,2,0,P|167:315|112:321,1,90,2|0,0:0|0:0,0:0:0:0:
287,261,70092,2,0,P|334:270|390:265,1,90,8|0,0:0|0:0,0:0:0:0:
250,161,70520,21,6,0:0:0:0:
126,317,70735,1,0,0:0:0:0:
156,131,70949,1,0,0:0:0:0:
32,288,71163,1,0,0:0:0:0:
215,325,71377,5,0,0:0:0:0:
250,161,71592,1,8,0:0:0:0:
126,317,71806,1,8,0:0:0:0:
285,252,72020,1,8,0:0:0:0:
156,131,72235,5,2,0:0:0:0:
156,131,72663,1,2,0:0:0:0:
156,131,73092,5,2,0:0:0:0:
356,131,73306,1,2,0:0:0:0:
256,291,73520,1,10,0:0:0:0:
256,291,73949,1,4,0:0:0:0:
271,108,80806,22,0,P|179:97|83:112,2,180,2|8|2,0:0|0:0|0:0,0:0:0:0:
357,156,81877,1,0,0:0:0:0:
451,124,82092,2,0,P|465:62|468:17,1,90,8|0,0:0|0:0,0:0:0:0:
357,156,82520,6,0,P|362:200|373:244,1,90,2|0,0:0|0:0,0:0:0:0:
472,256,82949,2,0,P|427:261|383:272,1,90,8|0,0:0|0:0,0:0:0:0:
306,333,83377,1,2,0:0:0:0:
234,264,83592,1,0,0:0:0:0:
143,304,83806,2,0,P|94:294|48:272,1,90,8|0,0:0|0:0,0:0:0:0:
5,129,84235,5,6,0:0:0:0:
306,333,84663,1,8,0:0:0:0:
465,126,85092,2,0,P|474:69|468:24,1,90
352,141,85520,2,0,P|368:182|394:219,1,90,8|0,0:0|0:0,0:0:0:0:
376,52,85949,5,0,0:0:0:0:
261,157,86163,1,0,0:0:0:0:
465,126,86377,1,8,0:0:0:0:
394,219,86592,1,0,0:0:0:0:
261,157,86806,2,0,P|202:151|162:154,1,90,0|8,0:0|0:0,0:0:0:0:
2,275,87235,5,10,0:0:0:0:
349,297,87663,6,0,P|374:259|395:220,1,90,6|0,0:0|0:0,0:0:0:0:
330,144,88092,2,0,P|350:183|374:221,1,90,8|0,0:0|0:0,0:0:0:0:
466,183,88520,1,2,0:0:0:0:
460,83,88735,1,0,0:0:0:0:
375,32,88949,1,8,0:0:0:0:
280,59,89163,1,0,0:0:0:0:
158,93,89377,6,0,P|106:73|70:47,1,90,2|0,0:0|0:0,0:0:0:0:
240,149,89806,2,0,P|252:209|249:250,1,90,8|0,0:0|0:0,0:0:0:0:
135,206,90235,1,2,0:0:0:0:
375,32,90663,1,8,0:0:0:0:
479,227,91092,6,0,P|491:277|497:326,1,90,2|0,0:0|0:0,0:0:0:0:
349,253,91520,2,0,P|355:208|366:164,1,90,8|0,0:0|0:0,0:0:0:0:
445,105,91949,1,2,0:0:0:0:
375,32,92163,1,0,0:0:0:0:
296,92,92377,1,8,0:0:0:0:
217,31,92592,1,0,0:0:0:0:
73,131,92806,5,2,0:0:0:0:
206,129,93020,1,0,0:0:0:0:
84,33,93235,1,8,0:0:0:0:
160,218,93449,1,0,0:0:0:0:
296,92,93663,1,2,0:0:0:0:
336,263,93877,1,0,0:0:0:0:
206,129,94092,1,8,0:0:0:0:
168,316,94306,1,0,0:0:0:0:
336,263,94520,22,0,P|430:248|505:191,1,180,2|8,0:0|0:0,0:0:0:0:
460,107,95163,1,0,0:0:0:0:
385,42,95377,2,0,P|341:48|297:71,1,90,2|0,0:0|0:0,0:0:0:0:
206,129,95806,2,0,P|250:123|294:100,1,90,8|0,0:0|0:0,0:0:0:0:
204,33,96235,5,2,0:0:0:0:
375,146,96449,1,0,0:0:0:0:
257,256,96663,1,8,0:0:0:0:
362,358,96877,1,0,0:0:0:0:
296,283,97092,2,0,P|247:275|201:274,1,90,2|0,0:0|0:0,0:0:0:0:
131,337,97520,2,0,P|177:319|217:297,1,90,8|0,0:0|0:0,0:0:0:0:
295,165,97949,5,6,0:0:0:0:
5,42,98377,1,8,0:0:0:0:
50,293,98806,1,0,0:0:0:0:
130,235,99020,1,0,0:0:0:0:
110,137,99235,2,0,P|64:132|6:142,1,90,8|0,0:0|0:0,0:0:0:0:
162,55,99663,5,2,0:0:0:0:
5,42,99877,1,2,0:0:0:0:
130,235,100092,1,2,0:0:0:0:
162,55,100306,1,2,0:0:0:0:
20,137,100520,21,2,0:0:0:0:
130,235,100735,1,8,0:0:0:0:
162,55,100948,1,8,0:0:0:0:
271,152,101163,1,8,0:0:0:0:
377,82,101377,6,0,P|463:129|504:221,1,180,6|8,0:0|0:0,0:0:0:0:
458,289,102020,1,0,0:0:0:0:
363,320,102235,2,0,P|365:256|379:222,1,90,2|0,0:0|0:0,0:0:0:0:
271,152,102663,2,0,P|227:187|179:198,1,90,8|0,0:0|0:0,0:0:0:0:
56,49,103092,5,2,0:0:0:0:
152,27,103306,1,0,0:0:0:0:
127,123,103520,2,0,P|82:146|35:149,1,90,8|0,0:0|0:0,0:0:0:0:
152,27,103949,2,0,L|255:47,1,90,2|0,0:0|0:0,0:0:0:0:
400,80,104377,2,0,L|297:100,1,90,8|0,0:0|0:0,0:0:0:0:
476,35,104806,5,2,0:0:0:0:
399,322,105235,1,8,0:0:0:0:
143,278,105663,1,2,0:0:0:0:
184,188,105877,1,0,0:0:0:0:
99,135,106092,2,0,P|41:123|4:123,1,90,8|0,0:0|0:0,0:0:0:0:
171,57,106520,22,0,P|229:69|266:69,1,90,2|0,0:0|0:0,0:0:0:0:
272,200,106949,2,0,P|228:189|184:188,1,90,8|0,0:0|0:0,0:0:0:0:
10,122,107377,1,2,0:0:0:0:
143,278,107592,1,0,0:0:0:0:
171,57,107806,1,8,0:0:0:0:
272,200,108020,1,0,0:0:0:0:
308,77,108235,5,2,0:0:0:0:
308,77,108663,1,8,0:0:0:0:
399,113,108877,1,0,0:0:0:0:
468,41,109092,1,2,0:0:0:0:
429,131,109306,1,0,0:0:0:0:
441,229,109520,2,0,P|458:282|479:319,1,90,8|0,0:0|0:0,0:0:0:0:
317,264,109949,6,0,P|272:255|218:253,1,90,2|0,0:0|0:0,0:0:0:0:
129,314,110377,2,0,P|175:300|214:278,1,90,8|0,0:0|0:0,0:0:0:0:
144,109,110806,1,2,0:0:0:0:
144,109,111235,2,0,P|98:123|59:145,1,90,8|0,0:0|0:0,0:0:0:0:
232,175,111663,6,0,P|331:184|416:173,1,180,2|8,0:0|0:0,0:0:0:0:
410,174,112520,2,0,L|366:79,1,90,2|0,0:0|0:0,0:0:0:0:
232,175,112949,2,0,L|270:256,1,90,8|0,0:0|0:0,0:0:0:0:
425,273,113377,21,6,0:0:0:0:
232,175,113592,1,0,0:0:0:0:
340,325,113806,1,8,0:0:0:0:
410,174,114020,1,0,0:0:0:0:
270,256,114235,5,0,0:0:0:0:
425,273,114449,1,8,0:0:0:0:
372,92,114663,1,8,0:0:0:0:
270,256,114877,1,8,0:0:0:0:
120,213,115092,6,0,P|82:128|71:34,1,180,12|8,0:0|0:0,0:0:0:0:
70,42,116163,2,0,L|19:31,4,45,2|2|8|2|0,0:0|0:0|0:0|0:0|0:0,0:0:0:0:
180,84,116806,6,0,P|276:97|372:89,1,180,8|8,0:0|0:0,0:0:0:0:
358,91,117877,2,0,L|412:58,4,45,2|2|8|2|0,0:0|0:0|0:0|0:0|0:0,0:0:0:0:
364,208,118520,22,0,P|417:289|494:346,1,180,8|8,0:0|0:0,0:0:0:0:
481,339,119592,2,0,L|510:291,4,45,2|2|8|2|0,0:0|0:0|0:0|0:0|0:0,0:0:0:0:
334,319,120235,6,0,P|286:313|236:315,1,90,10|2,0:0|0:0,0:0:0:0:
153,352,120663,1,8,0:0:0:0:
73,292,120877,1,2,0:0:0:0:
144,223,121092,1,8,0:0:0:0:
64,163,121306,2,0,L|21:135,4,45,2|2|8|2|0,0:0|0:0|0:0|0:0|0:0,0:0:0:0:
157,92,121949,6,0,P|247:72|339:80,1,180,8|8,0:0|0:0,0:0:0:0:
421,125,122592,1,0,0:0:0:0:
421,125,123020,2,0,L|476:100,4,45,2|2|8|2|0,0:0|0:0|0:0|0:0|0:0,0:0:0:0:
378,234,123663,6,0,P|310:296|226:335,1,180,8|8,0:0|0:0,0:0:0:0:
135,309,124306,1,0,0:0:0:0:
135,309,124735,2,0,L|73:327,4,45,2|2|8|2|0,0:0|0:0|0:0|0:0|0:0,0:0:0:0:
106,195,125377,22,0,P|155:117|226:57,1,180,8|8,0:0|0:0,0:0:0:0:
320,50,126020,1,0,0:0:0:0:
320,50,126449,2,0,L|370:47,4,45,2|2|8|2|0,0:0|0:0|0:0|0:0|0:0,0:0:0:0:
318,167,127092,1,10,0:0:0:0:
256,192,127199,12,4,128806,0:0:0:0:
74,123,135663,5,4,0:0:0:0:
256,46,136092,1,8,0:0:0:0:
400,305,136735,1,0,0:0:0:0:
396,206,136949,2,0,P|352:217|317:257,1,90,8|0,0:0|0:0,0:0:0:0:
310,346,137377,5,0,0:0:0:0:
484,252,137806,1,8,0:0:0:0:
206,145,138449,1,0,0:0:0:0:
210,46,138663,2,0,P|254:57|289:97,1,90,8|0,0:0|0:0,0:0:0:0:
296,186,139091,5,0,0:0:0:0:
122,92,139520,1,8,0:0:0:0:
256,356,140163,1,0,0:0:0:0:
320,280,140377,2,0,P|365:261|406:262,1,90,8|0,0:0|0:0,0:0:0:0:
485,320,140806,21,0,0:0:0:0:
457,177,141020,1,0,0:0:0:0:
296,186,141235,1,0,0:0:0:0:
381,366,141449,1,0,0:0:0:0:
457,177,141663,1,0,0:0:0:0:
296,186,141877,53,8,0:0:0:0:
485,320,142092,1,10,0:0:0:0:
371,96,142520,22,0,P|277:79|185:80,1,180,6|8,0:0|0:0,0:0:0:0:
110,134,143163,1,0,0:0:0:0:
59,219,143377,2,0,P|83:269|119:304,1,90,2|0,0:0|0:0,0:0:0:0:
254,210,143806,2,0,P|198:205|150:219,1,90,8|0,0:0|0:0,0:0:0:0:
213,300,144235,5,2,0:0:0:0:
311,292,144449,1,0,0:0:0:0:
360,206,144663,1,8,0:0:0:0:
346,304,144877,1,0,0:0:0:0:
400,220,145092,2,0,P|448:214|503:216,1,90,2|0,0:0|0:0,0:0:0:0:
347,112,145520,2,0,P|299:118|244:116,1,90,8|0,0:0|0:0,0:0:0:0:
446,45,145949,5,2,0:0:0:0:
446,45,146377,1,8,0:0:0:0:
176,173,146806,1,2,0:0:0:0:
101,107,147020,1,0,0:0:0:0:
20,164,147235,2,0,P|14:214|22:258,1,90,8|0,0:0|0:0,0:0:0:0:
175,272,147663,21,2,0:0:0:0:
101,107,147877,1,0,0:0:0:0:
20,252,148092,1,8,0:0:0:0:
176,173,148306,1,0,0:0:0:0:
90,322,148520,1,2,0:0:0:0:
20,164,148735,1,0,0:0:0:0:
175,272,148949,1,8,0:0:0:0:
197,76,149163,1,0,0:0:0:0:
306,150,149377,6,0,P|354:153|403:146,1,90,2|0,0:0|0:0,0:0:0:0:
491,173,149806,2,0,P|443:170|394:177,1,90,8|0,0:0|0:0,0:0:0:0:
334,248,150235,1,2,0:0:0:0:
390,329,150449,1,0,0:0:0:0:
303,280,150663,2,0,P|252:270|203:273,1,90,8|0,0:0|0:0,0:0:0:0:
40,331,151092,6,0,P|89:314|130:287,1,90,2|0,0:0|0:0,0:0:0:0:
104,95,151520,2,0,P|54:111|13:138,1,90,8|0,0:0|0:0,0:0:0:0:
181,192,151949,2,0,P|274:206|360:186,1,180,2|8,0:0|0:0,0:0:0:0:
356,187,152806,6,0,L|400:95,1,90,2|0,0:0|0:0,0:0:0:0:
325,35,153235,2,0,L|286:116,1,90,8|0,0:0|0:0,0:0:0:0:
195,77,153663,2,0,L|97:78,1,90,2|0,0:0|0:0,0:0:0:0:
59,166,154092,2,0,L|148:165,1,90,8|0,0:0|0:0,0:0:0:0:
356,187,154520,21,6,0:0:0:0:
325,35,154735,1,0,0:0:0:0:
148,165,154949,1,8,0:0:0:0:
286,116,155163,1,0,0:0:0:0:
176,272,155377,5,0,0:0:0:0:
195,77,155592,1,8,0:0:0:0:
356,187,155806,1,8,0:0:0:0:
148,165,156020,1,8,0:0:0:0:
283,255,156235,1,6,0:0:0:0:
