osu file format v14

[General]
AudioFilename: Primary_yuiko_-in_the_Garden.mp3
AudioLeadIn: 0
PreviewTime: -1
Countdown: 1
SampleSet: None
StackLeniency: 0.7
Mode: 1
LetterboxInBreaks: 1
WidescreenStoryboard: 0

[Editor]
DistanceSpacing: 1.3
BeatDivisor: 4
GridSize: 32
TimelineZoom: 1

[Metadata]
Title:in the Garden
TitleUnicode:in the Garden
Artist:Primary&Yuiko
ArtistUnicode:Primary&Yuiko
Creator:TraxieChan
Version:Inner oni
Source:Anime
Tags:Anime Yuiko Primary in The Garden
BeatmapID:664059
BeatmapSetID:295626

[Difficulty]
HPDrainRate:5
CircleSize:5
OverallDifficulty:5
ApproachRate:5
SliderMultiplier:1.3
SliderTickRate:1

[Events]
//Background and Video events
//Break Periods
//Storyboard Layer 0 (Background)
//Storyboard Layer 1 (Fail)
//Storyboard Layer 2 (Pass)
//Storyboard Layer 3 (Foreground)
//Storyboard Sound Samples

[TimingPoints]
13425.1145758117,268.096514745308,4,1,0,100,1,0

[HitObjects]
192,160,13418,5,0,0:0:0:0:
192,160,13559,1,0,0:0:0:0:
160,128,13626,1,0,0:0:0:0:
128,128,13693,1,0,0:0:0:0:
256,96,13827,1,8,0:0:0:0:
256,192,13961,1,0,0:0:0:0:
256,192,14095,1,0,0:0:0:0:
256,192,14229,1,8,0:0:0:0:
256,192,14363,1,0,0:0:0:0:
256,192,14497,1,8,0:0:0:0:
256,192,14631,1,0,0:0:0:0:
256,192,14765,1,8,0:0:0:0:
256,192,14899,1,0,0:0:0:0:
256,192,15033,1,8,0:0:0:0:
224,160,15100,1,0,0:0:0:0:
128,128,15167,1,0,0:0:0:0:
256,192,15301,1,0,0:0:0:0:
256,192,15435,1,8,0:0:0:0:
256,192,15569,1,0,0:0:0:0:
256,192,15703,1,0,0:0:0:0:
256,192,15837,1,8,0:0:0:0:
256,192,15972,1,0,0:0:0:0:
256,192,16106,1,8,0:0:0:0:
224,160,16240,1,0,0:0:0:0:
224,160,16374,1,8,0:0:0:0:
128,160,16508,1,0,0:0:0:0:
192,160,16642,5,8,0:0:0:0:
192,160,16776,1,0,0:0:0:0:
160,128,16843,1,0,0:0:0:0:
192,160,16910,1,0,0:0:0:0:
256,96,17044,1,8,0:0:0:0:
160,128,17178,1,0,0:0:0:0:
256,192,17312,1,0,0:0:0:0:
224,160,17379,1,0,0:0:0:0:
256,192,17446,1,8,0:0:0:0:
256,192,17580,1,0,0:0:0:0:
256,192,17714,1,8,0:0:0:0:
256,192,17848,1,0,0:0:0:0:
256,192,17982,1,8,0:0:0:0:
256,192,18116,1,0,0:0:0:0:
256,192,18250,1,8,0:0:0:0:
160,96,18317,1,0,0:0:0:0:
256,192,18384,1,0,0:0:0:0:
256,192,18518,1,0,0:0:0:0:
256,192,18652,1,8,0:0:0:0:
256,192,18787,1,0,0:0:0:0:
256,192,18921,1,0,0:0:0:0:
256,192,19055,1,8,0:0:0:0:
256,192,19189,1,0,0:0:0:0:
256,192,19323,1,8,0:0:0:0:
256,192,19457,1,0,0:0:0:0:
224,160,19524,1,0,0:0:0:0:
192,160,19591,1,8,0:0:0:0:
96,160,19725,1,0,0:0:0:0:
192,160,19859,5,8,0:0:0:0:
192,160,19993,1,0,0:0:0:0:
160,128,20060,1,0,0:0:0:0:
128,128,20127,1,0,0:0:0:0:
256,96,20261,1,8,0:0:0:0:
256,192,20395,1,0,0:0:0:0:
256,192,20529,1,0,0:0:0:0:
256,192,20663,1,8,0:0:0:0:
256,192,20797,1,0,0:0:0:0:
256,192,20931,1,8,0:0:0:0:
256,192,21065,1,0,0:0:0:0:
256,192,21199,1,8,0:0:0:0:
256,192,21333,1,0,0:0:0:0:
256,192,21468,1,8,0:0:0:0:
128,128,21602,1,0,0:0:0:0:
128,96,21669,1,0,0:0:0:0:
256,192,21736,1,0,0:0:0:0:
256,192,21870,1,8,0:0:0:0:
256,192,22004,1,0,0:0:0:0:
256,192,22138,1,0,0:0:0:0:
256,192,22272,1,8,0:0:0:0:
256,192,22406,1,0,0:0:0:0:
256,192,22540,1,8,0:0:0:0:
256,192,22674,1,0,0:0:0:0:
224,160,22741,1,0,0:0:0:0:
192,160,22808,1,8,0:0:0:0:
160,96,22942,1,0,0:0:0:0:
192,160,23076,5,0,0:0:0:0:
192,160,23210,1,0,0:0:0:0:
160,128,23277,1,0,0:0:0:0:
192,160,23344,1,8,0:0:0:0:
256,96,23478,1,0,0:0:0:0:
256,192,23612,1,8,0:0:0:0:
224,160,23679,1,0,0:0:0:0:
256,192,23746,1,0,0:0:0:0:
224,192,23813,1,8,0:0:0:0:
256,192,23880,1,8,0:0:0:0:
224,160,23947,1,0,0:0:0:0:
256,192,24014,1,8,0:0:0:0:
256,192,24148,1,8,0:0:0:0:
256,192,24283,1,0,0:0:0:0:
224,160,24350,1,0,0:0:0:0:
256,192,24417,1,8,0:0:0:0:
256,192,24551,1,0,0:0:0:0:
256,192,24685,1,8,0:0:0:0:
160,96,24752,1,0,0:0:0:0:
256,192,24819,1,0,0:0:0:0:
256,192,24953,1,0,0:0:0:0:
224,160,25020,1,0,0:0:0:0:
256,192,25087,1,8,0:0:0:0:
256,192,25221,1,0,0:0:0:0:
224,192,25288,1,0,0:0:0:0:
256,192,25355,1,8,0:0:0:0:
256,192,25489,1,8,0:0:0:0:
224,160,25556,1,0,0:0:0:0:
256,192,25623,1,0,0:0:0:0:
224,160,25690,1,0,0:0:0:0:
256,192,25757,1,8,0:0:0:0:
224,160,25824,1,0,0:0:0:0:
256,192,25891,1,0,0:0:0:0:
224,160,25958,1,0,0:0:0:0:
192,160,26025,1,8,0:0:0:0:
160,128,26092,1,0,0:0:0:0:
224,160,26159,1,0,0:0:0:0:
128,192,26226,1,0,0:0:0:0:
128,192,26293,1,12,0:0:0:0:
