osu file format v13

[General]
AudioFilename: fragile garden.mp3
AudioLeadIn: 1000
PreviewTime: 107182
Countdown: 0
SampleSet: Soft
StackLeniency: 0.6
Mode: 0
LetterboxInBreaks: 1
WidescreenStoryboard: 0

[Editor]
Bookmarks: 5811,10611,16782,22097,22439,27582,32382,41125,42668,49868,60839,65468,76782,79697,85525,90668,95468,104382,107125,112954,123925,128554,134897,136782,143125,144154,145011,156154,159582,162325,165068,168325,170382,174668,175697,178782,189754,200725,211697,222668,230897
DistanceSpacing: 1.1
BeatDivisor: 4
GridSize: 4
TimelineZoom: 1

[Metadata]
Title:fragile garden
TitleUnicode:fragile garden
Artist:Primary
ArtistUnicode:Primary
Creator:[Vincent]
Version:Hard
Source:
Tags:yuikonnu 9th single Meis Clauson M3-33 yuiko
BeatmapID:432866
BeatmapSetID:174231

[Difficulty]
HPDrainRate:5.5
CircleSize:4
OverallDifficulty:7
ApproachRate:8
SliderMultiplier:1.5
SliderTickRate:1

[Events]
//Background and Video events
0,0,"Fragile Garden.png",0,0
//Break Periods
2,69325,73861
2,170810,172261
2,220182,221975
//Storyboard Layer 0 (Background)
//Storyboard Layer 1 (Fail)
//Storyboard Layer 2 (Pass)
//Storyboard Layer 3 (Foreground)
//Storyboard Sound Samples
//Background Colour Transformations
3,100,163,162,255

[TimingPoints]
554,342.857142857143,4,2,6,70,1,0
725,-100,4,2,5,70,0,0
6039,-100,4,2,6,70,0,0
6211,-100,4,2,5,70,0,0
11011,-100,4,2,5,55,0,0
11182,-100,4,2,5,70,0,0
11525,-100,4,2,1,55,0,0
11696,-100,4,2,5,55,0,0
21639,-100,4,2,1,70,0,0
21811,-100,4,2,1,55,0,0
22325,-100,4,2,5,55,0,0
22496,-100,4,2,6,70,0,0
22668,-100,4,2,5,70,0,0
32439,-100,4,2,6,70,0,0
32611,-100,4,2,5,70,0,0
33468,-100,4,2,6,60,0,0
33639,-100,4,2,5,60,0,0
38954,-100,4,2,6,60,0,0
39125,-100,4,2,5,60,0,0
41354,-100,4,2,5,45,0,0
41525,-100,4,2,5,60,0,0
42725,-133.333333333333,4,2,5,60,0,0
42811,-133.333333333333,4,2,5,5,0,0
43754,-133.333333333333,4,2,3,5,0,0
44439,-100,4,2,6,80,0,1
44611,-100,4,2,5,80,0,1
55068,-100,4,2,5,80,0,0
55411,-100,4,2,6,80,0,1
55582,-100,4,2,5,80,0,1
65525,-100,4,2,5,65,0,1
65868,-100,4,2,5,80,0,1
66382,-100,4,2,5,80,0,0
74611,-133.333333333333,4,2,1,35,0,0
76839,-117.647058823529,4,2,1,50,0,0
77354,-100,4,2,6,65,0,0
77525,-100,4,2,5,65,0,0
85582,-100,4,2,6,70,0,0
85754,-100,4,2,5,70,0,0
95525,-100,4,2,6,70,0,0
95696,-100,4,2,5,70,0,0
96554,-100,4,2,6,60,0,0
96725,-100,4,2,5,60,0,0
102039,-100,4,2,6,60,0,0
102211,-100,4,2,5,60,0,0
104439,-100,4,2,5,45,0,0
104611,-100,4,2,5,60,0,0
106325,-100,4,2,1,30,0,0
106496,-100,4,2,1,40,0,0
106668,-100,4,2,1,60,0,0
107011,-100,4,2,6,60,0,0
107182,-100,4,2,1,40,0,0
107268,-100,4,2,1,45,0,0
107354,-100,4,2,1,50,0,0
107439,-100,4,2,1,55,0,0
107525,-100,4,2,6,80,0,1
107696,-100,4,2,5,80,0,1
118154,-100,4,2,5,80,0,0
118496,-100,4,2,6,80,0,1
118668,-100,4,2,5,80,0,1
128611,-100,4,2,5,65,0,1
128954,-100,4,2,5,80,0,1
129468,-100,4,2,6,70,0,0
129639,-100,4,2,5,70,0,0
137354,-100,4,2,5,60,0,0
137439,-100,4,2,5,50,0,0
137525,-100,4,2,5,45,0,0
137696,-100,4,2,6,80,0,1
137868,-100,4,2,5,80,0,1
141468,-100,4,2,6,80,0,1
141639,-100,4,2,5,80,0,1
141982,-100,4,2,1,60,0,1
142154,-100,4,2,1,80,0,1
142496,-100,4,2,1,40,0,1
142668,-100,4,2,1,80,0,1
143011,-100,4,2,1,30,0,1
143182,-100,4,2,6,80,0,1
143354,-100,4,2,5,80,0,1
144211,-100,4,2,5,60,0,1
144382,-100,4,2,5,80,0,1
145068,-100,4,2,5,60,0,1
145239,-100,4,2,5,80,0,1
145925,-100,4,2,6,50,0,0
146268,-100,4,2,5,35,0,0
150554,-100,4,2,5,50,0,0
151411,-100,4,2,5,35,0,0
154154,-100,4,2,5,40,0,0
156382,-100,4,2,5,40,0,0
156554,-100,4,2,5,50,0,0
156896,-100,4,2,6,60,0,0
157068,-100,4,2,5,60,0,0
159639,-100,4,2,6,70,0,0
159811,-100,4,2,5,70,0,0
162382,-100,4,2,6,75,0,0
162554,-100,4,2,5,75,0,0
165125,-100,4,2,6,75,0,0
165296,-100,4,2,5,75,0,0
167182,-100,4,2,5,50,0,0
167354,-100,4,2,5,45,0,0
167525,-100,4,2,5,60,0,0
167868,-100,4,2,6,60,0,0
168896,-100,4,2,5,55,0,0
170439,-100,4,2,1,20,0,0
173011,-100,4,2,1,35,0,0
173354,-100,4,2,1,50,0,0
176096,-100,4,2,6,85,0,1
176268,-100,4,2,5,85,0,1
183982,-100,4,2,5,85,0,0
184325,-100,4,2,6,85,0,1
184496,-100,4,2,5,85,0,1
194439,-100,4,2,5,60,0,1
194782,-100,4,2,5,85,0,1
194954,-100,4,2,5,85,0,0
195296,-100,4,2,6,85,0,1
195468,-100,4,2,5,85,0,1
200782,-100,4,2,6,85,0,1
200954,-100,4,2,5,85,0,1
205925,-100,4,2,5,85,0,0
206268,-100,4,2,6,85,0,1
206439,-100,4,2,5,85,0,1
211754,-100,4,2,6,85,0,1
211925,-100,4,2,5,85,0,1
216382,-100,4,2,5,60,0,1
216725,-100,4,2,5,85,0,1
217239,-100,4,2,6,85,0,0

[Colours]
Combo1 : 179,84,77
Combo2 : 159,80,0
Combo3 : 192,192,192
Combo4 : 128,128,255

[HitObjects]
476,260,554,5,6,0:0:0:0:
476,260,725,2,0,L|308:232,1,150,2|2,0:0|0:0,0:0:0:0:
176,300,1411,2,0,L|28:324,2,150,2|2|0,0:0|0:0|0:0,0:0:0:0:
256,328,2268,1,2,0:0:0:0:
316,176,2611,1,2,0:0:0:0:
440,284,2954,1,2,0:0:0:0:
500,132,3296,5,2,0:0:0:0:
500,132,3468,2,0,L|340:100,1,150,2|2,0:0|0:0,0:0:0:0:
200,164,4154,2,0,L|52:193,2,150,2|2|0,0:0|0:0|0:0,0:0:0:0:
264,112,5011,1,2,0:0:0:0:
404,200,5354,2,0,L|443:263,1,75,2|0,0:0|0:0,0:0:0:0:
400,332,5696,2,0,L|360:268,1,75,2|0,0:0|0:0,0:0:0:0:
260,336,6039,5,2,0:0:0:0:
260,336,6211,2,0,L|104:320,1,150,2|2,0:0|0:0,0:0:0:0:
232,208,6896,2,0,L|381:223,1,150,2|0,0:0|0:0,0:0:0:0:
448,276,7411,1,2,0:0:0:0:
348,144,7754,1,2,0:0:0:0:
500,204,8096,1,2,0:0:0:0:
424,352,8439,1,2,0:0:0:0:
280,272,8782,6,0,P|216:264|112:304,1,150,2|0,0:0|0:0,0:0:0:0:
56,316,9296,2,0,L|80:168,1,150,2|0,0:0|0:0,0:0:0:0:
160,196,9811,2,0,L|184:48,1,150,2|0,0:0|0:0,0:0:0:0:
260,84,10325,2,0,P|288:44|324:24,2,75,2|0|0,0:0|0:0|1:0,0:0:0:0:
252,168,10839,2,0,P|244:208|216:252,1,75,10|8,0:0|3:0,0:0:0:0:
280,324,11182,1,6,3:0:0:0:
280,324,11525,6,0,B|280:284|308:256|308:256|356:256|384:224,1,150,6|8,0:0|0:0,0:0:0:0:
476,100,12211,2,0,P|456:152|424:172,1,75,8|0,0:0|0:0,0:0:0:0:
360,148,12554,1,8,0:0:0:0:
288,188,12725,2,0,P|252:176|196:184,1,75,0|8,0:0|0:0,0:0:0:0:
240,256,13068,2,0,P|202:263|158:298,1,75,0|8,0:0|0:0,0:0:0:0:
232,340,13411,1,0,0:0:0:0:
396,312,13754,1,0,0:0:0:0:
288,188,14096,1,0,0:0:0:0:
288,188,14268,6,0,B|328:208|360:204|360:204|400:176|448:180,2,150,10|8|8,0:0|0:0|0:0,0:0:0:0:
164,80,15296,1,8,0:0:0:0:
36,184,15639,1,8,0:0:0:0:
36,184,15811,2,0,P|104:176|184:220,1,150
224,280,16325,1,8,0:0:0:0:
300,312,16496,1,0,0:0:0:0:
384,304,16668,2,0,P|388:268|384:216,1,75,8|0,0:0|0:0,0:0:0:0:
464,260,17011,6,0,B|484:232|468:188|468:188|484:156|464:116,2,150,10|8|8,0:0|0:0|0:0,0:0:0:0:
300,312,18039,1,8,0:0:0:0:
176,204,18382,1,8,0:0:0:0:
176,204,18554,2,0,P|216:228|320:228,1,150
400,228,19068,1,8,0:0:0:0:
432,152,19239,2,0,P|464:112|496:96,2,75,0|8|0,0:0|0:0|0:0,0:0:0:0:
400,228,19754,6,0,B|416:264|396:300|396:300|400:340|452:364,2,150,10|8|8,0:0|0:0|0:0,0:0:0:0:
352,160,20611,2,0,L|268:136,1,75,0|8,0:0|0:0,0:0:0:0:
196,152,20954,1,0,0:0:0:0:
120,120,21125,1,8,0:0:0:0:
120,120,21296,2,0,P|108:200|76:268,1,150,0|0,0:0|1:0,0:0:0:0:
60,344,21811,1,8,0:0:0:0:
140,320,21982,1,8,0:3:0:0:
208,364,22154,1,4,0:0:0:0:
288,340,22325,1,2,0:0:0:0:
356,384,22496,6,0,L|380:212,1,150,14|0,0:0|1:0,0:0:0:0:
316,80,23182,2,0,P|320:128|340:168,1,75,0|8,0:0|0:0,0:0:0:0:
396,104,23525,2,0,P|423:143|460:168,1,75,0|0,1:0|0:0,0:0:0:0:
488,232,23868,2,0,L|476:320,2,75,8|0|0,0:0|0:0|1:0,0:0:0:0:
444,159,24382,1,8,0:0:0:0:
444,159,24725,2,0,P|392:176|352:180,1,75,8|0,0:0|1:0,0:0:0:0:
296,148,25068,1,0,0:0:0:0:
220,180,25239,6,0,P|172:156|60:152,2,150,10|0|0,0:0|1:0|0:0,0:0:0:0:
284,232,26096,2,0,P|300:268|332:300,2,75,8|0|0,0:0|1:0|0:0,0:0:0:0:
296,148,26611,1,8,0:0:0:0:
296,148,26782,2,0,P|288:104|296:64,1,75,0|0,0:0|1:0,0:0:0:0:
368,108,27125,2,0,P|400:80|420:40,1,75,8|0,0:0|0:0,0:0:0:0:
484,100,27468,1,8,0:0:0:0:
508,180,27639,2,0,P|468:188|428:184,1,75,0|0,1:0|0:0,0:0:0:0:
484,260,27982,6,0,B|448:280|412:264|412:264|364:272|340:320,2,150,10|0|0,0:0|1:0|0:0,0:0:0:0:
444,188,28839,2,0,P|424:148|384:124,2,75,8|0|0,0:0|1:0|0:0,0:0:0:0:
364,204,29354,1,8,0:0:0:0:
364,204,29525,2,0,L|288:192,1,75,0|0,0:0|1:0,0:0:0:0:
236,256,29868,2,0,B|260:224|248:180|248:180|244:136|272:108,1,150,8|8,0:0|0:0,0:0:0:0:
236,36,30382,2,0,P|192:20|156:20,1,75,0|0,1:0|0:0,0:0:0:0:
88,52,30725,6,0,L|120:216,1,150,10|0,0:0|1:0,0:0:0:0:
212,336,31411,1,0,0:0:0:0:
236,256,31582,1,8,0:0:0:0:
292,196,31754,2,0,P|332:172|372:136,1,75,0|0,1:0|0:0,0:0:0:0:
308,277,32096,1,8,0:0:0:0:
308,277,32268,2,0,L|236:256,1,75,8|6,0:0|1:2,0:0:0:0:
156,276,32611,1,8,0:0:0:0:
156,276,32954,1,8,0:0:0:0:
88,176,33125,1,0,1:0:0:0:
88,176,33468,6,0,P|148:184|248:144,1,150,0|8,0:0|0:0,0:0:0:0:
372,68,34154,2,0,P|332:164|336:216,1,150,0|8,0:0|0:0,0:0:0:0:
360,288,34668,1,0,0:0:0:0:
428,332,34839,2,0,L|484:176,1,150,8|8,0:0|0:0,0:0:0:0:
372,68,35525,2,0,L|336:148,1,75,8|0,0:0|0:0,0:0:0:0:
288,200,35868,1,0,1:0:0:0:
212,236,36039,6,0,P|168:220|144:188,1,75,0|8,0:0|0:0,0:0:0:0:
220,156,36382,2,0,P|189:120|185:80,1,75,0|8,0:0|0:0,0:0:0:0:
268,88,36725,2,0,P|259:41|275:5,1,75,0|8,0:0|0:0,0:0:0:0:
344,52,37068,2,0,L|436:44,2,75,0|8|0,0:0|0:0|0:0,0:0:0:0:
268,88,37582,1,8,0:0:0:0:
192,56,37754,2,0,P|156:36|120:32,1,75,0|8,0:0|0:0,0:0:0:0:
132,112,38096,2,0,P|128:176|112:216,2,75,0|8|0,0:0|0:0|0:0,0:0:0:0:
192,56,38611,1,0,1:0:0:0:
268,88,38782,5,0,0:0:0:0:
268,88,38868,1,0,0:0:0:0:
268,88,38954,2,0,L|276:248,1,150,10|8,0:0|0:0,0:0:0:0:
152,344,39639,2,0,L|144:194,1,150,8|8,0:0|0:0,0:0:0:0:
132,112,40154,1,0,0:0:0:0:
192,56,40325,2,0,B|220:88|264:80|264:80|300:104|308:136,1,150,8|8,0:0|0:0,0:0:0:0:
308,216,40839,2,0,P|327:254|367:273,1,75,0|8,0:0|0:0,0:0:0:0:
436,288,41182,1,2,0:0:0:0:
504,244,41354,6,0,L|500:169,1,75,4|2,1:0|0:0,0:0:0:0:
496,88,41696,1,12,0:0:0:0:
340,40,42039,1,2,1:2:0:0:
340,40,42211,2,0,L|343:114,1,75,14|0,0:0|0:0,0:0:0:0:
250,88,42554,1,2,1:2:0:0:
250,88,42725,6,0,B|240:168|300:200|300:200|336:232|300:276|300:276|240:240|188:288,1,337.500012874604,14|0,0:0|0:0,0:0:0:0:
190,286,44439,6,0,L|349:271,1,150,14|2,0:0|1:2,0:0:0:0:
418,299,44954,1,8,0:0:0:0:
476,240,45125,2,0,P|404:208|360:132,1,150,2|2,0:0|1:2,0:0:0:0:
340,72,45639,1,2,0:0:0:0:
272,120,45811,2,0,L|248:36,1,75,10|10,0:0|0:0,0:0:0:0:
204,168,46154,1,0,1:0:0:0:
204,168,46325,2,0,P|220:244|220:328,1,150,10|10,0:0|0:0,0:0:0:0:
296,280,46839,2,0,L|316:207,1,75,2|0,1:2|0:0,0:0:0:0:
384,160,47182,5,8,0:0:0:0:
384,160,47525,2,0,B|344:132|328:108|328:108|284:128|248:128,1,150,2|2,1:2|0:0,0:0:0:0:
188,176,48039,2,0,P|144:184|112:176,2,75,10|2|0,0:0|1:2|0:0,0:0:0:0:
240,240,48554,2,0,L|164:256,1,75,10|8,0:0|0:0,0:0:0:0:
84,244,48896,1,2,1:2:0:0:
116,320,49068,2,0,L|189:335,1,75,10|0,0:0|0:0,0:0:0:0:
268,364,49411,1,10,0:0:0:0:
344,328,49582,2,0,P|332:296|336:256,1,75,2|0,1:2|0:0,0:0:0:0:
412,284,49925,6,0,L|424:120,1,150,12|2,0:0|1:2,0:0:0:0:
380,72,50439,1,8,0:0:0:0:
320,28,50611,2,0,P|272:24|232:28,1,75,2|8,0:0|0:0,0:0:0:0:
172,48,50954,1,2,1:2:0:0:
172,48,51296,2,0,P|192:84|226:99,1,75,10|10,0:0|0:0,0:0:0:0:
304,112,51639,1,2,1:2:0:0:
384,132,51811,2,0,P|412:172|420:208,1,75,10|0,0:0|0:0,0:0:0:0:
346,263,52154,2,0,L|324:192,2,75,10|2|0,0:0|1:2|0:0,0:0:0:0:
288,324,52668,6,0,P|252:264|180:208,1,150,8|2,0:0|1:2,0:0:0:0:
108,228,53182,1,8,0:0:0:0:
40,180,53354,2,0,P|32:144|40:100,1,75,2|8,0:0|0:0,0:0:0:0:
88,40,53696,1,6,1:2:0:0:
308,164,54211,2,0,P|328:208|332:240,2,75,8|2|10,0:0|1:2|0:0,0:0:0:0:
308,164,54896,1,10,0:0:0:0:
212,236,55068,1,0,1:0:0:0:
331,234,55239,1,0,0:0:0:0:
236,304,55411,6,0,B|276:320|312:304|312:304|352:304|384:348,1,150,14|2,0:0|1:2,0:0:0:0:
456,328,55925,1,8,0:0:0:0:
496,256,56096,2,0,P|500:204|492:168,1,75,2|8,0:0|0:0,0:0:0:0:
424,220,56439,2,0,P|401:172|376:145,1,75,2|0,1:2|0:0,0:0:0:0:
340,224,56782,1,10,0:0:0:0:
340,224,56954,2,0,P|296:194|261:183,1,75,10|0,0:0|1:0,0:0:0:0:
268,268,57296,1,10,0:0:0:0:
268,268,57639,2,0,P|228:296|176:312,1,75,10|2,0:0|1:2,0:0:0:0:
132,348,57982,1,0,0:0:0:0:
60,308,58154,6,0,B|48:268|60:232|60:232|88:208|104:160,1,150,8|2,0:0|1:2,0:0:0:0:
108,88,58668,1,8,0:0:0:0:
184,60,58839,2,2,P|224:80|264:84,2,75,2|10|2,0:0|0:0|1:2,0:0:0:0:
320,156,59525,2,0,L|224:172,1,75,10|8,0:0|0:0,0:0:0:0:
352,228,59868,1,2,1:2:0:0:
352,228,60039,2,0,L|256:244,1,75,10|0,0:0|0:0,0:0:0:0:
384,300,60382,1,10,0:0:0:0:
384,300,60554,1,2,1:2:0:0:
492,176,60896,6,0,P|460:96|392:60,1,150,12|2,0:0|0:2,0:0:0:0:
328,88,61411,1,8,0:0:0:0:
256,48,61582,2,0,P|216:68|192:96,1,75,2|8,0:0|0:0,0:0:0:0:
168,172,61925,1,2,1:2:0:0:
108,116,62096,1,2,0:0:0:0:
80,196,62268,1,10,0:2:0:0:
20,140,62439,2,0,P|0:176|4:224,1,75,10|0,0:0|1:0,0:0:0:0:
40,280,62782,1,10,0:0:0:0:
40,280,63125,2,0,P|96:284|128:304,1,75,10|2,0:0|1:2,0:0:0:0:
167,353,63468,1,0,0:0:0:0:
248,344,63639,6,0,P|232:280|236:180,1,150,8|2,0:0|1:2,0:0:0:0:
284,128,64154,1,8,0:0:0:0:
360,100,64325,1,2,0:0:0:0:
440,124,64496,1,10,0:0:0:0:
476,200,64668,1,6,1:2:0:0:
248,344,65182,6,0,P|248:288|264:248,1,75,8|2,0:0|1:2,0:0:0:0:
324,228,65525,2,0,L|360:208,2,37.5,10|8|8,3:0|3:0|3:0,0:0:0:0:
253,270,65868,1,2,1:2:0:0:
172,280,66039,1,8,1:3:0:0:
96,252,66211,1,4,2:3:0:0:
60,180,66382,5,14,0:0:0:0:
256,192,66468,12,0,69125,0:0:0:0:
180,288,74611,6,0,B|200:268|188:236|188:236|208:208|236:204,1,112.500004291535,6|0,0:0|0:0,0:0:0:0:
356,232,75296,2,0,P|384:236|416:232,2,56.2500021457673
304,176,75811,1,0,0:0:0:0:
188,100,76154,2,0,L|116:116,1,56.2500021457673
60,140,76496,1,0,0:0:0:0:
184,212,76839,1,0,0:0:0:0:
272,156,77011,2,0,P|284:204|280:252,1,95.6250018239022,0|0,1:0|1:0,0:0:0:0:
276,288,77354,6,0,B|312:272|344:280|344:280|372:248|380:200,1,150,14|0,0:0|1:0,0:0:0:0:
292,68,78039,1,0,0:0:0:0:
236,124,78211,2,0,P|280:144|316:144,1,75,8|0,0:0|1:0,0:0:0:0:
376,100,78554,1,0,0:0:0:0:
456,112,78725,2,0,P|480:164|488:192,2,75,8|0|0,0:0|0:0|1:0,0:0:0:0:
376,100,79239,1,8,0:0:0:0:
376,100,79582,2,0,L|352:184,1,75,8|0,0:0|1:0,0:0:0:0:
368,252,79925,1,0,0:0:0:0:
316,316,80096,6,0,P|268:256|188:216,1,150,2|0,0:0|1:0,0:0:0:0:
48,276,80782,1,0,0:0:0:0:
104,336,80954,2,0,P|124:304|128:256,1,75,8|0,0:0|1:0,0:0:0:0:
112,188,81296,1,0,0:0:0:0:
96,108,81468,2,0,P|102:71|122:39,2,75,8|0|0,0:0|0:0|1:0,0:0:0:0:
112,188,81982,1,8,0:0:0:0:
112,188,82325,2,0,P|168:192|212:208,1,75,8|0,0:0|1:0,0:0:0:0:
260,232,82668,1,0,0:0:0:0:
308,300,82839,6,0,B|324:260|348:236|348:236|388:232|416:192,1,150,10|0,0:0|1:0,0:0:0:0:
340,48,83525,1,0,0:0:0:0:
260,32,83696,2,0,P|264:76|296:116,1,75,8|0,0:0|1:0,0:0:0:0:
356,128,84039,1,0,0:0:0:0:
440,128,84211,2,0,B|476:148|492:184|492:184|464:216|472:256,1,150,8|0,0:0|1:0,0:0:0:0:
492,332,84725,1,8,0:0:0:0:
492,332,85068,2,0,P|440:324|404:324,1,75,8|0,0:0|1:0,0:0:0:0:
340,352,85411,1,0,0:0:0:0:
340,352,85582,6,0,P|304:292|296:192,1,150,14|0,0:0|1:0,0:0:0:0:
288,48,86268,1,0,0:0:0:0:
272,128,86439,2,0,P|232:156|180:168,1,75,8|0,0:0|1:0,0:0:0:0:
148,108,86782,2,0,P|127:152|88:188,1,75,0|8,0:0|0:0,0:0:0:0:
32,144,87125,2,0,P|36:192|20:243,1,75,0|0,0:0|1:0,0:0:0:0:
0,296,87468,1,8,0:0:0:0:
0,296,87811,2,0,P|44:324|68:348,2,75,8|0|0,0:0|1:0|0:0,0:0:0:0:
31,218,88325,6,0,B|69:217|94:185|94:185|128:164|180:200,1,150,10|0,0:0|1:0,0:0:0:0:
324,264,89011,1,0,0:0:0:0:
265,322,89182,2,0,P|245:290|245:234,1,75,8|0,0:0|1:0,0:0:0:0:
252,172,89525,1,0,0:0:0:0:
320,128,89696,1,8,0:0:0:0:
320,128,89868,2,0,P|364:123|402:103,1,75,0|0,0:0|1:0,0:0:0:0:
388,193,90211,2,0,P|437:220|479:229,1,75,8|0,0:0|0:0,0:0:0:0:
408,295,90554,2,0,P|427:348|454:381,1,75,8|0,0:0|1:0,0:0:0:0:
356,376,90896,1,0,0:0:0:0:
356,376,91068,6,0,B|328:340|300:324|300:324|264:336|208:296,1,150,10|0,0:0|1:0,0:0:0:0:
88,224,91754,2,0,P|44:248|12:276,2,75,0|8|0,0:0|0:0|1:0,0:0:0:0:
168,240,92268,1,0,0:0:0:0:
232,188,92439,1,8,0:0:0:0:
232,188,92611,2,0,L|316:208,1,75,0|0,0:0|1:0,0:0:0:0:
232,112,92954,2,0,L|159:94,1,75,8|0,0:0|0:0,0:0:0:0:
80,116,93296,2,0,P|32:112|-4:84,2,75,8|0|0,0:0|1:0|0:0,0:0:0:0:
144,168,93811,6,0,P|140:224|212:316,1,150,10|0,0:0|1:0,0:0:0:0:
352,304,94496,2,0,P|395:311|428:328,2,75,0|8|0,0:0|0:0|1:0,0:0:0:0:
276,336,95011,1,0,0:0:0:0:
248,260,95182,1,8,0:0:0:0:
324,228,95354,2,0,L|348:136,1,75,0|6,0:0|1:2,0:0:0:0:
396,92,95696,1,8,0:0:0:0:
396,92,96039,1,8,0:0:0:0:
280,64,96211,1,0,1:0:0:0:
280,64,96554,6,0,P|300:104|320:224,1,150,14|8,0:0|0:0,0:0:0:0:
232,344,97239,2,0,P|202:275|191:201,1,150,8|8,0:0|0:0,0:0:0:0:
172,120,97754,1,0,0:0:0:0:
100,76,97925,2,0,P|89:150|59:218,1,150,8|8,0:0|0:0,0:0:0:0:
88,380,98611,2,0,L|136:288,1,75,8|0,0:0|0:0,0:0:0:0:
120,232,98954,1,0,1:0:0:0:
192,192,99125,6,0,P|216:160|259:136,1,75,0|8,0:0|0:0,0:0:0:0:
269,219,99468,2,0,P|306:204|355:204,1,75,0|8,0:0|0:0,0:0:0:0:
324,284,99811,2,0,P|363:289|406:315,1,75,0|8,0:0|0:0,0:0:0:0:
336,364,100154,2,0,L|244:376,2,75,0|8|0,0:0|0:0|0:0,0:0:0:0:
404,316,100668,1,8,0:0:0:0:
428,232,100839,2,0,P|436:176|416:136,1,75,0|8,0:0|0:0,0:0:0:0:
356,192,101182,2,0,L|281:182,2,75,0|8|0,0:0|0:0|0:0,0:0:0:0:
428,232,101696,1,0,1:0:0:0:
404,316,101868,5,0,0:0:0:0:
404,316,101954,1,0,0:0:0:0:
404,316,102039,2,0,L|242:295,1,150,10|8,0:0|0:0,0:0:0:0:
108,220,102725,2,0,L|256:200,1,150,8|8,0:0|0:0,0:0:0:0:
334,231,103239,1,0,0:0:0:0:
400,180,103411,2,0,B|364:160|348:128|348:128|336:84|296:76,1,150,8|8,0:0|0:0,0:0:0:0:
220,104,103925,2,0,P|181:93|142:54,1,75,0|8,0:0|0:0,0:0:0:0:
88,24,104268,1,2,0:0:0:0:
12,52,104439,6,0,L|20:128,1,75,6|2,1:2|0:0,0:0:0:0:
24,208,104782,1,12,0:0:0:0:
164,296,105125,1,2,1:2:0:0:
164,295,105297,2,0,L|156:220,1,75,14|0,0:0|0:0,0:0:0:0:
148,140,105639,1,2,1:2:0:0:
148,140,105811,1,14,0:0:0:0:
240,216,106325,6,0,P|248:264|262:300,2,75,8|8|4,3:0|3:0|3:0,0:0:0:0:
228,48,107011,1,10,0:0:0:0:
292,100,107182,1,8,0:0:0:0:
296,108,107268,1,8,0:0:0:0:
300,116,107354,1,8,0:0:0:0:
304,124,107439,1,8,0:0:0:0:
308,132,107525,6,0,P|352:200|412:244,1,150,14|2,0:0|1:2,0:0:0:0:
484,216,108039,1,8,0:0:0:0:
472,300,108211,2,0,P|424:328|336:296,1,150,2|2,0:0|1:2,0:0:0:0:
268,260,108725,1,2,0:0:0:0:
196,300,108896,2,0,L|140:364,1,75,10|10,0:0|0:0,0:0:0:0:
124,260,109239,1,0,1:0:0:0:
124,260,109411,2,0,P|168:200|184:116,1,150,10|10,0:0|0:0,0:0:0:0:
252,76,109925,2,0,L|268:172,1,75,2|0,1:2|0:0,0:0:0:0:
320,212,110268,5,8,0:0:0:0:
320,212,110611,2,0,B|280:236|244:228|244:228|204:260|204:304,1,150,2|2,1:2|0:0,0:0:0:0:
140,336,111125,2,0,P|84:340|60:332,2,75,10|2|0,0:0|1:2|0:0,0:0:0:0:
205,285,111639,2,0,L|292:320,1,75,10|8,0:0|0:0,0:0:0:0:
356,288,111982,1,2,1:2:0:0:
320,212,112154,2,0,L|250:184,1,75,10|0,0:0|0:0,0:0:0:0:
208,112,112496,1,10,0:0:0:0:
280,68,112668,2,0,L|349:40,1,75,0|0,1:2|0:0,0:0:0:0:
376,120,113011,6,0,P|432:176|444:264,1,150,12|2,0:0|1:2,0:0:0:0:
416,320,113525,1,8,0:0:0:0:
336,336,113696,2,0,L|308:236,1,75,2|8,0:0|0:0,0:0:0:0:
256,208,114039,1,2,1:2:0:0:
176,188,114211,1,2,0:0:0:0:
100,224,114382,2,0,P|96:268|108:316,2,75,10|10|0,0:0|0:0|1:0,0:0:0:0:
176,344,114896,1,10,0:0:0:0:
176,344,115239,2,0,P|224:336|256:304,1,75,10|2,0:0|1:2,0:0:0:0:
180,252,115582,1,0,0:0:0:0:
100,224,115754,6,0,P|140:168|160:84,1,150,8|2,0:0|1:2,0:0:0:0:
224,36,116268,1,8,0:0:0:0:
304,60,116439,2,0,P|328:96|336:140,1,75,2|8,0:0|0:0,0:0:0:0:
344,208,116782,1,6,1:2:0:0:
100,228,117296,2,0,P|80:196|68:160,2,75,8|2|10,0:0|1:2|0:0,0:0:0:0:
100,228,117982,1,10,0:0:0:0:
204,168,118154,1,2,1:2:0:0:
176,284,118325,1,0,0:0:0:0:
280,224,118496,6,0,B|280:264|308:292|308:292|344:296|384:328,1,150,14|2,0:0|1:2,0:0:0:0:
460,320,119011,1,8,0:0:0:0:
480,240,119182,2,0,P|468:196|468:160,1,75,2|8,0:0|0:0,0:0:0:0:
396,124,119525,2,0,P|394:161|383:197,1,75,2|0,1:2|0:0,0:0:0:0:
316,148,119868,2,0,L|320:60,2,75,10|10|2,0:0|0:0|1:2,0:0:0:0:
280,224,120382,1,10,0:0:0:0:
280,224,120725,2,0,P|224:208|176:208,1,75,10|2,0:0|1:2,0:0:0:0:
128,236,121068,1,0,0:0:0:0:
68,180,121239,6,0,B|112:172|128:140|128:140|116:88|152:60,1,150,8|2,0:0|1:2,0:0:0:0:
220,44,121754,1,8,0:0:0:0:
300,60,121925,2,0,P|340:44|380:44,2,75,2|10|2,0:0|0:0|1:2,0:0:0:0:
280,224,122611,2,0,L|244:132,1,75,10|8,0:0|0:0,0:0:0:0:
364,232,122954,1,2,1:2:0:0:
364,232,123125,2,0,L|328:140,1,75,10|0,0:0|0:0,0:0:0:0:
448,240,123468,1,10,0:0:0:0:
448,240,123639,1,2,1:2:0:0:
332,336,123982,6,0,P|256:356|180:328,1,150,12|2,0:0|1:2,0:0:0:0:
108,332,124496,1,8,0:0:0:0:
56,268,124668,2,0,P|81:233|96:188,1,75,2|8,0:0|0:0,0:0:0:0:
152,144,125011,2,0,P|165:178|189:208,1,75,2|0,1:2|0:0,0:0:0:0:
260,252,125354,1,10,0:0:0:0:
328,204,125525,1,10,0:0:0:0:
400,248,125696,1,2,1:2:0:0:
468,200,125868,2,0,B|476:248|492:272|492:272|476:320|432:336,1,150,10|10,0:0|0:0,0:0:0:0:
372,360,126382,2,0,L|308:308,1,75,2|0,1:2|0:0,0:0:0:0:
236,344,126725,6,0,P|224:276|168:200,1,150,8|2,0:0|1:2,0:0:0:0:
120,152,127239,1,8,0:0:0:0:
140,72,127411,1,2,0:0:0:0:
212,32,127582,1,8,0:0:0:0:
292,52,127754,1,6,1:2:0:0:
268,296,128268,6,0,P|288:244|288:208,1,75,8|2,0:0|1:2,0:0:0:0:
232,164,128611,2,0,L|200:124,2,37.5,10|8|8,3:0|3:0|3:0,0:0:0:0:
289,225,128954,1,2,1:2:0:0:
368,252,129125,1,8,1:3:0:0:
448,236,129296,1,4,2:3:0:0:
504,176,129468,6,0,L|488:16,1,150,14|0,0:0|1:0,0:0:0:0:
420,72,129982,2,0,P|380:100|276:96,1,150,10|8,0:0|0:0,0:0:0:0:
204,68,130496,2,0,P|160:84|132:120,1,75,0|0,1:0|0:0,0:0:0:0:
128,188,130839,1,10,0:0:0:0:
200,232,131011,2,0,L|214:158,1,75,10|0,0:0|1:0,0:0:0:0:
281,116,131354,1,8,0:0:0:0:
328,184,131525,2,0,P|364:192|400:184,1,75,2|8,0:0|0:0,0:0:0:0:
344,268,131868,2,0,P|308:276|272:268,1,75,2|0,1:2|0:0,0:0:0:0:
200,232,132211,6,0,L|50:302,1,150,10|2,0:0|1:2,0:0:0:0:
72,212,132725,2,0,P|112:156|128:76,1,150,10|10,0:0|0:0,0:0:0:0:
200,36,133239,1,0,1:0:0:0:
284,44,133411,2,0,L|308:132,1,75,2|8,0:0|0:0,0:0:0:0:
384,104,133754,2,0,L|360:192,1,75,10|0,0:0|1:0,0:0:0:0:
284,184,134096,2,0,L|308:272,1,75,10|0,0:0|0:0,0:0:0:0:
384,244,134439,2,0,L|360:332,1,75,10|0,0:0|1:0,0:0:0:0:
284,328,134782,1,2,0:0:0:0:
284,328,134954,6,0,B|252:304|216:300|216:300|168:328|128:304,1,150,14|2,0:0|1:2,0:0:0:0:
168,232,135468,2,0,P|180:188|184:132,2,75,10|0|10,0:0|0:0|0:0,0:0:0:0:
143,311,135982,1,6,1:2:0:0:
216,356,136154,2,0,P|256:348|284:328,1,75,2|0,0:0|0:0,0:0:0:0:
352,376,136496,2,0,P|365:337|361:303,1,75,10|0,0:0|1:0,0:0:0:0:
436,264,136839,2,0,P|409:233|377:219,1,75,10|0,0:0|0:0,0:0:0:0:
296,200,137182,1,10,0:0:0:0:
224,240,137354,2,0,L|184:264,2,37.5,2|0|0,1:2|1:0|1:0,0:0:0:0:
296,200,137696,6,0,P|304:120|296:36,1,150,14|0,0:0|1:0,0:0:0:0:
236,112,138211,2,0,P|304:134|378:91,1,150,10|8,0:0|0:0,0:0:0:0:
460,96,138725,2,0,L|380:232,1,150,2|8,1:2|0:0,0:0:0:0:
312,268,139239,2,0,P|352:304|388:308,1,75,10|0,0:0|1:0,0:0:0:0:
312,368,139582,1,10,0:0:0:0:
312,368,139754,2,0,L|220:316,1,75,2|8,0:0|0:0,0:0:0:0:
164,324,140096,1,2,1:2:0:0:
164,324,140268,6,0,L|216:232,1,75,2|8,0:0|0:0,0:0:0:0:
260,200,140611,2,0,P|248:148|248:104,1,75,2|0,0:0|1:0,0:0:0:0:
328,144,140954,2,0,P|304:64|240:44,1,150,10|8,0:0|0:0,0:0:0:0:
164,48,141468,1,2,1:2:0:0:
92,92,141639,2,0,P|64:128|56:164,1,75,0|0,0:0|0:0,0:0:0:0:
140,160,141982,2,0,P|133:205|144:240,1,75,2|8,0:0|0:0,0:0:0:0:
216,196,142325,2,0,P|233:238|260:263,1,75,0|2,0:0|0:0,0:0:0:0:
300,189,142668,2,0,P|336:216|372:225,1,75,0|8,0:0|0:0,0:0:0:0:
369,141,143011,1,2,0:0:0:0:
369,141,143182,6,6,B|336:116|320:84|320:84|284:92|236:84,1,150,14|2,0:0|1:2,0:0:0:0:
164,88,143696,2,0,P|184:48|192:16,1,75,10|0,0:0|0:0,0:0:0:0:
272,8,144039,2,0,P|336:12|368:0,1,75,10|4,0:0|1:2,0:0:0:0:
428,28,144382,2,0,P|438:64|455:97,1,75,2|0,0:0|0:0,0:0:0:0:
456,180,144725,2,0,P|438:213|428:249,1,75,10|0,0:0|1:0,0:0:0:0:
348,272,145068,2,0,P|312:264|272:272,1,75,6|0,0:0|0:0,0:0:0:0:
208,224,145411,1,8,0:0:0:0:
172,300,145582,1,2,1:2:0:0:
96,264,145754,1,2,0:0:0:0:
60,340,145925,5,14,0:0:0:0:
60,340,146268,1,2,0:0:0:0:
224,356,146611,2,0,P|268:348|312:316,2,75,2|2|2,0:0|0:0|0:0,0:0:0:0:
152,316,147125,2,0,B|124:288|140:244|140:244|176:224|188:176,2,150,2|2|2,0:0|0:0|0:0,0:0:0:0:
400,312,148325,1,2,0:0:0:0:
400,312,148496,2,0,L|312:308,2,75,2|2|0,0:0|0:0|0:0,0:0:0:0:
464,364,149011,5,2,0:0:0:0:
464,364,149182,2,0,P|428:276|428:216,1,150,2|0,0:0|0:0,0:0:0:0:
472,152,149696,1,2,0:0:0:0:
472,152,149868,2,0,L|316:132,1,150,2|0,0:0|0:0,0:0:0:0:
252,176,150382,1,0,0:0:0:0:
168,168,150554,2,0,P|128:188|76:200,2,75,2|2|2,0:0|0:0|0:0,0:0:0:0:
384,48,151411,6,0,P|356:112|348:208,1,150,10|2,0:0|0:0,0:0:0:0:
436,328,152096,1,2,0:0:0:0:
496,272,152268,2,0,P|504:220|504:180,2,75,2|2|2,0:0|0:0|0:0,0:0:0:0:
248,288,153125,1,2,0:0:0:0:
248,288,153296,2,0,L|424:248,1,150,2|0,0:0|0:0,0:0:0:0:
436,328,153811,1,2,0:0:0:0:
436,328,154154,6,0,L|289:361,1,150,8|0,0:0|0:0,0:0:0:0:
148,276,154839,1,0,0:0:0:0:
260,152,155182,1,2,0:0:0:0:
260,152,155354,2,0,P|228:184|184:196,1,75,2|0,0:0|0:0,0:0:0:0:
188,112,155696,2,0,P|176:68|187:24,1,75,2|0,0:0|0:0,0:0:0:0:
260,68,156039,2,0,P|303:79|336:111,1,75,2|0,0:0|0:0,0:0:0:0:
368,212,156382,1,0,1:0:0:0:
260,152,156554,1,0,1:0:0:0:
260,152,156896,6,0,L|276:240,2,75,14|0|8,0:0|0:0|0:0,0:0:0:0:
192,201,157411,2,0,L|208:289,2,75,2|0|0,0:0|1:0|0:0,0:0:0:0:
124,249,157925,2,0,L|140:337,2,75,10|0|8,0:0|0:0|0:0,0:0:0:0:
56,297,158439,2,0,L|72:385,2,75,2|8|0,0:0|0:0|0:0,0:0:0:0:
40,216,158954,1,2,1:2:0:0:
108,68,159296,1,10,0:0:0:0:
252,152,159639,6,0,L|236:240,2,75,10|0|8,0:0|0:0|0:0,0:0:0:0:
320,201,160154,2,0,L|304:289,2,75,2|0|0,0:0|1:0|0:0,0:0:0:0:
388,249,160668,2,0,L|372:337,2,75,10|0|8,0:0|0:0|0:0,0:0:0:0:
456,297,161182,2,0,L|440:385,2,75,2|8|0,0:0|0:0|0:0,0:0:0:0:
472,216,161696,1,2,1:2:0:0:
404,68,162038,1,10,0:0:0:0:
240,96,162382,6,0,P|200:84|164:60,2,75,10|0|8,0:0|0:0|0:0,0:0:0:0:
272,172,162896,2,0,P|312:160|348:136,2,75,2|0|0,0:0|1:0|0:0,0:0:0:0:
240,249,163411,2,0,P|200:237|164:213,2,75,10|0|8,0:0|0:0|0:0,0:0:0:0:
272,325,163925,2,0,P|312:313|348:289,2,75,2|8|0,0:0|0:0|0:0,0:0:0:0:
188,316,164439,1,2,1:2:0:0:
324,224,164782,1,10,0:0:0:0:
192,124,165125,6,0,B|152:116|120:128|120:128|80:112|56:64,2,150,10|8|0,0:0|0:0|1:0,0:0:0:0:
356,124,166154,1,10,0:0:0:0:
356,124,166325,2,0,B|396:132|428:120|428:120|468:136|484:170,2,150,2|2|2,0:0|0:0|0:0,0:0:0:0:
304,188,167182,2,0,P|260:200|224:196,2,75,0|10|0,1:0|3:0|3:0,0:0:0:0:
384,204,167696,1,8,0:0:0:0:
432,272,167868,5,14,0:0:0:0:
432,272,168896,1,12,0:0:0:0:
256,132,170439,6,0,L|248:96,3,25,2|0|0|0,0:0|0:0|0:0|0:0,0:0:0:0:
352,264,173011,5,0,0:0:0:0:
284,220,173182,1,0,0:0:0:0:
204,244,173354,2,0,P|160:252|112:236,1,75,2|0,0:0|0:0,0:0:0:0:
72,188,173696,1,0,0:0:0:0:
148,44,174039,1,0,0:0:0:0:
292,124,174382,2,0,P|336:124|376:108,2,75,0|0|2,0:0|0:0|0:0,0:0:0:0:
212,100,174896,5,0,0:0:0:0:
72,188,175239,1,0,0:0:0:0:
172,320,175582,1,0,0:0:0:0:
172,320,175754,2,0,P|216:292|256:284,1,75,2|0,0:0|0:0,0:0:0:0:
352,320,176096,6,0,L|268:180,1,150,14|2,0:0|1:2,0:0:0:0:
204,148,176611,1,8,0:0:0:0:
132,188,176782,2,0,P|88:188|48:172,2,75,2|10|2,0:0|0:0|1:2,0:0:0:0:
236,60,177468,2,0,L|328:80,1,75,10|8,0:0|0:0,0:0:0:0:
392,72,177811,1,2,1:2:0:0:
444,136,177982,2,0,L|370:151,1,75,10|0,0:0|0:0,0:0:0:0:
288,148,178325,1,10,0:0:0:0:
236,212,178496,2,0,L|309:227,1,75,2|0,1:2|0:0,0:0:0:0:
196,292,178839,6,0,P|152:244|176:144,1,150,12|2,0:0|1:2,0:0:0:0:
218,106,179354,1,8,0:0:0:0:
288,148,179525,2,0,P|344:152|380:144,1,75,2|8,0:0|0:0,0:0:0:0:
444,136,179868,1,2,1:2:0:0:
492,204,180039,1,2,0:0:0:0:
436,264,180211,1,10,0:0:0:0:
484,332,180382,2,0,P|436:360|416:376,2,75,10|2|10,0:0|1:2|0:0,0:0:0:0:
324,296,181068,2,0,P|276:292|236:272,2,75,10|2|0,0:0|1:2|0:0,0:0:0:0:
343,218,181582,6,0,P|375:162|375:74,1,150,8|2,0:0|1:2,0:0:0:0:
312,24,182096,1,8,0:0:0:0:
228,20,182268,2,0,P|188:24|152:48,1,75,2|8,0:0|0:0,0:0:0:0:
92,92,182611,1,6,1:2:0:0:
281,255,183125,2,0,P|314:240|344:215,2,75,8|2|8,0:0|1:2|0:0,0:0:0:0:
281,255,183811,1,10,0:0:0:0:
172,212,183982,1,0,1:0:0:0:
260,132,184154,1,0,0:0:0:0:
344,215,184325,6,0,P|345:293|278:329,1,150,6|2,0:0|1:2,0:0:0:0:
212,304,184839,1,8,0:0:0:0:
132,328,185011,2,0,P|72:312|52:312,1,75,2|8,0:0|0:0,0:0:0:0:
12,244,185354,2,0,P|72:228|92:228,1,75,2|0,1:2|0:0,0:0:0:0:
140,164,185696,2,0,P|152:120|152:80,2,75,10|10|2,0:0|0:0|1:2,0:0:0:0:
84,227,186211,1,10,0:0:0:0:
84,227,186554,2,0,P|132:247|176:240,1,75,10|2,0:0|1:2,0:0:0:0:
232,272,186896,1,0,0:0:0:0:
304,232,187068,6,0,B|276:200|288:160|288:160|320:124|300:80,1,150,8|2,0:0|1:2,0:0:0:0:
228,56,187582,1,8,0:0:0:0:
152,92,187754,2,0,P|160:136|192:168,2,75,2|10|2,0:0|0:0|1:2,0:0:0:0:
16,194,188439,2,0,L|84:228,1,75,10|8,0:0|0:0,0:0:0:0:
128,296,188782,1,2,1:2:0:0:
208,284,188954,2,0,L|275:317,1,75,10|0,0:0|0:0,0:0:0:0:
328,380,189296,1,10,0:0:0:0:
404,344,189468,2,0,P|388:304|392:268,1,75,2|0,1:2|0:0,0:0:0:0:
468,296,189811,6,0,L|448:128,1,150,12|2,0:0|1:2,0:0:0:0:
400,84,190325,1,8,0:0:0:0:
324,120,190496,2,0,L|312:24,1,75,2|8,0:0|0:0,0:0:0:0:
252,164,190839,2,0,L|240:68,1,75,2|0,1:2|0:0,0:0:0:0:
180,208,191182,1,10,0:0:0:0:
180,208,191354,2,0,L|168:112,1,75,10|0,0:0|1:0,0:0:0:0:
97,94,191696,1,10,0:0:0:0:
97,94,192039,2,2,P|81:146|53:178,1,75,10|2,0:0|1:2,0:0:0:0:
56,244,192382,1,0,0:0:0:0:
88,320,192554,6,0,B|124:308|136:264|136:264|144:228|180:208,1,150,8|2,0:0|1:2,0:0:0:0:
252,164,193068,1,8,0:0:0:0:
324,208,193239,1,2,0:0:0:0:
296,288,193411,1,8,0:0:0:0:
212,288,193582,1,6,1:2:0:0:
380,96,194096,6,0,P|420:128|444:168,1,75,8|2,0:0|1:2,0:0:0:0:
420,228,194439,2,0,L|408:272,2,37.5,10|8|8,3:0|3:0|3:0,0:0:0:0:
433,147,194782,2,0,P|456:117|487:96,2,75,2|8|4,1:2|1:3|2:3,0:0:0:0:
420,228,195296,6,0,B|400:272|360:272|360:272|328:256|288:272,1,150,14|2,0:0|1:2,0:0:0:0:
212,296,195811,1,8,0:0:0:0:
148,244,195982,2,0,L|124:155,1,75,2|8,0:0|0:0,0:0:0:0:
192,120,196325,2,0,L|211:192,1,75,2|0,1:2|0:0,0:0:0:0:
276,140,196668,2,0,P|268:88|284:48,2,75,10|10|2,0:0|0:0|1:2,0:0:0:0:
316,212,197182,1,10,0:0:0:0:
316,212,197525,2,0,P|352:172|361:133,2,75,10|2|0,0:0|1:2|0:0,0:0:0:0:
252,264,198039,6,0,L|408:348,1,150,8|2,0:0|1:2,0:0:0:0:
468,324,198554,1,8,0:0:0:0:
504,252,198725,2,0,L|420:204,2,75,2|10|2,0:0|0:0|1:2,0:0:0:0:
440,100,199411,2,0,L|524:52,2,75,10|8|2,0:0|0:0|1:2,0:0:0:0:
356,100,199925,1,10,0:0:0:0:
356,100,200268,2,0,P|300:92|264:100,1,75,10|2,0:0|1:2,0:0:0:0:
208,60,200611,1,0,0:0:0:0:
156,124,200782,6,0,P|224:164|256:240,1,150,14|2,0:0|1:2,0:0:0:0:
240,308,201296,1,8,0:0:0:0:
155,309,201468,2,0,L|140:236,1,75,2|8,0:0|0:0,0:0:0:0:
88,172,201811,1,2,1:2:0:0:
156,124,201982,1,2,0:0:0:0:
208,188,202154,2,0,P|256:160|296:160,2,75,10|10|0,0:0|0:0|1:0,0:0:0:0:
140,236,202668,2,0,P|67:252|8:196,1,150,10|10,0:0|0:0,0:0:0:0:
88,172,203182,2,0,P|128:140|144:116,1,75,2|0,1:2|0:0,0:0:0:0:
160,40,203525,6,0,P|216:76|312:88,1,150,8|2,0:0|1:2,0:0:0:0:
376,64,204039,1,8,0:0:0:0:
440,12,204211,2,0,P|454:46|454:83,1,75,2|8,0:0|0:0,0:0:0:0:
436,164,204554,1,6,1:2:0:0:
188,192,205068,2,0,P|166:222|158:258,2,75,8|2|10,0:0|1:2|0:0,0:0:0:0:
188,192,205754,1,10,0:0:0:0:
280,268,205925,1,2,1:2:0:0:
300,152,206096,1,0,0:0:0:0:
392,228,206268,6,0,B|388:180|424:164|424:164|440:128|424:80,1,150,14|2,0:0|1:2,0:0:0:0:
360,44,206782,1,8,0:0:0:0:
284,76,206954,2,0,P|232:56|196:56,1,75,2|8,0:0|0:0,0:0:0:0:
152,112,207296,1,2,1:2:0:0:
224,156,207468,1,2,0:0:0:0:
156,204,207639,2,0,P|119:209|85:225,2,75,10|10|2,0:0|0:0|1:2,0:0:0:0:
224,156,208154,1,10,0:0:0:0:
248,320,208496,2,0,P|232:286|227:249,2,75,10|2|0,0:0|1:2|0:0,0:0:0:0:
308,264,209011,6,0,B|296:228|304:192|304:192|340:172|352:128,1,150,8|2,0:0|1:2,0:0:0:0:
324,56,209525,1,8,0:0:0:0:
264,112,209696,2,0,P|224:120|184:112,2,75,2|10|2,0:0|0:0|1:2,0:0:0:0:
428,100,210382,2,0,L|464:180,1,75,10|8,0:0|0:0,0:0:0:0:
376,164,210725,1,2,1:2:0:0:
376,164,210896,2,0,L|412:244,1,75,10|0,0:2|0:0,0:0:0:0:
324,232,211239,1,10,0:0:0:0:
324,232,211411,1,2,1:2:0:0:
160,228,211754,6,0,B|124:248|124:248|152:300|120:352,1,150,14|2,0:0|1:2,0:0:0:0:
48,296,212268,1,8,0:0:0:0:
16,216,212439,2,0,L|104:172,1,75,2|8,0:0|0:0,0:0:0:0:
80,100,212782,2,0,L|178:105,1,75,2|0,1:2|0:0,0:0:0:0:
196,32,213125,2,0,L|278:86,2,75,10|10|2,0:0|0:0|1:2,0:0:0:0:
154,104,213639,1,10,0:0:0:0:
154,104,213982,2,0,P|200:144|216:184,1,75,10|2,0:0|1:2,0:0:0:0:
180,236,214325,1,0,0:0:0:0:
228,304,214496,6,0,B|260:276|296:284|296:284|324:248|320:208,1,150,8|2,0:0|1:2,0:0:0:0:
300,132,215011,1,8,0:0:0:0:
340,60,215182,1,2,0:0:0:0:
420,40,215354,1,8,0:0:0:0:
492,80,215525,1,6,1:2:0:0:
420,324,216039,6,0,P|404:276|404:240,1,75,8|2,0:0|1:2,0:0:0:0:
472,204,216382,2,0,L|508:176,2,37.5,10|8|8,3:0|3:0|3:0,0:0:0:0:
404,252,216725,1,2,1:2:0:0:
320,260,216896,1,8,1:3:0:0:
240,232,217068,1,4,2:3:0:0:
184,172,217239,5,14,0:0:0:0:
256,192,217325,12,0,219982,0:0:0:0:
256,192,222725,12,0,228211,0:0:0:0:
