osu file format v13

[General]
AudioFilename: Kokoro no Yakusoku.mp3
AudioLeadIn: 0
PreviewTime: 65637
Countdown: 0
SampleSet: Soft
StackLeniency: 0.7
Mode: 0
LetterboxInBreaks: 0
EpilepsyWarning: 1
WidescreenStoryboard: 1

[Editor]
DistanceSpacing: 1
BeatDivisor: 2
GridSize: 4
TimelineZoom: 1

[Metadata]
Title:Kokoro no Yakusoku
TitleUnicode:心ノ約束
Artist:Primary
ArtistUnicode:Primary
Creator:Kinshara
Version:Normal
Source:
Tags:Rotate yuiko Kuron-Kun Kibbleru Garven yuikonnu Meis Clauson
BeatmapID:453124
BeatmapSetID:181816

[Difficulty]
HPDrainRate:4
CircleSize:3
OverallDifficulty:4
ApproachRate:5
SliderMultiplier:1.1
SliderTickRate:1

[Events]
//Background and Video events
0,0,"kny bg 3.png",0,0
//Break Periods
//Storyboard Layer 0 (Background)
//Storyboard Layer 1 (Fail)
//Storyboard Layer 2 (Pass)
//Storyboard Layer 3 (Foreground)
//Storyboard Sound Samples
//Background Colour Transformations
3,100,163,162,255

[TimingPoints]
14837,400,4,2,1,40,1,0
66037,-86.9565217391304,4,2,1,65,0,1
91637,-100,4,2,1,65,0,0
91837,-100,4,2,1,20,0,0

[Colours]
Combo1 : 234,55,55
Combo2 : 253,122,26
Combo3 : 255,166,215

[HitObjects]
136,120,14837,5,6,0:0:0:0:
136,120,15237,2,0,L|80:120,2,55,0|0|0,0:0|0:0|1:0,0:0:0:0:
196,28,16037,1,0,0:0:0:0:
196,28,16237,2,0,P|244:108|220:189,1,165,0|0,0:0|0:0,0:0:0:0:
134,224,17237,2,0,P|121:172|136:119,1,110,4|0,1:2|0:0,0:0:0:0:
230,174,18037,6,0,P|316:180|396:172,1,165,6|0,0:0|0:0,0:0:0:0:
408,120,18837,2,0,L|400:296,1,165,6|0,1:2|0:0,0:0:0:0:
478,362,19837,1,0,0:0:0:0:
478,362,20037,2,0,P|516:315|521:256,2,110,2|6|0,0:0|1:2|0:0,0:0:0:0:
412,272,21237,6,0,P|360:244|280:320,1,165,6|0,0:0|0:0,0:0:0:0:
276,360,22037,2,0,L|232:176,2,165,6|0|0,1:2|0:0|0:0,0:0:0:0:
172,330,23637,2,0,B|116:357|64:332,1,110,6|0,1:2|0:0,0:0:0:0:
114,234,24437,6,0,L|152:63,1,165,6|0,0:0|0:0,0:0:0:0:
198,46,25237,2,0,P|254:37|312:47,1,110,6|2,1:2|0:0,0:0:0:0:
392,113,26037,2,0,L|441:164,2,55,0|0|4,0:0|1:0|0:3,0:0:0:0:
309,185,26837,2,0,P|254:193|200:185,1,110,6|4,1:2|0:3,0:0:0:0:
92,164,27637,6,0,L|63:329,1,165,6|0,0:0|0:0,0:0:0:0:
110,354,28437,2,0,P|165:346|219:354,1,110,6|0,1:2|0:0,0:0:0:0:
328,353,29237,2,0,P|382:360|436:352,2,110,6|0|6,0:0|0:0|1:2,0:0:0:0:
252,272,30437,1,0,0:0:0:0:
176,192,30837,6,0,P|262:162|328:188,1,165,6|0,0:0|0:0,0:0:0:0:
368,152,31637,2,0,L|358:261,2,110,6|2|0,1:2|0:0|0:0,0:0:0:0:
478,152,32837,2,0,L|487:42,2,110,2|6|0,0:0|1:2|0:0,0:0:0:0:
368,152,34037,6,0,P|292:132|296:44,1,165,6|0,0:0|0:0,0:0:0:0:
320,12,34837,2,0,L|192:24,1,110,6|0,1:2|0:0,0:0:0:0:
104,52,35637,2,0,B|68:92|68:92|52:152,2,110,6|0|6,0:0|0:0|1:2,0:0:0:0:
164,144,36837,1,0,0:0:0:0:
164,144,37237,6,0,P|134:230|72:259,1,165,6|0,0:0|0:0,0:0:0:0:
20,276,38037,2,0,L|148:320,1,110,0|6,1:0|0:0,0:0:0:0:
232,288,38837,2,0,L|260:220,2,55,0|0|0,0:0|1:0|0:0,0:0:0:0:
342,288,39637,2,0,L|314:356,2,55,6|0|4,1:2|1:0|0:3,0:0:0:0:
452,292,40437,6,0,P|433:224|341:179,1,165,6|0,0:0|0:0,0:0:0:0:
300,184,41237,2,0,P|346:148|364:68,1,110,6|0,1:2|0:0,0:0:0:0:
256,84,42037,2,0,L|204:52,2,55,6|0|0,0:0|0:0|0:0,0:0:0:0:
160,140,42837,2,0,P|98:126|43:144,1,110,6|0,1:2|0:0,0:0:0:0:
104,240,43637,6,0,P|172:272|148:356,1,165,6|0,0:0|0:0,0:0:0:0:
112,376,44437,2,0,L|244:344,1,110,6|0,1:2|0:0,0:0:0:0:
324,320,45237,2,0,L|340:248,2,55,2|0|2,0:0|1:0|0:0,0:0:0:0:
428,280,46037,2,0,L|444:208,2,55,6|0|4,1:2|1:0|0:3,0:0:0:0:
352,200,46837,6,0,B|324:152|280:144|280:144|272:92|312:64,1,165,6|0,0:0|0:0,0:0:0:0:
336,40,47637,2,0,L|220:48,1,110,6|0,1:2|0:0,0:0:0:0:
148,125,48437,2,0,L|32:133,2,110,6|0|6,0:0|0:0|1:2,0:0:0:0:
188,228,49637,1,0,0:0:0:0:
216,336,50037,6,0,P|224:264|304:264,1,165,6|0,0:0|0:0,0:0:0:0:
340,304,50837,2,0,P|336:240|356:180,1,110,6|0,1:2|0:0,0:0:0:0:
360,88,51637,2,0,L|336:36,2,55,2|0|2,0:0|1:0|0:0,0:0:0:0:
249,88,52437,2,0,L|225:36,2,55,6|2|4,1:2|1:2|0:3,0:0:0:0:
164,160,53237,6,0,P|88:196|20:160,1,165,6|0,0:0|0:0,0:0:0:0:
4,108,54037,2,0,L|36:296,1,165,6|0,1:2|0:0,0:0:0:0:
44,324,54837,1,6,0:0:0:0:
152,312,55237,2,0,P|208:324|280:288,2,110,2|6|0,0:0|1:2|0:0,0:0:0:0:
204,216,56437,6,0,B|274:188|325:228|325:228|388:192,1,165,6|0,0:0|0:0,0:0:0:0:
404,240,57237,2,0,P|396:184|400:128,1,110,6|0,1:2|0:0,0:0:0:0:
440,28,58037,2,0,L|508:28,2,55,2|0|2,0:0|1:0|0:0,0:0:0:0:
400,132,58837,2,0,L|332:132,2,55,6|2|6,1:2|1:2|0:3,0:0:0:0:
508,132,59637,6,0,P|512:212|508:296,1,165,6|0,0:0|0:0,0:0:0:0:
484,344,60437,2,0,P|428:336|368:348,1,110,6|0,1:2|0:0,0:0:0:0:
265,345,61237,2,0,L|169:277,1,110,2|0,0:0|0:0,0:0:0:0:
180,172,62037,2,0,L|276:240,1,110,6|0,1:2|0:0,0:0:0:0:
372,196,62837,6,0,L|276:128,1,110,6|0,0:0|0:0,0:0:0:0:
200,60,63637,1,2,0:0:0:0:
96,92,64037,1,2,0:0:0:0:
68,200,64437,1,2,0:0:0:0:
144,280,64837,1,2,0:0:0:0:
252,252,65237,2,0,L|320:296,3,55,0|0|0|0,1:0|1:0|1:0|1:0,0:0:0:0:
360,268,66037,6,0,P|316:320|284:372,2,126.500002412796,6|2|6,0:0|0:0|1:2,0:0:0:0:
448,176,67237,1,2,0:0:0:0:
448,176,67437,1,2,0:0:0:0:
448,176,67637,2,0,L|492:232,2,63.250001206398,2|2|2,0:0|0:0|0:0,0:0:0:0:
344,104,68437,2,0,P|284:96|216:104,1,126.500002412796,6|2,1:2|0:0,0:0:0:0:
136,200,69237,5,6,0:0:0:0:
136,200,69637,1,6,0:0:0:0:
136,200,70037,2,0,P|196:208|264:200,1,126.500002412796,6|2,1:2|0:0,0:0:0:0:
376,256,70837,2,0,L|420:312,2,63.250001206398,2|6|2,0:0|1:2|0:0,0:0:0:0:
452,156,71637,2,0,B|396:116|332:136|332:136|312:104|248:64,1,189.750003619194,6|2,1:2|1:2,0:0:0:0:
224,76,72437,6,0,P|286:47|332:12,2,126.500002412796,6|6|6,0:0|0:0|1:2,0:0:0:0:
124,152,73637,1,2,0:0:0:0:
124,152,73837,1,2,0:0:0:0:
124,152,74037,2,0,L|80:96,2,63.250001206398,2|2|2,0:0|0:0|0:0,0:0:0:0:
68,264,74837,2,0,P|132:280|192:256,1,126.500002412796,6|2,1:2|0:0,0:0:0:0:
272,356,75637,5,6,0:0:0:0:
272,356,76037,1,6,0:0:0:0:
272,356,76437,2,0,P|328:322|354:262,1,126.500002412796,6|2,1:2|0:0,0:0:0:0:
444,180,77237,2,0,L|488:236,2,63.250001206398,2|6|2,0:0|1:2|0:0,0:0:0:0:
356,88,78037,2,0,P|292:80|228:92,1,126.500002412796,6|2,1:2|1:2,0:0:0:0:
176,122,78637,1,2,1:2:0:0:
123,157,78837,6,0,P|60:167|-1:159,2,126.500002412796,6|6|6,0:0|0:0|1:2,0:0:0:0:
216,244,80037,1,2,0:0:0:0:
216,244,80237,1,2,0:0:0:0:
216,244,80437,2,0,L|172:300,2,63.250001206398,2|2|2,0:0|0:0|0:0,0:0:0:0:
296,148,81237,2,0,P|358:139|420:150,1,126.500002412796,6|2,1:2|0:0,0:0:0:0:
360,264,82037,5,6,0:0:0:0:
360,264,82437,1,6,0:0:0:0:
472,208,82837,2,0,P|480:270|469:332,1,126.500002412796,6|2,1:2|0:0,0:0:0:0:
360,264,83637,2,0,L|316:208,2,63.250001206398,2|6|2,0:0|1:2|0:0,0:0:0:0:
240,300,84437,2,0,B|177:288|177:288|104:296,1,126.500002412796,6|2,1:2|0:0,0:0:0:0:
156,176,85237,6,0,B|94:182|94:182|31:170,2,126.500002412796,6|2|6,0:0|0:0|1:2,0:0:0:0:
260,104,86437,1,2,0:0:0:0:
260,104,86637,1,2,0:0:0:0:
260,104,86837,2,0,L|304:48,2,63.250001206398,2|2|2,0:0|0:0|0:0,0:0:0:0:
256,232,87637,2,0,P|248:296|256:360,1,126.500002412796,6|2,1:2|0:0,0:0:0:0:
356,280,88437,5,6,0:0:0:0:
356,280,88837,1,6,0:0:0:0:
356,280,89237,2,0,P|364:216|356:152,1,126.500002412796,6|2,1:2|0:0,0:0:0:0:
256,232,90037,2,0,L|188:196,3,63.250001206398,0|0|0|0,1:0|1:0|1:0|1:0,0:0:0:0:
144,232,90837,2,0,L|88:202,3,63.250001206398,0|0|0|0,1:0|1:0|1:0|1:0,0:0:0:0:
40,176,91637,1,6,0:0:0:0:
256,192,91837,12,2,94837,0:0:0:0:
