osu file format v13

[General]
AudioFilename: Kokoro no Yakusoku.mp3
AudioLeadIn: 0
PreviewTime: 65637
Countdown: 0
SampleSet: Soft
StackLeniency: 0.4
Mode: 0
LetterboxInBreaks: 0
EpilepsyWarning: 1
WidescreenStoryboard: 1

[Editor]
DistanceSpacing: 1.1
BeatDivisor: 4
GridSize: 4
TimelineZoom: 1

[Metadata]
Title:Kokoro no Yakusoku
TitleUnicode:心ノ約束
Artist:Primary
ArtistUnicode:Primary
Creator:Kinshara
Version:Hard
Source:
Tags:Rotate yuiko Kuron-Kun Kibbleru Garven yuikonnu Meis Clauson
BeatmapID:437093
BeatmapSetID:181816

[Difficulty]
HPDrainRate:6
CircleSize:4
OverallDifficulty:6
ApproachRate:7
SliderMultiplier:1.4
SliderTickRate:1

[Events]
//Background and Video events
0,0,"kny bg 3.png",0,0
//Break Periods
//Storyboard Layer 0 (Background)
//Storyboard Layer 1 (Fail)
//Storyboard Layer 2 (Pass)
//Storyboard Layer 3 (Foreground)
//Storyboard Sound Samples
//Background Colour Transformations
3,100,163,162,255

[TimingPoints]
14837,400,4,2,1,40,1,0
66037,-83.3333333333333,4,2,1,65,0,1
91637,-83.3333333333333,4,2,1,65,0,0
91737,-83.3333333333333,4,2,1,20,0,0

[Colours]
Combo1 : 234,55,55
Combo2 : 253,122,26
Combo3 : 255,166,215

[HitObjects]
400,72,14837,6,0,P|412:116|408:156,1,70,6|0,0:0|0:0,0:0:0:0:
334,140,15237,2,0,P|322:184|298:216,1,70,0|0,0:0|0:0,0:0:0:0:
232,212,15637,2,0,P|266:269|335:277,1,140,0|0,1:0|0:0,0:0:0:0:
400,236,16237,1,0,0:0:0:0:
454,290,16437,2,0,P|448:332|456:372,2,70,6|0|0,0:0|0:0|0:0,0:0:0:0:
460,136,17237,2,0,B|440:104|440:68|440:68|404:68|356:52,1,140,4|0,1:2|0:0,0:0:0:0:
296,40,17837,1,0,0:0:0:0:
268,112,18037,6,0,P|212:160|148:144,1,140,6|0,0:0|0:0,0:0:0:0:
80,120,18637,1,0,0:0:0:0:
80,120,18837,2,0,P|129:73|196:84,1,140,6|2,1:2|0:0,0:0:0:0:
152,147,19437,1,0,0:0:0:0:
152,147,19837,1,0,0:0:0:0:
97,201,20037,2,0,P|35:190|-2:119,2,140,2|6|0,0:0|1:2|0:0,0:0:0:0:
152,147,21037,1,0,0:0:0:0:
196,84,21237,6,0,P|220:48|232:12,1,70,6|0,0:0|0:0,0:0:0:0:
284,77,21637,2,0,P|322:57|351:32,1,70,0|0,0:0|0:0,0:0:0:0:
397,94,22037,2,0,P|446:144|435:215,1,140,6|0,1:2|0:0,0:0:0:0:
372,168,22637,1,0,0:0:0:0:
372,168,22837,2,0,P|371:248|428:286,1,140,6|0,0:0|0:0,0:0:0:0:
452,132,23637,2,0,P|402:86|329:93,1,140,6|0,1:2|0:0,0:0:0:0:
268,132,24237,1,0,0:0:0:0:
192,152,24437,6,0,B|205:191|239:205|239:205|196:264,1,140,6|0,0:0|0:0,0:0:0:0:
248,320,25037,1,0,0:0:0:0:
248,320,25237,2,0,P|179:335|125:281,1,140,6|2,1:2|0:0,0:0:0:0:
276,240,26037,2,0,P|310:258|330:305,2,70,0|0|4,0:0|1:0|0:3,0:0:0:0:
140,168,26837,2,0,P|124:104|192:120,1,140,6|4,1:2|0:3,0:0:0:0:
257,101,27437,1,4,0:3:0:0:
334,101,27637,6,0,P|394:110|374:168,1,140,6|0,0:0|0:0,0:0:0:0:
319,222,28237,1,0,0:0:0:0:
392,243,28437,2,0,P|456:204|476:128,1,140,6|0,1:2|0:0,0:0:0:0:
476,67,29037,1,0,0:0:0:0:
400,88,29237,2,0,P|404:40|424:8,2,70,6|0|0,0:0|0:0|0:0,0:0:0:0:
392,244,30037,2,0,P|360:308|288:320,1,140,6|0,1:2|0:0,0:0:0:0:
239,274,30637,1,0,0:0:0:0:
194,210,30837,6,0,P|261:199|312:244,1,140,6|0,0:0|0:0,0:0:0:0:
239,274,31437,1,0,0:0:0:0:
238,274,31637,2,0,P|172:285|124:238,2,140,6|2|0,1:2|0:0|0:0,0:0:0:0:
194,210,32637,1,0,0:0:0:0:
194,210,32837,2,0,P|200:160|216:120,1,70,2|0,0:0|0:0,0:0:0:0:
283,141,33237,2,0,P|313:100|347:74,1,70,6|0,1:2|0:0,0:0:0:0:
382,142,33637,2,0,P|406:117|426:88,1,70,0|0,0:0|0:0,0:0:0:0:
420,12,34037,6,0,P|478:30|500:112,1,140,6|0,0:0|0:0,0:0:0:0:
426,87,34637,1,0,0:0:0:0:
352,64,34837,2,0,B|280:44|212:60,1,140,6|0,1:2|0:0,0:0:0:0:
136,72,35437,1,0,0:0:0:0:
81,126,35637,2,0,P|76:168|80:204,1,70,6|0,0:0|0:0,0:0:0:0:
155,195,36037,2,0,P|160:237|156:273,1,70,0|0,0:0|0:0,0:0:0:0:
96,312,36437,2,0,P|160:344|216:316,1,140,6|0,1:2|0:0,0:0:0:0:
324,204,37237,6,0,P|388:192|384:268,1,140,6|0,0:0|0:0,0:0:0:0:
329,281,37837,1,0,0:0:0:0:
260,244,38037,2,0,P|254:178|304:129,2,140,0|6|0,1:0|0:0|0:0,0:0:0:0:
324,204,39037,1,0,1:0:0:0:
324,204,39237,2,0,P|359:188|374:137,1,70,0|0,0:0|0:0,0:0:0:0:
372,84,39637,1,6,1:2:0:0:
304,48,39837,1,0,1:0:0:0:
232,76,40037,1,4,0:3:0:0:
232,76,40237,1,4,0:3:0:0:
204,148,40437,6,0,B|155:124|156:72|156:72|100:48,1,140,6|0,0:0|0:0,0:0:0:0:
40,32,41037,1,0,0:0:0:0:
40,109,41237,2,0,B|88:132|88:132|112:216,1,140,6|0,1:2|0:0,0:0:0:0:
132,288,41837,1,0,0:0:0:0:
200,323,42037,2,0,B|184:360|137:366,2,70,6|0|0,0:0|0:0|0:0,0:0:0:0:
283,193,42837,2,0,P|349:162|414:197,1,140,6|0,1:2|0:0,0:0:0:0:
323,317,43637,6,0,P|262:348|200:323,1,140,6|0,0:0|0:0,0:0:0:0:
259,271,44237,1,0,0:0:0:0:
259,271,44437,2,0,P|196:245|135:276,1,140,6|0,1:2|0:0,0:0:0:0:
81,331,45037,1,0,0:0:0:0:
60,256,45237,2,0,P|56:216|60:172,2,70,2|0|2,0:0|1:0|0:0,0:0:0:0:
136,276,45837,1,2,0:0:0:0:
199,323,46037,1,6,1:2:0:0:
199,323,46237,1,0,1:0:0:0:
259,270,46437,1,4,0:3:0:0:
259,270,46637,1,4,0:3:0:0:
300,334,46837,6,0,P|335:277|304:208,1,140,6|0,0:0|0:0,0:0:0:0:
256,157,47437,1,0,0:0:0:0:
179,167,47637,2,0,P|205:100|284:84,1,140,6|0,1:2|0:0,0:0:0:0:
342,80,48237,1,0,0:0:0:0:
419,80,48437,2,0,P|459:78|494:81,2,70,6|2|0,0:0|0:0|0:0,0:0:0:0:
381,147,49037,1,2,0:0:0:0:
326,201,49237,2,0,B|360:227|395:221|395:221|410:281|382:313,1,140,6|0,1:2|0:0,0:0:0:0:
252,232,50037,6,0,P|256:164|315:122,1,140,6|0,0:0|0:0,0:0:0:0:
364,68,50637,1,0,0:0:0:0:
292,40,50837,2,0,P|220:32|140:42,1,140,6|0,1:2|0:0,0:0:0:0:
98,93,51437,1,0,0:0:0:0:
98,93,51637,2,0,P|78:57|90:-1,2,70,2|0|2,0:0|1:0|0:0,0:0:0:0:
98,170,52237,2,0,L|72:196,2,35,2|2|6,0:0|0:0|1:2,0:0:0:0:
175,170,52637,2,0,B|216:170|216:170|252:206,2,70,2|4|4,1:2|0:3|0:3,0:0:0:0:
184,248,53237,6,0,P|257:268|306:228,1,140,6|0,0:0|0:0,0:0:0:0:
304,156,53837,1,0,0:0:0:0:
236,190,54037,2,0,P|234:125|292:80,1,140,6|0,1:2|0:0,0:0:0:0:
365,80,54637,1,0,0:0:0:0:
442,80,54837,2,0,P|444:36|440:8,2,70,6|2|2,0:0|0:0|0:0,0:0:0:0:
442,234,55637,2,0,B|432:272|448:304|448:304|408:296|384:320,1,140,6|0,1:2|0:0,0:0:0:0:
230,319,56437,6,0,P|267:252|339:249,1,140,6|0,0:0|0:0,0:0:0:0:
306,318,57037,1,0,0:0:0:0:
306,318,57237,2,0,L|224:200,1,140,6|0,1:2|0:0,0:0:0:0:
184,140,57837,1,0,0:0:0:0:
107,140,58037,2,0,P|121:93|164:68,2,70,2|0|2,0:0|1:0|0:0,0:0:0:0:
107,294,58837,1,6,1:2:0:0:
107,294,59037,1,2,1:2:0:0:
172,332,59237,1,6,0:3:0:0:
172,332,59437,1,6,0:3:0:0:
249,332,59637,6,0,B|289:340|316:316|316:316|344:340|380:332,1,140,6|0,0:0|0:0,0:0:0:0:
431,280,60237,1,0,0:0:0:0:
485,334,60437,2,0,B|513:266|513:266|462:206,1,140,6|0,1:2|0:0,0:0:0:0:
416,160,61037,1,0,0:0:0:0:
480,116,61237,2,0,P|416:84|352:117,1,140,0|0,0:0|0:0,0:0:0:0:
248,219,62037,2,0,P|312:251|376:218,1,140,6|0,1:2|0:0,0:0:0:0:
261,115,62837,6,0,P|197:83|133:116,1,140,6|0,0:0|0:0,0:0:0:0:
29,218,63637,1,2,0:0:0:0:
29,218,64037,1,2,0:0:0:0:
29,218,64437,1,2,0:0:0:0:
29,218,64837,1,2,0:0:0:0:
137,326,65237,5,0,1:0:0:0:
204,288,65437,1,0,1:0:0:0:
268,332,65637,1,0,1:0:0:0:
332,288,65837,1,0,1:0:0:0:
331,208,66037,6,0,P|302:140|365:58,2,167.999994873047,6|2|6,0:0|0:0|1:2,0:0:0:0:
398,145,67037,1,0,0:0:0:0:
398,145,67237,2,0,L|487:145,2,83.9999974365235,2|2|2,0:0|0:0|0:0,0:0:0:0:
347,65,67837,1,2,0:0:0:0:
347,65,68037,2,0,P|259:58|175:66,2,167.999994873047,2|6|2,0:0|1:2|0:0,0:0:0:0:
398,145,69037,1,2,0:0:0:0:
320,192,69237,6,0,B|296:216|296:216|296:288,1,83.9999974365235,6|2,0:0|0:0,0:0:0:0:
240,340,69637,2,0,B|216:316|216:316|216:265,1,83.9999974365235,6|2,0:0|0:0,0:0:0:0:
160,192,70037,2,0,B|136:216|136:216|136:266,1,83.9999974365235,6|2,1:2|0:0,0:0:0:0:
70,331,70437,1,2,0:0:0:0:
70,331,70637,1,2,0:0:0:0:
4,265,70837,2,0,L|4:172,2,83.9999974365235,2|6|2,0:0|1:2|0:0,0:0:0:0:
134,134,71637,2,0,P|176:58|252:48,1,167.999994873047,6|2,1:2|0:0,0:0:0:0:
224,136,72237,1,2,1:2:0:0:
292,196,72437,6,0,B|320:164|314:116|314:116|353:103|353:103|376:68|376:68,2,167.999994873047,6|6|6,0:0|0:0|1:2,0:0:0:0:
160,327,73637,2,0,B|116:340|56:324,2,83.9999974365235,2|2|2,0:0|0:0|0:0,0:0:0:0:
225,261,74237,1,0,0:0:0:0:
276,340,74437,2,0,B|321:304|318:254|318:254|380:216,1,167.999994873047,2|6,0:0|1:2,0:0:0:0:
464,245,75037,1,2,0:0:0:0:
445,154,75237,1,2,0:0:0:0:
356,126,75437,1,2,0:0:0:0:
290,60,75637,6,0,P|268:96|270:158,1,83.9999974365235,6|2,0:0|0:0,0:0:0:0:
171,136,76037,2,0,P|180:177|226:219,1,83.9999974365235,6|2,0:0|0:0,0:0:0:0:
141,274,76437,2,0,P|177:296|239:294,1,83.9999974365235,6|2,1:2|0:0,0:0:0:0:
310,299,76837,1,2,0:0:0:0:
310,299,77037,1,2,0:0:0:0:
388,252,77237,2,0,P|401:302|388:347,2,83.9999974365235,2|6|2,0:0|1:2|0:0,0:0:0:0:
257,120,78037,2,0,B|208:120|181:150|181:150|152:117|99:120,1,167.999994873047,6|2,1:2|1:2,0:0:0:0:
112,212,78637,1,2,1:2:0:0:
112,212,78837,6,0,P|36:176|20:96,2,167.999994873047,6|6|6,0:0|0:0|1:2,0:0:0:0:
280,288,80037,2,0,L|364:288,2,83.9999974365235,2|2|2,0:0|0:0|0:0,0:0:0:0:
214,353,80637,1,2,0:0:0:0:
214,353,80837,2,0,P|192:264|239:206,1,167.999994873047,2|6,0:0|1:2,0:0:0:0:
419,208,81637,1,2,0:0:0:0:
419,208,81837,1,2,0:0:0:0:
419,115,82037,6,0,L|336:115,1,83.9999974365235,6|2,0:0|0:0,0:0:0:0:
292,32,82437,2,0,L|384:32,1,83.9999974365235,6|2,0:0|0:0,0:0:0:0:
335,115,82837,2,0,L|247:115,1,83.9999974365235,6|0,1:2|0:0,0:0:0:0:
158,115,83237,1,2,0:0:0:0:
158,115,83437,1,2,0:0:0:0:
74,153,83637,2,0,B|66:109|66:109|78:69,2,83.9999974365235,2|6|2,0:0|1:2|0:0,0:0:0:0:
220,40,84437,2,0,P|257:108|222:189,1,167.999994873047,6|2,1:2|0:0,0:0:0:0:
158,115,85037,1,2,0:0:0:0:
158,115,85237,6,0,P|121:183|156:264,2,167.999994873047,6|2|6,0:0|0:0|1:2,0:0:0:0:
324,192,86437,2,0,P|376:196|428:192,1,83.9999974365235,0|2,0:0|0:0,0:0:0:0:
492,156,86837,2,0,P|500:208|468:263,2,83.9999974365235,2|2|2,0:0|0:0|0:0,0:0:0:0:
328,76,87637,2,0,B|244:68|244:68|160:76,1,167.999994873047,6|2,1:2|0:0,0:0:0:0:
160,260,88437,6,0,L|98:322,1,83.9999974365235,6|2,0:0|0:0,0:0:0:0:
236,276,88837,2,0,L|236:363,1,83.9999974365235,6|0,0:0|0:0,0:0:0:0:
312,264,89237,2,0,L|374:325,1,83.9999974365235,6|2,1:2|0:0,0:0:0:0:
388,232,89637,2,0,P|352:192|292:188,1,83.9999974365235,2|2,0:0|0:0,0:0:0:0:
232,172,90037,5,0,1:0:0:0:
288,100,90237,1,0,1:0:0:0:
236,24,90437,1,0,1:0:0:0:
148,48,90637,1,0,1:0:0:0:
140,140,90837,5,0,1:0:0:0:
158,230,91037,1,0,1:0:0:0:
81,281,91237,1,0,1:0:0:0:
16,216,91437,1,0,1:0:0:0:
48,128,91637,5,6,0:0:0:0:
256,192,91737,12,2,94837,0:0:0:0:
