osu file format v14

[General]
AudioFilename: optc.mp3
AudioLeadIn: 2000
PreviewTime: 142960
Countdown: 0
SampleSet: Soft
StackLeniency: 0.9
Mode: 0
LetterboxInBreaks: 0
WidescreenStoryboard: 1

[Editor]
Bookmarks: 1420,9100,24460,35980,51340,59020,66700,74380,85900,101260,108940,116620,131980,143500,158860,174220,182380
DistanceSpacing: 1.3
BeatDivisor: 4
GridSize: 32
TimelineZoom: 3.100004

[Metadata]
Title:Inai Sekai
TitleUnicode:イナイセカイ
Artist:Primary
ArtistUnicode:Primary
Creator:Shad0w1and
Version:Kimi ni Todoku Ka Na?
Source:
Tags:yuikonnu yuiko Aster tataricus Meis Clauson Misure Kibbleru TT Mouse ShallICompareThee
BeatmapID:851255
BeatmapSetID:390619

[Difficulty]
HPDrainRate:5
CircleSize:4.2
OverallDifficulty:9.2
ApproachRate:9.8
SliderMultiplier:1.6
SliderTickRate:1

[Events]
//Background and Video events
0,0,"BG.png",0,0
//Break Periods
2,132180,139181
//Storyboard Layer 0 (Background)
//Storyboard Layer 1 (Fail)
//Storyboard Layer 2 (Pass)
//Storyboard Layer 3 (Foreground)
//Storyboard Sound Samples

[TimingPoints]
1420,240,4,2,1,100,1,0
8200,-100,4,2,1,5,0,0
8260,-100,4,2,1,100,0,0
9100,-125,4,2,1,80,0,0
24460,-153.846153846154,4,2,1,80,0,0
32860,-133.333333333333,4,2,1,80,0,0
33040,-153.846153846154,4,2,1,5,0,0
33100,-153.846153846154,4,2,1,80,0,0
35920,-153.846153846154,4,2,1,5,0,0
35980,-90.9090909090909,4,2,1,100,0,1
37360,-90.9090909090909,4,2,1,5,0,1
37420,-90.9090909090909,4,2,1,100,0,1
46960,-90.9090909090909,4,2,1,5,0,1
47020,-90.9090909090909,4,2,1,100,0,1
48880,-90.9090909090909,4,2,1,5,0,1
48940,-90.9090909090909,4,2,1,100,0,1
49360,-90.9090909090909,4,2,1,5,0,1
49420,-90.9090909090909,4,2,1,100,0,1
51340,-100,4,2,1,100,0,0
58120,-100,4,2,1,5,0,0
58180,-100,4,2,1,100,0,0
58960,-100,4,2,1,5,0,0
59020,-153.846153846154,4,2,1,60,0,0
66700,-125,4,2,1,80,0,0
74380,-153.846153846154,4,2,1,80,0,0
85900,-90.9090909090909,4,2,1,100,0,1
87280,-90.9090909090909,4,2,1,5,0,1
87340,-90.9090909090909,4,2,1,100,0,1
96880,-90.9090909090909,4,2,1,5,0,1
96940,-90.9090909090909,4,2,1,100,0,1
98800,-90.9090909090909,4,2,1,5,0,1
98860,-90.9090909090909,4,2,1,100,0,1
99280,-90.9090909090909,4,2,1,5,0,1
99340,-90.9090909090909,4,2,1,100,0,1
101260,-153.846153846154,4,2,1,60,0,0
108940,-153.846153846154,4,2,1,80,0,0
116620,-90.9090909090909,4,2,1,100,0,1
118060,-100,4,2,1,100,0,1
118300,-90.9090909090909,4,2,1,100,0,1
125020,-90.9090909090909,4,2,1,70,0,1
125500,-90.9090909090909,4,2,1,80,0,1
125980,-90.9090909090909,4,2,1,90,0,1
126460,-90.9090909090909,4,2,1,100,0,1
127840,-90.9090909090909,4,2,1,5,0,1
127900,-90.9090909090909,4,2,1,100,0,1
128440,-90.9090909090909,4,2,1,5,0,1
128500,-90.9090909090909,4,2,1,100,0,1
130060,-133.333333333333,4,2,1,60,0,0
143440,-133.333333333333,4,2,1,5,0,0
143500,-90.9090909090909,4,2,1,100,0,1
144880,-90.9090909090909,4,2,1,5,0,1
144940,-90.9090909090909,4,2,1,100,0,1
154480,-90.9090909090909,4,2,1,5,0,1
154540,-90.9090909090909,4,2,1,100,0,1
156400,-90.9090909090909,4,2,1,5,0,1
156460,-90.9090909090909,4,2,1,100,0,1
156880,-90.9090909090909,4,2,1,5,0,1
156940,-90.9090909090909,4,2,1,100,0,1
157660,-100,4,2,1,100,0,0
158800,-83.3333333333333,4,2,1,5,0,0
158860,-83.3333333333333,4,2,1,100,0,1
160240,-83.3333333333333,4,2,1,5,0,1
160300,-83.3333333333333,4,2,1,100,0,1
169840,-83.3333333333333,4,2,1,5,0,1
169900,-83.3333333333333,4,2,1,100,0,1
171760,-83.3333333333333,4,2,1,5,0,1
171820,-71.4285714285714,4,2,1,100,0,1
172240,-71.4285714285714,4,2,1,5,0,1
172300,-83.3333333333333,4,2,1,100,0,1
174220,-100,4,2,1,100,0,0
181000,-100,4,2,1,5,0,0
181060,-100,4,2,1,100,0,0
181900,-200,4,2,1,100,0,0
182320,-100,4,2,1,5,0,0
182380,-100,4,2,1,100,0,0

[Colours]
Combo1 : 255,219,111
Combo2 : 252,33,33
Combo3 : 243,153,80
Combo4 : 149,143,171

[HitObjects]
54,124,1420,6,0,B|64:213,2,80,14|0|4,0:0|0:0|0:0,0:0:0:0:
147,34,1780,1,0,0:0:0:0:
194,144,1900,2,0,L|286:140,1,80,8|0,0:0|0:0,0:0:0:0:
362,59,2140,1,4,0:0:0:0:
456,137,2260,6,0,L|447:236,1,80,10|0,0:0|0:0,0:0:0:0:
333,248,2500,1,0,0:0:0:0:
333,248,2620,2,0,L|321:169,1,80,4|0,0:0|0:0,0:0:0:0:
212,219,2860,2,0,L|206:307,1,80,8|0,0:0|0:0,0:0:0:0:
86,305,3100,1,4,0:0:0:0:
2,188,3220,1,4,0:0:0:0:
2,188,3280,1,4,0:0:0:0:
2,188,3340,6,0,L|86:181,1,80,14|0,0:0|0:0,0:0:0:0:
201,169,3580,1,4,0:0:0:0:
130,70,3700,1,0,0:0:0:0:
81,181,3820,2,0,P|82:223|99:270,1,80,8|0,0:0|0:0,0:0:0:0:
185,323,4060,1,4,0:0:0:0:
207,198,4180,6,0,P|254:196|391:206,1,160,10|0,0:0|0:0,0:0:0:0:
276,298,4540,1,4,0:0:0:0:
216,160,4660,1,0,0:0:0:0:
93,258,4780,2,0,L|14:245,1,80,8|0,0:0|0:0,0:0:0:0:
60,119,5020,2,0,L|150:135,1,80,4|0,0:0|0:0,0:0:0:0:
297,95,5260,6,0,L|383:75,2,80,14|0|4,0:0|0:0|0:0,0:0:0:0:
188,68,5620,1,0,0:0:0:0:
211,177,5740,1,8,0:0:0:0:
75,212,5860,1,4,0:0:0:0:
75,212,5920,1,4,0:0:0:0:
75,212,5980,1,4,0:0:0:0:
172,335,6100,6,0,L|356:315,1,160,10|0,0:0|0:0,0:0:0:0:
485,367,6460,1,4,0:0:0:0:
371,315,6580,1,4,0:0:0:0:
464,228,6700,2,0,P|478:176|469:127,1,80,8|0,0:0|0:0,0:0:0:0:
401,45,6940,1,8,0:0:0:0:
283,93,7060,1,4,0:0:0:0:
283,93,7120,1,4,0:0:0:0:
283,93,7180,1,14,0:0:0:0:
370,170,7300,6,0,P|285:164|206:173,1,160,4|0,0:0|0:0,0:0:0:0:
83,233,7660,1,8,0:0:0:0:
236,247,7780,1,4,0:0:0:0:
128,114,7900,1,8,0:0:0:0:
274,132,8020,2,0,P|326:132|401:68,1,120,10|0,0:0|0:0,0:0:0:0:
432,25,8260,5,4,0:0:0:0:
386,206,8380,1,4,0:0:0:0:
512,325,8500,1,4,0:0:0:0:
495,208,8620,1,12,0:0:0:0:
388,350,8740,1,4,0:0:0:0:
259,262,8860,2,4,L|169:262,1,80,8|4,0:0|0:0,0:0:0:0:
59,128,9100,6,0,P|121:137|203:101,1,128,12|0,0:1|0:0,0:0:0:0:
281,55,9460,1,0,0:0:0:0:
207,232,9580,2,0,L|120:232,1,64,8|0,0:0|0:0,0:0:0:0:
115,355,9820,2,0,L|199:343,1,64
304,307,10060,6,0,P|323:263|310:172,2,128,2|0|8,0:0|0:0|0:0,0:0:0:0:
477,184,10780,2,0,L|461:100,1,64,0|0,0:0|0:0,0:0:0:0:
263,197,11020,6,0,P|329:212|396:190,1,128,2|0,0:0|0:0,0:0:0:0:
459,94,11380,1,0,0:0:0:0:
459,94,11500,1,8,0:0:0:0:
375,314,11740,2,0,B|352:306|352:306|291:310,1,64,0|0,0:0|0:0,0:0:0:0:
173,370,11980,6,0,P|140:384|95:377,2,64,2|0|0,0:0|0:0|0:0,0:0:0:0:
216,277,12340,1,0,0:0:0:0:
95,233,12460,2,0,B|114:260|114:260|121:291,1,64,8|0,0:0|0:0,0:0:0:0:
85,140,12700,2,0,B|117:141|117:141|147:155,1,64,0|0,0:0|0:0,0:0:0:0:
36,42,12940,6,0,P|95:52|180:42,1,128,2|0,0:0|0:0,0:0:0:0:
257,7,13300,1,0,0:0:0:0:
350,59,13420,2,0,L|374:147,1,64,8|0,0:0|0:0,0:0:0:0:
307,203,13660,1,0,0:0:0:0:
307,203,13780,1,0,0:0:0:0:
197,188,13900,6,0,P|210:263|187:328,2,128,2|0|8,0:0|0:0|0:0,0:0:0:0:
339,335,14620,2,0,P|366:332|406:322,1,64,0|0,0:0|0:0,0:0:0:0:
493,275,14860,6,0,L|364:275,1,128,2|0,0:0|0:0,0:0:0:0:
282,198,15220,1,0,0:0:0:0:
219,296,15340,2,0,L|134:290,1,64,8|0,0:0|0:0,0:0:0:0:
40,278,15580,2,0,L|52:214,1,64
87,99,15820,5,2,0:0:0:0:
87,99,15940,1,0,0:0:0:0:
210,134,16060,2,0,P|205:170|197:196,1,64
311,282,16300,2,0,P|315:247|327:209,1,64,8|0,0:0|0:0,0:0:0:0:
448,278,16540,1,0,0:0:0:0:
448,278,16780,6,0,P|456:221|462:143,1,128,6|0,0:0|0:0,0:0:0:0:
394,53,17140,1,0,0:0:0:0:
340,171,17260,2,0,P|308:171|273:167,1,64,8|0,0:0|0:0,0:0:0:0:
160,105,17500,1,0,0:0:0:0:
237,263,17620,1,0,0:0:0:0:
110,339,17740,6,0,L|120:197,1,128,2|0,0:0|0:0,0:0:0:0:
398,112,18220,2,0,L|388:240,1,128,8|0,0:0|0:0,0:0:0:0:
220,32,18700,6,0,P|154:23|92:24,1,128,2|0,0:0|0:0,0:0:0:0:
239,129,19060,1,0,0:0:0:0:
322,188,19180,2,0,L|394:180,1,64,8|0,0:0|0:0,0:0:0:0:
414,305,19420,2,0,L|334:294,1,64,0|0,0:0|0:0,0:0:0:0:
256,253,19660,5,2,0:0:0:0:
180,322,19780,2,0,P|117:326|53:279,1,128
34,129,20140,2,0,L|35:210,1,64,8|0,0:0|0:0,0:0:0:0:
142,225,20380,2,0,L|141:141,1,64
114,45,20620,6,0,B|157:58|157:58|262:49,1,128,2|0,0:0|0:0,0:0:0:0:
240,50,20980,1,0,0:0:0:0:
140,162,21100,2,0,P|124:235|149:290,1,128,8|0,0:0|0:0,0:0:0:0:
225,220,21460,1,0,0:0:0:0:
225,220,21580,6,0,B|267:205|267:205|368:216,2,128,2|0|8,0:0|0:0|0:0,0:0:0:0:
498,350,22300,1,0,0:0:0:0:
498,350,22420,1,0,0:0:0:0:
498,350,22540,6,0,P|513:289|504:213,1,128,2|0,0:0|0:0,0:0:0:0:
451,135,22900,1,0,0:0:0:0:
365,77,23020,2,0,L|364:11,1,64,8|0,0:0|0:0,0:0:0:0:
451,135,23260,1,0,0:0:0:0:
289,130,23380,6,0,P|238:111|161:133,1,128,2|4,0:0|0:0,0:0:0:0:
106,246,23740,1,4,0:0:0:0:
228,219,23860,1,4,0:0:0:0:
172,132,23980,1,12,0:0:0:0:
172,320,24100,5,4,0:0:0:0:
308,239,24220,1,4,0:0:0:0:
106,246,24340,1,4,0:0:0:0:
233,365,24460,6,0,B|209:316|209:316|239:275|225:208,2,155.999992858887,4|0|0,0:1|0:0|0:0,0:0:0:0:
384,208,25420,2,0,P|375:162|328:112,1,103.999995239258,2|0,0:0|0:0,0:0:0:0:
227,218,25780,2,0,L|300:200,1,51.999997619629,0|8,0:0|0:0,0:0:0:0:
128,327,26140,6,0,B|94:316|94:316|24:324,2,103.999995239258,0|2|0,0:0|0:0|0:0,0:0:0:0:
58,242,26740,2,0,P|44:192|68:135,1,103.999995239258,0|0,0:0|0:0,0:0:0:0:
126,196,27100,2,0,P|177:213|232:189,2,103.999995239258,0|2|0,0:0|0:0|0:0,0:0:0:0:
176,130,27700,1,0,0:0:0:0:
176,130,27820,2,0,B|190:93|190:93|181:28,1,103.999995239258,8|0,0:0|0:0,0:0:0:0:
386,78,28300,6,0,L|402:192,1,103.999995239258,4|0,0:1|0:0,0:0:0:0:
317,191,28660,1,0,0:0:0:0:
348,113,28780,2,0,P|392:97|460:121,2,103.999995239258,0|0|2,0:0|0:0|0:0,0:0:0:0:
300,315,29500,1,0,0:0:0:0:
300,315,29620,1,0,0:0:0:0:
399,284,29740,2,0,L|400:176,1,103.999995239258,8|0,0:0|0:0,0:0:0:0:
104,232,30220,6,0,P|52:241|0:225,1,103.999995239258,4|0,0:1|0:0,0:0:0:0:
60,140,30580,1,0,0:0:0:0:
144,312,30700,2,0,B|176:328|176:328|260:320,2,103.999995239258,8|0|2,0:0|0:0|0:0,0:0:0:0:
192,244,31300,1,0,0:0:0:0:
251,185,31420,2,0,L|256:120,1,51.999997619629,0|0,0:0|0:0,0:0:0:0:
321,234,31660,2,0,L|319:304,1,51.999997619629,8|0,0:0|0:0,0:0:0:0:
192,244,31900,2,0,L|178:190,1,51.999997619629,4|0,0:0|0:0,0:0:0:0:
317,112,32140,6,0,P|369:125|431:108,1,103.999995239258,4|0,0:1|0:0,0:0:0:0:
498,96,32500,2,0,L|490:150,1,51.999997619629
421,326,32860,2,0,L|311:303,1,90.0000034332277,8|0,0:0|0:0,0:0:0:0:
278,202,33100,5,2,0:0:0:0:
317,301,33220,1,0,0:0:0:0:
229,357,33340,1,0,0:0:0:0:
146,293,33460,1,0,0:0:0:0:
173,192,33580,2,0,L|159:126,1,51.999997619629,8|0,0:0|0:0,0:0:0:0:
278,202,33820,2,0,L|273:259,1,51.999997619629,0|0,0:0|0:0,0:0:0:0:
266,93,34060,5,6,0:0:0:0:
376,166,34180,1,4,0:0:0:0:
459,65,34300,2,0,L|443:-1,1,51.999997619629,4|4,0:0|0:0,0:0:0:0:
265,125,34540,5,4,0:0:0:0:
376,166,34660,1,4,0:0:0:0:
307,40,34780,1,4,0:0:0:0:
164,70,34900,2,0,L|166:121,1,51.999997619629,4|0,0:0|0:0,0:0:0:0:
90,298,35500,6,0,B|60:235|99:180|99:180|41:207,1,181.999991668702,0|0,0:0|0:0,0:0:0:0:
179,248,35980,6,0,B|243:251|243:251|288:231|288:231|356:236,1,176.000005371094,4|8,0:1|0:0,0:0:0:0:
438,378,36340,1,0,0:0:0:0:
302,339,36460,1,2,0:0:0:0:
279,199,36580,1,0,0:0:0:0:
470,200,36700,1,8,0:0:0:0:
350,235,36820,6,0,B|334:183|355:143|355:143|342:106|342:106|352:50,1,176.000005371094,2|0,0:0|0:0,0:0:0:0:
192,166,37180,2,0,P|121:161|68:116,1,132.00000402832,8|0,0:0|0:0,0:0:0:0:
43,61,37420,5,2,0:0:0:0:
178,22,37540,1,0,0:0:0:0:
121,197,37660,2,0,P|151:231|193:242,1,88.000002685547,8|0,0:0|0:0,0:0:0:0:
285,67,37900,6,0,P|359:34|457:88,1,176.000005371094,2|8,0:0|0:0,0:0:0:0:
474,205,38260,1,0,0:0:0:0:
386,350,38380,2,0,B|367:317|367:317|366:248,1,88.000002685547,2|0,0:0|0:0,0:0:0:0:
365,148,38620,1,8,0:0:0:0:
240,281,38740,6,0,B|121:307|121:307|56:284,1,176.000005371094,2|0,0:0|0:0,0:0:0:0:
126,182,39100,1,8,0:0:0:0:
210,329,39220,1,0,0:0:0:0:
290,192,39340,5,2,0:0:0:0:
276,37,39460,1,0,0:0:0:0:
186,152,39580,1,8,0:0:0:0:
372,135,39700,1,0,0:0:0:0:
284,282,39820,6,0,B|277:220|277:220|299:169|299:169|290:82,2,176.000005371094,2|8|2,0:0|0:0|0:0,0:0:0:0:
396,243,40420,1,0,0:0:0:0:
396,243,40540,1,8,0:0:0:0:
193,113,40660,6,0,P|113:128|58:214,1,176.000005371094,2|0,0:0|0:0,0:0:0:0:
306,278,41020,2,0,L|287:178,1,88.000002685547,8|0,0:0|0:0,0:0:0:0:
179,234,41260,2,0,L|200:344,1,88.000002685547,2|0,0:0|0:0,0:0:0:0:
77,287,41500,2,0,L|60:200,1,88.000002685547,8|0,0:0|0:0,0:0:0:0:
140,59,41740,5,6,0:0:0:0:
280,225,41860,1,4,0:0:0:0:
280,225,41980,1,12,0:0:0:0:
284,52,42100,5,6,0:0:0:0:
179,234,42220,1,4,0:0:0:0:
96,99,42340,1,4,0:0:0:0:
271,137,42460,1,14,0:0:0:0:
256,358,42580,6,0,B|194:333|194:333|44:349,1,176.000005371094,6|0,0:0|0:0,0:0:0:0:
0,217,42940,2,0,B|116:205,1,88.000002685547,8|0,0:0|0:0,0:0:0:0:
300,101,43180,5,4,0:0:0:0:
218,269,43300,1,4,0:0:0:0:
169,104,43420,1,12,0:0:0:0:
339,222,43540,1,4,0:0:0:0:
87,207,43660,6,0,B|64:163|64:163|77:126|66:89|66:89|103:37,1,176.000005371094,4|8,0:1|0:0,0:0:0:0:
246,1,44020,1,0,0:0:0:0:
291,189,44140,1,2,0:0:0:0:
360,42,44260,1,0,0:0:0:0:
162,89,44380,1,8,0:0:0:0:
309,260,44500,6,0,B|429:246|429:246|495:278,1,176.000005371094,2|0,0:0|0:0,0:0:0:0:
332,124,44860,2,0,P|332:82|342:27,1,88.000002685547,8|0,0:0|0:0,0:0:0:0:
188,38,45100,2,0,P|191:82|191:135,1,88.000002685547,2|0,0:0|0:0,0:0:0:0:
48,134,45340,2,0,P|43:92|43:41,1,88.000002685547,8|0,0:0|0:0,0:0:0:0:
68,272,45580,6,0,P|154:243|244:291,1,176.000005371094,2|8,0:0|0:0,0:0:0:0:
332,344,45940,1,0,0:0:0:0:
424,264,46060,2,8,B|456:276|456:276|521:261,2,88.000002685547,2|0|8,0:0|0:0|0:0,0:0:0:0:
397,143,46420,6,0,P|368:80|286:137,1,176.000005371094,2|0,0:0|0:0,0:0:0:0:
205,236,46780,2,0,P|126:227|77:169,1,132.00000402832,8|0,0:0|0:0,0:0:0:0:
35,107,47020,5,2,0:0:0:0:
68,300,47140,1,0,0:0:0:0:
176,133,47260,1,8,0:0:0:0:
215,333,47380,1,0,0:0:0:0:
335,180,47500,6,0,B|406:165|465:196|465:196|426:210,1,176.000005371094,2|8,0:0|0:0,0:0:0:0:
279,90,47860,1,0,0:0:0:0:
428,81,47980,1,2,0:0:0:0:
284,236,48100,2,0,P|244:233|188:205,1,88.000002685547,0|8,0:0|0:0,0:0:0:0:
148,25,48340,6,0,B|128:73|130:104|142:143|142:143|90:122,1,176.000005371094,2|0,0:0|0:0,0:0:0:0:
279,90,48700,2,0,B|323:79|323:79|366:102|407:82,1,132.00000402832,8|0,0:0|0:0,0:0:0:0:
370,7,48940,5,2,0:0:0:0:
392,202,49060,1,0,0:0:0:0:
200,214,49180,2,0,B|188:127|188:127|212:79,1,132.00000402832,8|0,0:0|0:0,0:0:0:0:
251,11,49420,5,14,0:0:0:0:
392,202,49540,1,4,0:0:0:0:
392,202,49660,1,4,0:0:0:0:
373,49,49780,5,14,0:0:0:0:
200,214,49900,1,4,0:0:0:0:
200,214,50020,1,4,0:0:0:0:
213,30,50140,5,14,0:0:0:0:
358,238,50260,1,4,0:0:0:0:
373,49,50380,1,4,0:0:0:0:
177,229,50500,5,12,0:0:0:0:
257,20,50620,1,12,0:0:0:0:
334,211,50740,1,4,0:0:0:0:
118,65,50860,6,0,B|83:66|83:66|13:100,1,88.000002685547,14|0,0:0|0:0,0:0:0:0:
33,256,51100,2,0,B|68:256|68:256|137:220,1,88.000002685547,8|0,0:0|0:0,0:0:0:0:
329,93,51340,5,6,0:0:0:0:
401,224,51460,2,0,P|321:246|246:214,1,160,4|0,0:0|0:0,0:0:0:0:
191,84,51820,1,10,0:0:0:0:
329,93,51940,1,0,0:0:0:0:
251,218,52060,1,4,0:0:0:0:
191,84,52180,6,0,B|236:66|236:66|351:69,2,160,6|0|0,0:0|0:0|0:0,0:0:0:0:
436,153,52780,2,0,P|466:80|444:0,1,160,8|0,0:0|0:0,0:0:0:0:
347,68,53140,1,0,0:0:0:0:
347,68,53260,5,6,0:0:0:0:
314,187,53380,2,0,B|249:183|249:183|213:196|213:196|152:192,1,160,4|0,0:0|0:0,0:0:0:0:
60,90,53740,1,8,0:0:0:0:
189,92,53860,1,0,0:0:0:0:
41,196,53980,1,4,0:0:0:0:
17,24,54100,6,0,B|70:36|70:36|191:19,1,160,6|0,0:0|0:0,0:0:0:0:
302,27,54460,1,0,0:0:0:0:
302,27,54580,1,0,0:0:0:0:
230,133,54700,2,0,P|221:178|230:232,1,80,8|0,0:0|0:0,0:0:0:0:
352,314,54940,5,0,0:0:0:0:
356,186,55060,1,0,0:0:0:0:
230,133,55180,1,6,0:0:0:0:
122,202,55300,2,0,B|129:262|95:311|95:311|143:305,1,160,4|0,0:0|0:0,0:0:0:0:
323,289,55660,1,8,0:0:0:0:
205,138,55780,1,0,0:0:0:0:
205,138,55840,1,0,0:0:0:0:
205,138,55900,1,4,0:0:0:0:
316,145,56020,6,0,B|373:136|400:85|400:85|417:161,2,160,6|0|0,0:0|0:0|0:0,0:0:0:0:
205,138,56620,2,0,B|202:106|202:106|193:91|193:91|188:40,1,80,8|0,0:0|0:0,0:0:0:0:
300,31,56860,1,0,0:0:0:0:
401,85,56980,1,0,0:0:0:0:
401,85,57040,1,0,0:0:0:0:
401,85,57100,1,6,0:0:0:0:
416,221,57220,6,0,B|364:204|364:204|239:217,1,160,4|0,0:0|0:0,0:0:0:0:
132,289,57580,2,0,L|129:188,1,80,8|0,0:0|0:0,0:0:0:0:
67,97,57820,1,4,0:0:0:0:
192,70,57940,2,0,B|233:86|233:86|336:74,1,120,6|4,0:0|0:0,0:0:0:0:
425,64,58180,5,8,0:0:0:0:
439,264,58300,1,8,0:0:0:0:
297,148,58420,1,4,0:0:0:0:
511,163,58540,5,8,0:0:0:0:
309,244,58660,1,4,0:0:0:0:
413,62,58780,2,0,B|437:101|437:101|437:188,1,120,4|0,0:0|0:0,0:0:0:0:
435,272,59020,5,4,0:1:0:0:
307,107,59260,1,0,0:0:0:0:
230,289,59500,2,0,L|249:339,1,51.999997619629
106,289,59740,2,0,L|123:227,1,51.999997619629
150,376,59980,6,0,P|104:389|39:365,1,103.999995239258
78,151,60340,2,0,P|135:138|191:171,1,103.999995239258
64,63,60700,2,0,L|64:10,1,51.999997619629
175,156,60940,6,0,P|235:173|284:155,1,103.999995239258,2|0,0:0|0:0,0:0:0:0:
407,274,61300,2,0,P|355:261|303:281,1,103.999995239258
177,346,61660,2,0,L|178:286,1,51.999997619629
120,206,61900,6,0,P|69:208|9:202,1,103.999995239258
107,89,62260,1,0,0:0:0:0:
222,87,62380,2,0,L|212:156,1,51.999997619629
292,221,62620,2,0,P|314:191|351:163,1,77.9999964294435
390,137,62860,6,0,L|387:254,1,103.999995239258,2|0,0:0|0:0,0:0:0:0:
91,241,63340,1,0,0:0:0:0:
129,144,63460,1,0,0:0:0:0:
336,306,63700,1,0,0:0:0:0:
247,360,63820,1,0,0:0:0:0:
279,94,64060,1,0,0:0:0:0:
346,173,64180,6,0,P|403:176|465:171,1,103.999995239258
451,289,64540,2,0,L|370:282,1,77.9999964294435
321,279,64780,6,0,L|290:336,1,51.999997619629,2|0,0:0|0:0,0:0:0:0:
223,239,65020,2,0,L|165:274,1,51.999997619629
141,142,65260,2,0,L|193:142,1,51.999997619629
193,33,65500,2,0,L|239:58,1,51.999997619629
271,164,65740,6,0,B|262:183|262:183|263:235,1,51.999997619629,2|0,0:0|0:0,0:0:0:0:
360,275,65980,2,0,B|366:260|366:260|364:221,1,51.999997619629,0|0,0:0|0:0,0:0:0:0:
275,317,66220,2,0,L|302:386,1,51.999997619629,8|0,0:0|0:0,0:0:0:0:
173,319,66460,1,0,0:0:0:0:
173,319,66700,6,0,P|115:337|45:317,1,128,2|0,0:0|0:0,0:0:0:0:
17,231,67060,1,0,0:0:0:0:
96,113,67180,2,0,B|114:144|114:144|108:254,1,128,8|0,0:0|0:0,0:0:0:0:
173,319,67540,1,0,0:0:0:0:
214,232,67660,2,0,P|278:212|349:242,2,128,2|0|8,0:0|0:0|0:0,0:0:0:0:
396,351,68380,1,0,0:0:0:0:
407,129,68620,6,0,B|323:139|323:139|260:119,1,128,2|0,0:0|0:0,0:0:0:0:
235,34,68980,1,0,0:0:0:0:
173,115,69100,2,0,P|156:168|195:251,1,128,8|0,0:0|0:0,0:0:0:0:
273,271,69460,1,0,0:0:0:0:
323,177,69580,2,0,L|234:169,1,64,2|0,0:0|0:0,0:0:0:0:
384,269,69820,2,0,L|458:261,1,64,0|0,0:0|0:0,0:0:0:0:
428,164,70060,1,8,0:0:0:0:
327,181,70180,1,0,0:0:0:0:
273,271,70300,2,0,L|284:349,1,64,0|0,0:0|0:0,0:0:0:0:
179,221,70540,6,0,P|111:199|49:230,1,128,2|0,0:0|0:0,0:0:0:0:
119,302,70900,1,0,0:0:0:0:
206,235,71020,2,0,B|204:191|204:191|184:147|184:147|224:140,1,128,8|0,0:0|0:0,0:0:0:0:
321,138,71380,1,0,0:0:0:0:
385,217,71500,2,0,L|390:300,1,64,2|0,0:0|0:0,0:0:0:0:
289,308,71740,2,0,P|235:288|170:315,1,128,0|8,0:0|0:0,0:0:0:0:
321,138,72220,2,0,L|337:54,1,64,0|0,0:0|0:0,0:0:0:0:
221,87,72460,6,0,L|247:228,1,128,2|0,0:0|0:0,0:0:0:0:
337,263,72820,1,0,0:0:0:0:
394,178,72940,2,0,B|421:136|421:136|515:142,1,128,8|0,0:0|0:0,0:0:0:0:
426,41,73300,6,0,L|298:28,1,128,2|4,0:0|0:0,0:0:0:0:
210,67,73660,1,4,0:0:0:0:
320,128,73780,1,4,0:0:0:0:
175,158,73900,1,12,0:0:0:0:
309,223,74020,1,4,0:0:0:0:
142,252,74140,1,4,0:0:0:0:
299,316,74260,1,4,0:0:0:0:
108,348,74380,6,0,B|136:304|136:304|128:177,2,155.999992858887,4|0|0,0:1|0:0|0:0,0:0:0:0:
0,204,75340,1,2,0:0:0:0:
241,198,75580,2,0,L|246:260,1,51.999997619629,0|0,0:0|0:0,0:0:0:0:
252,350,75820,1,8,0:0:0:0:
395,265,76060,6,0,B|385:302|385:302|392:376,2,103.999995239258,0|2|0,0:0|0:0|0:0,0:0:0:0:
482,243,76660,2,0,P|453:194|401:175,1,103.999995239258
326,215,77020,2,0,B|309:180|309:180|315:104,2,103.999995239258,0|2|0,0:0|0:0|0:0,0:0:0:0:
411,175,77620,1,0,0:0:0:0:
385,62,77740,2,0,P|350:34|274:34,1,103.999995239258,8|0,0:0|0:0,0:0:0:0:
141,144,78220,6,0,B|172:154|172:154|267:146,1,103.999995239258,4|0,0:1|0:0,0:0:0:0:
377,208,78580,2,0,L|326:214,1,51.999997619629
150,246,78940,2,0,P|130:292|145:352,1,103.999995239258,0|2,0:0|0:0,0:0:0:0:
320,319,79420,2,0,B|287:304|287:304|217:304,2,103.999995239258,0|8|0,0:0|0:0|0:0,0:0:0:0:
457,173,80140,6,0,P|469:130|446:67,1,103.999995239258,4|0,0:1|0:0,0:0:0:0:
378,130,80500,1,0,0:0:0:0:
399,246,80620,2,0,B|371:272|371:272|283:276,2,103.999995239258,8|0|2,0:0|0:0|0:0,0:0:0:0:
321,181,81220,1,0,0:0:0:0:
229,210,81340,2,0,B|227:142|227:142|249:107,1,103.999995239258,0|8,0:0|0:0,0:0:0:0:
315,56,81700,1,0,0:0:0:0:
315,56,81820,1,4,0:0:0:0:
199,190,82060,6,0,P|147:206|94:184,1,103.999995239258,4|0,0:1|0:0,0:0:0:0:
65,115,82420,1,0,0:0:0:0:
135,20,82540,2,0,B|152:55|152:55|149:128,2,103.999995239258,0|8|2,0:0|0:0|0:0,0:0:0:0:
246,83,83140,6,0,P|287:100|360:74,1,103.999995239258
444,29,83500,2,0,L|439:137,1,103.999995239258,8|0,0:0|0:0,0:0:0:0:
432,239,83860,1,0,0:0:0:0:
301,187,83980,5,6,0:0:0:0:
229,297,84100,1,4,0:0:0:0:
322,377,84220,2,0,L|379:363,1,51.999997619629,4|4,0:0|0:0,0:0:0:0:
273,186,84460,5,4,0:0:0:0:
229,297,84580,1,4,0:0:0:0:
365,220,84700,1,4,0:0:0:0:
320,98,84820,2,0,L|261:88,1,51.999997619629,4|0,0:0|0:0,0:0:0:0:
139,317,85420,6,0,B|138:263|153:213|153:213|121:224|114:259,1,155.999992858887
262,317,85900,6,0,B|257:271|276:222|276:222|264:180|264:180|284:122,1,176.000005371094,4|8,0:1|0:0,0:0:0:0:
326,14,86260,1,0,0:0:0:0:
384,188,86380,1,2,0:0:0:0:
149,203,86500,1,0,0:0:0:0:
204,36,86620,1,8,0:0:0:0:
265,181,86740,6,0,B|322:212|385:185|385:185|373:219|353:228,1,176.000005371094,2|0,0:0|0:0,0:0:0:0:
407,54,87100,2,0,P|478:94|498:140,1,132.00000402832,8|0,0:0|0:0,0:0:0:0:
472,238,87340,5,2,0:0:0:0:
337,96,87460,1,0,0:0:0:0:
508,50,87580,2,0,L|497:140,1,88.000002685547,8|0,0:0|0:0,0:0:0:0:
292,260,87820,6,0,B|298:198|298:198|330:158|330:158|337:94,1,176.000005371094,2|8,0:0|0:0,0:0:0:0:
402,255,88180,1,0,0:0:0:0:
230,104,88300,2,0,B|172:97|172:97|129:118,1,88.000002685547,2|0,0:0|0:0,0:0:0:0:
93,250,88540,1,8,0:0:0:0:
221,323,88660,6,0,P|309:330|396:323,1,176.000005371094,2|0,0:0|0:0,0:0:0:0:
308,209,89020,1,8,0:0:0:0:
217,357,89140,1,0,0:0:0:0:
107,148,89260,5,2,0:0:0:0:
231,221,89380,1,0,0:0:0:0:
217,357,89500,1,8,0:0:0:0:
77,378,89620,1,0,0:0:0:0:
4,257,89740,2,0,B|-18:184|16:126|16:126|55:169,1,176.000005371094,2|8,0:0|0:0,0:0:0:0:
202,316,90100,5,0,0:0:0:0:
232,125,90220,1,2,0:0:0:0:
84,244,90340,1,0,0:0:0:0:
281,223,90460,1,8,0:0:0:0:
115,147,90580,2,0,L|129:338,1,176.000005371094,2|0,0:0|0:0,0:0:0:0:
392,210,90940,6,0,L|292:191,1,88.000002685547,8|0,0:0|0:0,0:0:0:0:
208,16,91180,2,0,L|318:37,1,88.000002685547,2|0,0:0|0:0,0:0:0:0:
116,151,91420,2,0,L|29:134,1,88.000002685547,8|0,0:0|0:0,0:0:0:0:
146,302,91660,5,6,0:0:0:0:
210,116,91780,1,4,0:0:0:0:
268,265,91900,1,12,0:0:0:0:
29,134,92020,5,6,0:0:0:0:
146,302,92140,1,4,0:0:0:0:
210,116,92260,1,4,0:0:0:0:
26,218,92380,1,14,0:0:0:0:
210,343,92500,6,0,B|273:317|273:317|393:332,1,176.000005371094,6|0,0:0|0:0,0:0:0:0:
258,185,92860,2,0,B|149:172,1,88.000002685547,8|0,0:0|0:0,0:0:0:0:
392,199,93100,5,4,0:0:0:0:
252,355,93220,1,4,0:0:0:0:
258,185,93340,1,12,0:0:0:0:
380,330,93460,1,4,0:0:0:0:
123,347,93580,6,0,B|118:288|118:288|139:232|139:232|135:160,1,176.000005371094,4|8,0:1|0:0,0:0:0:0:
22,200,93940,1,0,0:0:0:0:
237,313,94060,1,2,0:0:0:0:
228,171,94180,1,0,0:0:0:0:
123,347,94300,1,8,0:0:0:0:
351,371,94420,6,0,B|376:254|376:254|348:205,1,176.000005371094,2|0,0:0|0:0,0:0:0:0:
228,171,94780,1,8,0:0:0:0:
320,308,94900,1,0,0:0:0:0:
440,161,95020,2,0,B|436:129|436:129|441:106|441:106|432:53,1,88.000002685547,2|0,0:0|0:0,0:0:0:0:
299,34,95260,2,0,B|303:66|303:66|298:89|298:89|307:142,1,88.000002685547,8|0,0:0|0:0,0:0:0:0:
233,336,95500,6,0,P|150:369|67:322,1,176.000005371094,2|8,0:0|0:0,0:0:0:0:
50,141,95860,1,0,0:0:0:0:
158,255,95980,1,2,0:0:0:0:
22,258,96100,1,0,0:0:0:0:
169,140,96220,1,8,0:0:0:0:
233,336,96340,6,0,B|303:372|365:334|365:334|342:294,1,176.000005371094,2|0,0:0|0:0,0:0:0:0:
173,219,96700,2,0,B|153:171|153:171|179:60,1,132.00000402832,8|0,0:0|0:0,0:0:0:0:
189,7,96940,5,2,0:0:0:0:
277,173,97060,1,0,0:0:0:0:
64,103,97180,1,8,0:0:0:0:
286,43,97300,1,0,0:0:0:0:
228,260,97420,6,0,B|162:266|162:266|111:245|111:245|46:248,1,176.000005371094,2|8,0:0|0:0,0:0:0:0:
207,378,97780,2,0,L|311:367,1,88.000002685547,0|2,0:0|0:0,0:0:0:0:
393,245,98020,1,0,0:0:0:0:
261,156,98140,1,8,0:0:0:0:
79,189,98260,6,0,B|39:118|86:54|86:54|130:48,1,176.000005371094,2|0,0:0|0:0,0:0:0:0:
212,228,98620,2,0,B|256:241|256:241|341:230,1,132.00000402832,8|0,0:0|0:0,0:0:0:0:
443,227,98860,5,2,0:0:0:0:
302,121,98980,1,0,0:0:0:0:
467,142,99100,2,0,P|484:76|458:10,1,132.00000402832,8|0,0:0|0:0,0:0:0:0:
379,83,99340,5,14,0:0:0:0:
173,263,99460,1,4,0:0:0:0:
173,263,99580,1,4,0:0:0:0:
181,73,99700,5,14,0:0:0:0:
342,296,99820,1,4,0:0:0:0:
342,296,99940,1,4,0:0:0:0:
346,81,100060,5,14,0:0:0:0:
217,294,100180,1,4,0:0:0:0:
169,126,100300,1,4,0:0:0:0:
336,243,100420,5,12,0:0:0:0:
98,235,100540,1,12,0:0:0:0:
246,51,100660,1,4,0:0:0:0:
335,316,100780,6,0,B|369:320|369:320|444:297,1,88.000002685547,14|0,0:0|0:0,0:0:0:0:
167,142,101020,2,0,B|132:136|132:136|58:161,1,88.000002685547,4|0,0:0|0:0,0:0:0:0:
256,192,101260,12,0,103180,0:0:0:0:
104,170,105100,5,2,0:0:0:0:
99,144,105460,1,0,0:0:0:0:
93,117,105820,1,0,0:0:0:0:
89,95,106540,5,0,0:0:0:0:
216,68,106780,1,0,0:0:0:0:
163,274,107020,1,2,0:0:0:0:
178,295,107380,1,0,0:0:0:0:
192,317,107740,1,0,0:0:0:0:
321,95,108940,6,4,B|374:83|374:83|421:97|421:97|489:76,2,155.999992858887,6|4|4,0:0|0:0|0:0,0:0:0:0:
182,140,109900,5,8,0:0:0:0:
165,163,110380,1,0,0:0:0:0:
107,296,110620,1,0,0:0:0:0:
107,296,110700,1,0,0:0:0:0:
107,296,110780,1,0,0:0:0:0:
107,296,110860,6,4,B|164:313|164:313|274:283,2,155.999992858887,6|4|4,0:0|0:0|0:0,0:0:0:0:
41,165,111820,1,8,0:0:0:0:
161,83,112060,1,0,0:0:0:0:
161,83,112140,1,0,0:0:0:0:
161,83,112220,1,0,0:0:0:0:
161,83,112300,2,0,B|176:126|176:126|166:203,1,103.999995239258,8|0,0:0|0:0,0:0:0:0:
286,108,112780,6,4,P|340:88|443:111,2,155.999992858887,6|4|4,0:0|0:0|0:0,0:0:0:0:
364,231,113740,2,0,B|371:363|371:363|304:313,1,207.999990478516,8|0,0:0|0:0,0:0:0:0:
188,236,114460,1,0,0:0:0:0:
188,236,114540,1,0,0:0:0:0:
188,236,114620,1,0,0:0:0:0:
188,236,114700,6,4,B|173:177|173:177|202:134|184:70,2,155.999992858887,6|4|4,0:0|0:0|0:0,0:0:0:0:
438,126,116620,6,0,P|392:120|350:121,1,88.000002685547,2|0,0:0|0:0,0:0:0:0:
216,78,116860,2,0,B|212:133|212:133|235:185,1,88.000002685547,0|0,0:0|0:0,0:0:0:0:
319,274,117100,1,8,0:0:0:0:
224,321,117220,1,0,0:0:0:0:
114,286,117340,1,0,0:0:0:0:
51,179,117460,1,0,0:0:0:0:
85,51,117580,6,0,B|132:27|132:27|184:23,2,88.000002685547,2|0|0,0:0|0:0|0:0,0:0:0:0:
171,147,117940,1,0,0:0:0:0:
293,182,118060,2,0,B|307:126|283:81|283:81|293:62|329:53,1,160,8|0,0:0|0:0,0:0:0:0:
425,137,118420,1,0,0:0:0:0:
260,195,118540,6,0,P|218:200|170:188,1,88.000002685547,2|0,0:0|0:0,0:0:0:0:
128,52,118780,2,0,P|171:45|213:55,1,88.000002685547
333,120,119020,2,0,P|376:126|429:107,2,88.000002685547,8|0|0,0:0|0:0|0:0,0:0:0:0:
366,16,119380,6,0,B|355:71|355:71|375:123|375:123|359:203,1,176.000005371094,2|0,0:0|0:0,0:0:0:0:
244,244,119740,1,0,0:0:0:0:
346,339,119860,1,0,0:0:0:0:
224,384,119980,2,0,B|192:376|192:376|111:382,1,88.000002685547,8|0,0:0|0:0,0:0:0:0:
64,270,120220,2,0,L|157:263,1,88.000002685547
243,171,120460,5,2,0:0:0:0:
243,171,120580,1,0,0:0:0:0:
311,293,120700,2,0,B|347:292|347:292|361:301|361:301|425:297,1,88.000002685547,0|0,0:0|0:0,0:0:0:0:
466,176,120940,2,0,B|430:177|430:177|416:168|416:168|352:172,1,88.000002685547,8|0,0:0|0:0,0:0:0:0:
243,171,121180,1,0,0:0:0:0:
228,310,121300,6,0,B|287:309|287:309|312:292,2,88.000002685547,2|0|0,0:0|0:0|0:0,0:0:0:0:
138,238,121660,1,0,0:0:0:0:
158,125,121780,1,0,0:0:0:0:
275,113,121900,2,0,B|348:94|358:24|358:24|308:25,1,176.000005371094,8|0,0:0|0:0,0:0:0:0:
185,60,122260,1,0,0:0:0:0:
129,171,122380,5,2,0:0:0:0:
186,270,122500,1,0,0:0:0:0:
300,270,122620,1,0,0:0:0:0:
357,171,122740,1,0,0:0:0:0:
243,171,122860,5,8,0:0:0:0:
300,270,122980,1,0,0:0:0:0:
414,270,123100,1,0,0:0:0:0:
471,171,123220,2,0,B|492:108|455:48|455:48|410:66,1,176.000005371094,2|0,0:0|0:0,0:0:0:0:
216,124,123580,5,8,0:1:0:0:
277,29,123700,1,4,0:0:0:0:
334,179,123820,1,8,0:1:0:0:
171,231,123940,1,4,0:0:0:0:
220,129,124060,1,8,0:1:0:0:
273,287,124180,1,4,0:0:0:0:
81,276,124300,2,0,B|65:240|65:240|65:188,1,88.000002685547,6|0,0:0|0:0,0:0:0:0:
283,75,124540,6,0,B|281:113|281:113|292:129|292:129|294:164,1,88.000002685547,8|0,0:0|0:0,0:0:0:0:
175,213,124780,2,0,B|177:175|177:175|166:159|166:159|164:124,1,88.000002685547,6|0,0:0|0:0,0:0:0:0:
421,134,125020,5,12,0:0:0:0:
256,256,125140,1,4,0:0:0:0:
272,106,125260,5,6,0:0:0:0:
403,272,125380,1,4,0:0:0:0:
436,106,125500,5,12,0:0:0:0:
256,256,125620,1,4,0:0:0:0:
267,76,125740,5,6,0:0:0:0:
403,272,125860,1,4,0:0:0:0:
452,76,125980,5,12,0:0:0:0:
256,256,126100,1,4,0:0:0:0:
262,44,126220,5,6,0:0:0:0:
403,272,126340,1,4,0:0:0:0:
128,275,126460,6,0,B|113:242|113:242|120:179,1,88.000002685547
344,72,126700,2,0,B|359:105|359:105|352:168,1,88.000002685547,8|0,0:0|0:0,0:0:0:0:
226,273,126940,1,0,0:0:0:0:
49,259,127060,6,0,B|29:209|29:209|41:141|41:141|92:97,1,176.000005371094,2|0,0:0|0:0,0:0:0:0:
235,49,127420,1,0,0:0:0:0:
217,188,127540,1,0,0:0:0:0:
357,191,127660,2,0,P|377:149|345:41,1,132.00000402832,8|0,0:0|0:0,0:0:0:0:
295,0,127900,5,2,0:0:0:0:
264,125,128020,1,0,0:0:0:0:
466,113,128140,1,0,0:0:0:0:
418,286,128260,2,0,P|354:303|271:266,1,132.00000402832,0|0,0:0|0:0,0:0:0:0:
233,218,128500,5,0,0:0:0:0:
357,191,128620,1,8,0:0:0:0:
310,384,128740,1,0,0:0:0:0:
139,286,128860,2,0,P|128:248|140:176,1,88.000002685547,0|0,0:0|0:0,0:0:0:0:
369,60,129100,6,0,L|362:170,1,88.000002685547,2|0,0:0|0:0,0:0:0:0:
349,302,129340,1,0,0:0:0:0:
217,183,129460,1,0,0:0:0:0:
403,85,129580,6,0,L|399:176,1,88.000002685547,8|0,0:0|0:0,0:0:0:0:
389,326,129820,1,0,0:0:0:0:
259,199,129940,1,0,0:0:0:0:
259,199,130000,1,0,0:0:0:0:
259,199,130060,1,2,0:0:0:0:
256,192,130120,12,0,131020,0:0:0:0:
340,123,131980,5,4,0:0:0:0:
256,192,139660,5,4,0:0:0:0:
152,80,141580,5,4,0:0:0:0:
328,248,141820,1,4,0:0:0:0:
336,88,142060,1,4,0:0:0:0:
120,240,142300,1,12,0:0:0:0:
120,240,143020,6,0,P|172:248|111:212,1,210.000008010865
131,335,143500,6,0,B|185:343|222:314|222:314|250:330|250:330|309:329,1,176.000005371094,4|8,0:1|0:0,0:0:0:0:
408,156,143860,1,0,0:0:0:0:
216,130,143980,1,2,0:0:0:0:
320,245,144100,1,0,0:0:0:0:
351,61,144220,1,8,0:0:0:0:
159,52,144340,6,0,P|118:141|162:213,1,176.000005371094,2|0,0:0|0:0,0:0:0:0:
281,132,144700,2,0,P|352:140|416:133,1,132.00000402832,8|0,0:0|0:0,0:0:0:0:
469,58,144940,5,2,0:0:0:0:
371,220,145060,1,0,0:0:0:0:
248,43,145180,2,0,P|293:37|343:59,1,88.000002685547,8|0,0:0|0:0,0:0:0:0:
473,206,145420,6,0,P|511:131|469:58,1,176.000005371094,2|8,0:0|0:0,0:0:0:0:
317,262,145780,1,0,0:0:0:0:
481,292,145900,2,0,P|483:250|471:203,1,88.000002685547,2|0,0:0|0:0,0:0:0:0:
308,126,146140,1,8,0:0:0:0:
210,312,146260,6,0,B|269:302|332:312|332:312|331:285|311:252,1,176.000005371094,2|0,0:0|0:0,0:0:0:0:
150,210,146620,1,8,0:0:0:0:
268,384,146740,1,0,0:0:0:0:
368,171,146860,5,2,0:0:0:0:
229,275,146980,1,0,0:0:0:0:
405,282,147100,1,8,0:0:0:0:
285,134,147220,1,0,0:0:0:0:
210,312,147340,6,0,B|145:311|102:339|102:339|83:313|73:280,1,176.000005371094,2|8,0:0|0:0,0:0:0:0:
123,141,147700,1,0,0:0:0:0:
263,95,147820,2,0,P|266:149|259:189,1,88.000002685547,2|0,0:0|0:0,0:0:0:0:
98,213,148060,1,8,0:0:0:0:
159,65,148180,6,0,B|221:75|296:78|296:78|244:103,1,176.000005371094,2|0,0:0|0:0,0:0:0:0:
62,45,148540,5,8,0:0:0:0:
191,222,148660,1,0,0:0:0:0:
212,34,148780,1,2,0:0:0:0:
73,206,148900,1,0,0:0:0:0:
294,215,149020,2,0,B|306:202|306:202|226:169,1,88.000002685547,8|0,0:0|0:0,0:0:0:0:
65,109,149260,5,6,0:0:0:0:
190,316,149380,1,4,0:0:0:0:
190,316,149500,1,12,0:0:0:0:
183,84,149620,5,6,0:0:0:0:
69,292,149740,1,4,0:0:0:0:
49,69,149860,1,4,0:0:0:0:
209,236,149980,1,14,0:0:0:0:
352,92,150100,6,0,B|289:67|289:67|179:84,1,176.000005371094,6|0,0:0|0:0,0:0:0:0:
69,292,150460,2,0,B|103:307|103:307|154:299,1,88.000002685547,8|0,0:0|0:0,0:0:0:0:
302,189,150700,5,4,0:0:0:0:
96,189,150820,1,4,0:0:0:0:
237,338,150940,1,12,0:0:0:0:
193,113,151060,1,4,0:0:0:0:
72,318,151180,6,0,B|128:353|128:353|260:334,1,176.000005371094,4|8,0:1|0:0,0:0:0:0:
430,264,151540,1,0,0:0:0:0:
297,196,151660,1,2,0:0:0:0:
358,383,151780,1,0,0:0:0:0:
433,170,151900,1,8,0:0:0:0:
225,265,152020,6,0,B|110:270|110:270|104:240|111:209,1,176.000005371094,2|0,0:0|0:0,0:0:0:0:
227,65,152380,1,8,0:0:0:0:
348,174,152500,1,0,0:0:0:0:
486,149,152620,2,0,B|501:110|501:110|475:42,1,88.000002685547,2|0,0:0|0:0,0:0:0:0:
348,174,152860,2,0,B|340:210|340:210|356:266,1,88.000002685547,8|0,0:0|0:0,0:0:0:0:
431,60,153100,6,0,P|348:30|266:61,1,176.000005371094,2|8,0:0|0:0,0:0:0:0:
214,197,153460,1,0,0:0:0:0:
354,259,153580,2,8,B|364:228|364:228|347:165,1,88.000002685547,2|0,0:0|0:0,0:0:0:0:
268,58,153820,1,8,0:0:0:0:
123,105,153940,6,0,B|50:125|50:125|-4:85|-4:85|34:70,1,176.000005371094,2|0,0:0|0:0,0:0:0:0:
221,176,154300,2,0,B|257:203|257:203|154:246,1,132.00000402832,8|0,0:0|0:0,0:0:0:0:
93,271,154540,5,2,0:0:0:0:
287,304,154660,1,0,0:0:0:0:
145,153,154780,1,8,0:0:0:0:
181,359,154900,1,0,0:0:0:0:
344,240,155020,6,0,B|345:179|345:179|319:132|319:132|318:59,1,176.000005371094,2|8,0:0|0:0,0:0:0:0:
428,98,155380,1,0,0:0:0:0:
233,221,155500,1,2,0:0:0:0:
238,68,155620,1,0,0:0:0:0:
412,231,155740,1,8,0:0:0:0:
164,326,155860,6,0,B|139:218|139:218|168:155,1,176.000005371094,2|0,0:0|0:0,0:0:0:0:
306,266,156220,2,0,B|391:286|391:286|448:260,1,132.00000402832,8|0,0:0|0:0,0:0:0:0:
376,190,156460,5,2,0:0:0:0:
337,384,156580,1,0,0:0:0:0:
512,335,156700,2,0,B|528:284|528:284|502:195,1,132.00000402832,8|0,0:0|0:0,0:0:0:0:
448,111,156940,5,14,0:0:0:0:
256,254,157060,1,4,0:0:0:0:
243,72,157180,1,4,0:0:0:0:
412,245,157300,5,14,0:0:0:0:
366,55,157420,1,4,0:0:0:0:
256,254,157540,1,4,0:0:0:0:
177,44,157660,5,14,0:0:0:0:
367,148,157780,1,4,0:0:0:0:
147,181,157900,6,0,L|71:171,2,53.3333333333333,8|8|8,0:0|0:1|0:1,0:0:0:0:
214,117,158140,5,4,0:0:0:0:
236,152,158220,1,4,0:0:0:0:
240,194,158300,1,4,0:0:0:0:
225,234,158380,5,8,0:3:0:0:
194,263,158460,1,8,0:3:0:0:
153,275,158540,1,8,0:3:0:0:
110,267,158620,6,4,L|73:272,6,20,4|4|4|4|4|4|4,0:3|0:0|0:0|0:0|0:0|0:0|0:0,0:0:0:0:
36,187,158860,6,0,B|0:230|0:230|0:308|0:308|41:361,1,191.999994140625,4|8,0:1|0:0,0:0:0:0:
266,264,159220,1,0,0:0:0:0:
119,188,159340,1,2,0:0:0:0:
187,384,159460,1,0,0:0:0:0:
326,226,159580,1,8,0:0:0:0:
120,98,159700,6,0,B|101:147|121:188|121:188|105:231|105:231|115:290,1,191.999994140625,2|0,0:0|0:0,0:0:0:0:
259,188,160060,2,0,B|350:169|350:169|415:193,1,143.999995605469,8|0,0:0|0:0,0:0:0:0:
340,260,160300,5,2,0:0:0:0:
344,68,160420,1,0,0:0:0:0:
512,150,160540,2,0,P|516:207|501:249,1,95.9999970703126,8|0,0:0|0:0,0:0:0:0:
229,242,160780,6,0,B|210:203|213:156|236:117|236:117|180:156,1,191.999994140625,2|8,0:0|0:0,0:0:0:0:
367,187,161140,1,0,0:0:0:0:
403,52,161260,2,0,P|342:47|305:60,1,95.9999970703126,2|0,0:0|0:0,0:0:0:0:
229,242,161500,1,8,0:0:0:0:
407,261,161620,6,0,B|497:271|497:271|526:222|526:222|464:216,1,191.999994140625,2|0,0:0|0:0,0:0:0:0:
277,193,161980,1,8,0:0:0:0:
419,67,162100,1,0,0:0:0:0:
371,256,162220,5,2,0:0:0:0:
269,81,162340,1,0,0:0:0:0:
453,148,162460,1,8,0:0:0:0:
249,239,162580,1,0,0:0:0:0:
82,89,162700,6,0,B|133:104|171:87|171:87|217:98|217:98|268:80,1,191.999994140625,2|8,0:0|0:0,0:0:0:0:
419,19,163060,1,0,0:0:0:0:
460,206,163180,2,0,B|339:195,1,95.9999970703126,2|0,0:0|0:0,0:0:0:0:
163,258,163420,1,8,0:0:0:0:
358,347,163540,6,0,P|423:313|455:187,1,191.999994140625,2|0,0:0|0:0,0:0:0:0:
277,71,163900,1,8,0:0:0:0:
334,217,164020,1,0,0:0:0:0:
409,30,164140,5,2,0:0:0:0:
166,120,164260,1,0,0:0:0:0:
334,217,164380,2,0,B|337:96,1,95.9999970703126,8|0,0:0|0:0,0:0:0:0:
146,319,164620,5,6,0:0:0:0:
115,141,164740,1,4,0:0:0:0:
318,284,164860,1,12,0:0:0:0:
239,61,164980,5,6,0:0:0:0:
226,254,165100,1,4,0:0:0:0:
89,138,165220,1,4,0:0:0:0:
326,165,165340,1,14,0:0:0:0:
191,327,165460,6,0,B|195:257|195:257|162:211|162:211|169:123,1,191.999994140625,6|0,0:0|0:0,0:0:0:0:
344,75,165820,2,0,B|333:193,1,95.9999970703126,8|0,0:0|0:0,0:0:0:0:
194,8,166060,5,4,0:0:0:0:
420,129,166180,1,4,0:0:0:0:
167,145,166300,1,12,0:0:0:0:
369,10,166420,1,4,0:0:0:0:
302,242,166540,6,0,B|180:275|180:275|108:250,1,191.999994140625,4|8,0:1|0:0,0:0:0:0:
258,150,166900,1,0,0:0:0:0:
163,351,167020,1,2,0:0:0:0:
138,145,167140,1,0,0:0:0:0:
278,326,167260,1,8,0:0:0:0:
19,288,167380,6,0,B|31:224|26:150|26:150|96:173,1,191.999994140625,2|0,0:0|0:0,0:0:0:0:
302,242,167740,1,8,0:0:0:0:
247,62,167860,1,0,0:0:0:0:
136,240,167980,2,0,L|162:370,1,95.9999970703126,2|0,0:0|0:0,0:0:0:0:
334,233,168220,2,0,B|352:125,1,95.9999970703126,8|0,0:0|0:0,0:0:0:0:
215,53,168460,6,0,B|157:78|157:78|13:47,1,191.999994140625,2|8,0:0|0:0,0:0:0:0:
93,204,168820,1,0,0:0:0:0:
224,303,168940,2,8,B|337:281,1,95.9999970703126,2|0,0:0|0:0,0:0:0:0:
512,245,169180,1,8,0:0:0:0:
418,160,169300,6,0,P|386:260|454:357,1,191.999994140625,2|0,0:0|0:0,0:0:0:0:
269,230,169660,2,0,B|270:171|296:125|296:125|241:156,1,143.999995605469,8|0,0:0|0:0,0:0:0:0:
181,198,169900,5,2,0:0:0:0:
432,187,170020,1,0,0:0:0:0:
260,52,170140,1,8,0:0:0:0:
340,268,170260,1,0,0:0:0:0:
478,117,170380,6,0,B|408:108|408:108|369:136|369:136|293:126,1,191.999994140625,2|8,0:0|0:0,0:0:0:0:
328,14,170740,1,0,0:0:0:0:
448,224,170860,1,2,0:0:0:0:
214,115,170980,1,0,0:0:0:0:
445,44,171100,1,8,0:0:0:0:
245,258,171220,6,0,B|174:284|95:253|95:253|142:223,1,191.999994140625,2|0,0:0|0:0,0:0:0:0:
354,129,171580,2,0,P|373:61|338:0,1,143.999995605469,8|0,0:0|0:0,0:0:0:0:
280,71,171820,5,8,0:0:0:0:
484,55,171940,1,0,0:0:0:0:
391,248,172060,2,0,B|351:258|314:246|314:246|286:257|286:257|202:230,1,167.999994873047,8|0,0:0|0:0,0:0:0:0:
143,145,172300,5,14,0:0:0:0:
320,341,172420,1,4,0:0:0:0:
325,105,172540,1,4,0:0:0:0:
169,307,172660,5,14,0:0:0:0:
183,61,172780,1,4,0:0:0:0:
329,291,172900,1,4,0:0:0:0:
299,36,173020,5,14,0:0:0:0:
184,277,173140,1,4,0:0:0:0:
406,162,173260,1,4,0:0:0:0:
122,123,173380,5,12,0:0:0:0:
336,296,173500,1,12,0:0:0:0:
335,47,173620,1,4,0:0:0:0:
184,297,173740,5,14,0:0:0:0:
456,266,173860,1,4,0:0:0:0:
264,88,173980,2,0,B|269:197,1,95.9999970703126,8|0,0:0|0:0,0:0:0:0:
455,159,174220,6,0,P|460:130|449:53,2,80,6|0|0,0:0|0:0|0:0,0:0:0:0:
298,181,174580,1,0,0:0:0:0:
214,42,174700,2,0,L|102:32,1,80,8|0,0:0|0:0,0:0:0:0:
55,189,174940,2,0,L|170:198,1,80,4|2,0:0|0:0,0:0:0:0:
309,267,175180,6,0,L|305:371,1,80,4|0,0:0|0:0,0:0:0:0:
480,320,175420,2,0,L|469:222,1,80
376,103,175660,2,0,L|274:83,1,80,8|0,0:0|0:0,0:0:0:0:
114,161,175900,1,4,0:0:0:0:
250,245,176020,1,0,0:0:0:0:
250,245,176080,1,0,0:0:0:0:
250,245,176140,6,0,L|243:161,1,80,6|0,0:0|0:0,0:0:0:0:
141,38,176380,1,0,0:0:0:0:
37,153,176500,1,0,0:0:0:0:
173,258,176620,2,0,P|215:257|262:240,1,80,8|0,0:0|0:0,0:0:0:0:
342,128,176860,1,4,0:0:0:0:
467,207,176980,6,0,P|496:272|457:370,1,160,6|0,0:0|0:0,0:0:0:0:
296,384,177340,1,0,0:0:0:0:
376,284,177460,1,0,0:0:0:0:
230,254,177580,2,0,B|199:246|199:246|189:237|189:237|156:226,1,80,8|0,0:0|0:0,0:0:0:0:
92,353,177820,2,0,B|122:360|122:360|132:369|132:369|165:380,1,80,4|0,0:0|0:0,0:0:0:0:
298,231,178060,6,0,P|298:198|284:150,2,80,6|0|0,0:0|0:0|0:0,0:0:0:0:
156,226,178420,1,0,0:0:0:0:
96,94,178540,1,8,0:0:0:0:
228,31,178660,1,0,0:0:0:0:
228,31,178720,1,0,0:0:0:0:
228,31,178780,1,4,0:0:0:0:
286,154,178900,6,0,B|341:173|341:173|469:144,1,160,6|0,0:0|0:0,0:0:0:0:
326,41,179260,1,0,0:0:0:0:
200,93,179380,1,0,0:0:0:0:
127,208,179500,2,0,B|104:250|124:317|124:317|73:289,1,160,8|0,0:0|0:0,0:0:0:0:
245,267,179860,1,0,0:0:0:0:
245,267,179920,1,0,0:0:0:0:
245,267,179980,1,6,0:0:0:0:
355,332,180100,6,0,B|374:282|374:282|358:168,1,160,4|0,0:0|0:0,0:0:0:0:
327,30,180460,1,8,0:0:0:0:
261,215,180580,1,0,0:0:0:0:
167,57,180700,1,4,0:0:0:0:
302,138,180820,6,0,P|354:137|423:71,1,120,6|0,0:0|0:0,0:0:0:0:
327,30,181060,1,4,0:0:0:0:
185,109,181180,1,4,0:0:0:0:
276,235,181300,1,4,0:0:0:0:
345,95,181420,5,12,0:0:0:0:
209,41,181540,1,4,0:0:0:0:
149,184,181660,2,4,L|158:273,1,80,0|4,0:0|0:0,0:0:0:0:
174,291,181900,6,0,L|159:151,1,140,0|0,0:0|0:0,0:0:0:0:
294,238,182380,6,0,L|374:246,1,80,8|0,0:1|0:0,0:0:0:0:
441,115,182620,2,0,L|361:123,1,80,8|0,0:1|0:0,0:0:0:0:
238,114,182860,6,0,L|230:34,2,80,8|0|0,0:1|0:0|0:0,0:0:0:0:
164,204,183220,2,0,L|4:188,1,160,8|0,0:1|0:0,0:0:0:0:
229,309,183580,2,0,L|317:317,1,80,8|0,0:1|0:0,0:0:0:0:
436,299,183820,6,0,L|444:387,1,80,8|0,0:1|0:0,0:0:0:0:
346,204,184060,1,0,0:0:0:0:
346,204,184180,2,0,L|330:28,1,160,8|0,0:1|0:0,0:0:0:0:
208,109,184540,2,0,L|112:101,1,80,8|0,0:1|0:0,0:0:0:0:
71,236,184780,6,0,L|151:228,1,80,8|0,0:1|0:0,0:0:0:0:
279,223,185020,1,0,0:0:0:0:
279,223,185100,1,0,0:0:0:0:
279,223,185180,1,0,0:0:0:0:
279,223,185260,6,0,L|263:383,1,160,8|0,0:1|0:0,0:0:0:0:
415,329,185620,2,0,L|407:249,1,80,8|0,0:1|0:0,0:0:0:0:
279,223,185860,6,0,L|264:64,1,160,8|0,0:1|0:0,0:0:0:0:
144,178,186220,2,0,L|64:186,1,80,8|0,0:1|0:0,0:0:0:0:
104,47,186460,1,0,0:0:0:0:
104,47,186580,6,0,L|264:63,2,160,8|0|0,0:1|0:0|0:0,0:0:0:0:
144,178,187180,2,0,L|160:338,1,160,8|0,0:1|0:0,0:0:0:0:
294,353,187540,2,0,L|286:273,1,80,8|0,0:1|0:0,0:0:0:0:
321,384,187780,6,0,L|305:224,1,160,8|0,0:1|0:0,0:0:0:0:
159,337,188140,2,0,L|79:345,2,80,8|0|0,0:1|0:0|0:0,0:0:0:0:
171,209,188500,2,0,L|155:49,1,160,8|0,0:1|0:0,0:0:0:0:
299,40,188860,6,0,L|291:120,1,80,8|0,0:1|0:0,0:0:0:0:
419,232,189100,2,0,L|411:152,1,80,8|0,0:1|0:0,0:0:0:0:
307,264,189340,2,0,L|299:344,1,80,8|0,0:1|0:0,0:0:0:0:
