osu file format v14

[General]
AudioFilename: optc.mp3
AudioLeadIn: 2000
PreviewTime: 142960
Countdown: 0
SampleSet: Soft
StackLeniency: 0.7
Mode: 0
LetterboxInBreaks: 0
WidescreenStoryboard: 1

[Editor]
Bookmarks: 1420,9100,24460,35980,51340,59020,66700,74380,85900,101260,108940,116620,131980,143500,158860,174220,182380
DistanceSpacing: 1.4
BeatDivisor: 2
GridSize: 8
TimelineZoom: 1.700005

[Metadata]
Title:Inai Sekai
TitleUnicode:イナイセカイ
Artist:Primary
ArtistUnicode:Primary
Creator:Shad0w1and
Version:Hard
Source:
Tags:yuikonnu yuiko Aster tataricus Meis Clauson Misure Kibbleru TT Mouse ShallICompareThee
BeatmapID:869975
BeatmapSetID:390619

[Difficulty]
HPDrainRate:5
CircleSize:4
OverallDifficulty:6
ApproachRate:8.5
SliderMultiplier:1.10000000596046
SliderTickRate:1

[Events]
//Background and Video events
0,0,"BG.png",0,0
//Break Periods
2,59220,65065
2,132180,138985
//Storyboard Layer 0 (Background)
//Storyboard Layer 1 (Fail)
//Storyboard Layer 2 (Pass)
//Storyboard Layer 3 (Foreground)
//Storyboard Sound Samples

[TimingPoints]
1420,240,4,2,1,100,1,0
9100,-100,4,2,1,80,0,0
24460,-133.333333333333,4,2,1,60,0,0
30220,-100,4,2,1,60,0,0
35980,-90.9090909090909,4,2,1,100,0,1
51340,-100,4,2,1,100,0,0
66700,-100,4,2,1,80,0,0
74380,-133.333333333333,4,2,1,60,0,0
80140,-100,4,2,1,60,0,0
85900,-90.9090909090909,4,2,1,100,0,1
101260,-111.111111111111,4,2,1,60,0,0
116620,-100,4,2,1,100,0,1
130060,-100,4,2,1,60,0,0
143500,-90.9090909090909,4,2,1,100,0,1
157660,-100,4,2,1,100,0,0
158860,-90.9090909090909,4,2,1,100,0,1
174220,-100,4,2,1,100,0,0
181900,-133.333333333333,4,2,1,100,0,0
182260,-100,4,2,1,5,0,0
182380,-100,4,2,1,100,0,0

[Colours]
Combo1 : 255,219,111
Combo2 : 252,33,33
Combo3 : 243,153,80
Combo4 : 149,143,171

[HitObjects]
0,64,1420,6,0,L|125:62,1,110.000000596046,14|4,0:0|0:0,0:0:0:0:
224,165,1900,2,0,P|198:227|225:279,1,110.000000596046,8|4,0:0|0:0,0:0:0:0:
278,224,2260,2,0,B|311:211|311:211|399:234,2,110.000000596046,10|0|0,0:0|0:0|0:0,0:0:0:0:
311,293,2860,1,8,0:0:0:0:
473,247,3100,1,4,0:0:0:0:
473,247,3220,1,4,0:0:0:0:
473,247,3340,6,0,L|480:117,1,110.000000596046,14|4,0:0|0:0,0:0:0:0:
361,37,3820,2,0,L|245:28,1,110.000000596046,8|4,0:0|0:0,0:0:0:0:
216,97,4180,2,0,P|151:113|88:80,1,110.000000596046,10|0,0:0|0:0,0:0:0:0:
35,90,4540,1,4,0:0:0:0:
163,5,4780,1,8,0:0:0:0:
167,158,5020,1,4,0:0:0:0:
297,76,5260,6,0,B|292:111|292:111|315:184,1,110.000000596046,14|4,0:0|0:0,0:0:0:0:
450,254,5740,2,0,B|460:219|460:219|441:148,1,110.000000596046,8|4,0:0|0:0,0:0:0:0:
391,89,6100,2,0,P|435:71|497:91,2,110.000000596046,10|0|4,0:0|0:0|0:0,0:0:0:0:
338,145,6700,1,8,0:0:0:0:
185,165,6940,1,8,0:0:0:0:
269,297,7180,6,0,P|317:312|375:295,1,110.000000596046,14|0,0:0|0:0,0:0:0:0:
489,194,7660,2,0,B|501:125|501:125|485:78,1,110.000000596046,8|8,0:0|0:0,0:0:0:0:
425,132,8020,2,0,P|381:144|301:113,1,110.000000596046,10|4,0:0|0:0,0:0:0:0:
247,100,8380,6,0,L|238:189,1,55.000000298023,4|4,0:0|0:0,0:0:0:0:
170,125,8620,2,0,L|162:57,1,55.000000298023,12|4,0:0|0:0,0:0:0:0:
95,106,8860,2,4,L|89:181,1,55.000000298023,8|4,0:0|0:0,0:0:0:0:
87,256,9100,6,0,P|156:293|235:252,1,165.000000894069,12|0,0:1|0:0,0:0:0:0:
304,239,9580,2,0,L|291:348,1,110.000000596046,8|0,0:0|0:0,0:0:0:0:
452,318,10060,2,0,L|465:209,1,110.000000596046,2|0,0:0|0:0,0:0:0:0:
391,28,10540,1,8,0:0:0:0:
512,81,10780,1,0,0:0:0:0:
367,159,11020,6,0,P|280:149|230:77,1,165.000000894069,2|0,0:0|0:0,0:0:0:0:
163,124,11500,2,0,L|35:113,1,110.000000596046,8|0,0:0|0:0,0:0:0:0:
34,267,11980,2,0,L|168:254,1,110.000000596046,2|0,0:0|0:0,0:0:0:0:
279,329,12460,2,0,L|274:386,2,55.000000298023,8|0|0,0:0|0:0|0:0,0:0:0:0:
279,175,12940,6,0,P|338:145|436:190,1,165.000000894069,2|0,0:0|0:0,0:0:0:0:
488,269,13420,2,0,B|452:253|452:253|377:258,1,110.000000596046,8|0,0:0|0:0,0:0:0:0:
199,266,13900,1,2,0:0:0:0:
347,353,14140,2,0,L|352:243,1,110.000000596046,0|8,0:0|0:0,0:0:0:0:
202,121,14620,1,0,0:0:0:0:
40,267,14860,6,0,B|89:288|89:288|232:259,1,165.000000894069,2|0,0:0|0:0,0:0:0:0:
257,314,15340,2,0,P|308:299|379:323,1,110.000000596046,8|0,0:0|0:0,0:0:0:0:
423,359,15700,1,0,0:0:0:0:
475,188,15940,1,0,0:0:0:0:
475,188,16060,2,0,L|496:114,1,55.000000298023,0|0,0:0|0:0,0:0:0:0:
413,128,16300,2,0,L|403:61,1,55.000000298023,8|0,0:0|0:0,0:0:0:0:
404,73,16780,6,0,P|317:103|239:65,1,165.000000894069,6|0,0:0|0:0,0:0:0:0:
178,99,17260,2,0,L|196:234,1,110.000000596046,8|0,0:0|0:0,0:0:0:0:
38,194,17740,2,0,L|52:82,1,110.000000596046,2|0,0:0|0:0,0:0:0:0:
191,20,18220,1,8,0:0:0:0:
188,173,18460,1,0,0:0:0:0:
326,106,18700,6,0,B|373:127|373:127|510:106,1,165.000000894069,2|0,0:0|0:0,0:0:0:0:
485,109,19180,1,8,0:0:0:0:
420,248,19420,2,0,L|436:319,2,55.000000298023,0|0|2,0:0|0:0|0:0,0:0:0:0:
420,248,19780,2,0,P|361:233|313:250,1,110.000000596046,0|0,0:0|0:0,0:0:0:0:
275,313,20140,2,0,P|217:326|154:296,1,110.000000596046,8|0,0:0|0:0,0:0:0:0:
64,159,20620,6,0,B|167:141|167:141|240:157,1,165.000000894069,2|0,0:0|0:0,0:0:0:0:
301,170,21100,2,0,P|350:172|406:119,1,110.000000596046,8|0,0:0|0:0,0:0:0:0:
397,137,21460,1,0,0:0:0:0:
272,331,21820,2,0,B|230:321|230:321|158:344,1,110.000000596046,0|8,0:0|0:0,0:0:0:0:
30,268,22300,1,0,0:0:0:0:
164,191,22540,6,0,B|188:148|188:148|162:115|159:74|187:40,1,165.000000894069,2|0,0:0|0:0,0:0:0:0:
245,93,23020,2,0,B|285:108|285:108|377:91,1,110.000000596046,8|0,0:0|0:0,0:0:0:0:
425,76,23380,2,0,B|441:112|441:112|430:205,1,110.000000596046,2|4,0:0|0:0,0:0:0:0:
373,231,23740,6,0,L|397:327,5,55.000000298023,4|4|12|4|4|4,0:0|0:0|0:0|0:0|0:0|0:0,0:0:0:0:
386,284,24460,6,0,P|321:306|262:288,2,123.75000539124,4|0|0,0:1|0:0|0:0,0:0:0:0:
319,188,25420,2,0,B|297:110|297:110|314:48,1,123.75000539124,2|0,0:0|0:0,0:0:0:0:
324,40,25900,2,0,L|410:38,1,82.5000035941599,8|0,0:0|0:0,0:0:0:0:
483,125,26380,6,0,P|462:187|507:261,2,123.75000539124,2|0|0,0:0|0:0|0:0,0:0:0:0:
371,157,27340,2,0,B|287:174|287:174|243:157,1,123.75000539124,2|0,0:0|0:0,0:0:0:0:
223,148,27820,2,0,L|234:55,1,82.5000035941599,8|0,0:0|0:0,0:0:0:0:
119,92,28300,6,0,L|101:239,2,123.75000539124,4|0|0,0:1|0:0|0:0,0:0:0:0:
223,148,29260,2,0,P|275:163|345:140,1,123.75000539124,2|0,0:0|0:0,0:0:0:0:
368,126,29740,2,0,L|363:211,1,82.5000035941599,8|0,0:0|0:0,0:0:0:0:
253,317,30220,6,0,L|84:305,1,165.000000894069,4|0,0:1|0:0,0:0:0:0:
41,244,30700,1,8,0:0:0:0:
80,95,30940,1,0,0:0:0:0:
205,184,31180,2,0,L|200:244,2,55.000000298023,2|0|0,0:0|0:0|0:0,0:0:0:0:
330,93,31660,2,0,L|412:113,1,55.000000298023,8|0,0:0|0:0,0:0:0:0:
416,36,31900,2,0,L|483:27,1,55.000000298023,4|0,0:0|0:0,0:0:0:0:
502,101,32140,6,0,L|494:210,1,110.000000596046,4|0,0:1|0:0,0:0:0:0:
439,264,32500,1,0,0:0:0:0:
262,115,32860,2,0,P|210:103|152:115,1,110.000000596046,0|2,0:0|0:0,0:0:0:0:
111,176,33220,2,0,B|101:247|101:247|116:293,1,110.000000596046,0|0,0:0|0:0,0:0:0:0:
141,354,33580,1,8,0:0:0:0:
219,221,33820,1,0,0:0:0:0:
287,358,34060,6,0,L|342:338,7,55.000000298023,6|4|4|4|4|4|4|4,0:0|0:0|0:0|0:0|0:0|0:0|0:0|0:0,0:0:0:0:
338,339,35980,6,0,L|340:199,1,121.000004348278,4|8,0:1|0:0,0:0:0:0:
398,140,36340,1,0,0:0:0:0:
341,61,36460,2,0,L|263:35,1,60.5000021741388,2|0,0:0|0:0,0:0:0:0:
231,123,36700,1,8,0:0:0:0:
231,123,36820,2,0,B|160:141|160:141|110:128,1,121.000004348278,2|0,0:0|0:0,0:0:0:0:
62,211,37180,2,0,L|188:246,1,121.000004348278,8|2,0:0|0:0,0:0:0:0:
228,326,37540,1,0,0:0:0:0:
131,326,37660,2,0,L|37:299,1,60.5000021741388,8|0,0:0|0:0,0:0:0:0:
62,211,37900,6,0,B|75:139|75:139|61:79,1,121.000004348278,2|8,0:0|0:0,0:0:0:0:
249,38,38380,2,0,L|239:129,2,60.5000021741388,2|0|8,0:0|0:0|0:0,0:0:0:0:
249,38,38740,2,0,L|374:44,1,121.000004348278,2|0,0:0|0:0,0:0:0:0:
369,43,39100,1,8,0:0:0:0:
292,221,39340,2,0,L|304:304,1,60.5000021741388,2|0,0:0|0:0,0:0:0:0:
391,248,39580,2,0,L|399:188,1,60.5000021741388,8|0,0:0|0:0,0:0:0:0:
328,122,39820,6,0,L|207:116,1,121.000004348278,2|8,0:0|0:0,0:0:0:0:
56,237,40300,2,0,L|0:215,2,60.5000021741388,2|0|8,0:0|0:0|0:0,0:0:0:0:
100,324,40660,2,0,P|150:345|222:321,1,121.000004348278,2|0,0:0|0:0,0:0:0:0:
267,249,41020,1,8,0:0:0:0:
447,319,41260,2,0,L|434:394,2,60.5000021741388,2|0|8,0:0|0:0|0:0,0:0:0:0:
305,187,41740,5,6,0:0:0:0:
305,187,41860,2,0,L|293:260,1,60.5000021741388,4|12,0:0|0:0,0:0:0:0:
401,186,42100,5,6,0:0:0:0:
401,186,42220,2,0,L|475:192,1,60.5000021741388,4|4,0:0|0:0,0:0:0:0:
352,100,42460,5,14,0:0:0:0:
352,100,42580,2,0,L|231:89,1,121.000004348278,6|0,0:0|0:0,0:0:0:0:
231,89,42940,1,8,0:0:0:0:
114,268,43180,2,0,L|175:274,3,60.5000021741388,4|4|12|4,0:0|0:0|0:0|0:0,0:0:0:0:
175,274,43660,6,0,L|170:153,1,121.000004348278,4|8,0:1|0:0,0:0:0:0:
122,69,44020,1,0,0:0:0:0:
60,144,44140,2,0,L|-6:142,1,60.5000021741388,2|0,0:0|0:0,0:0:0:0:
44,227,44380,1,8,0:0:0:0:
44,227,44500,2,0,P|31:302|41:358,1,121.000004348278,2|0,0:0|0:0,0:0:0:0:
37,345,44860,1,8,0:0:0:0:
224,298,45100,1,2,0:0:0:0:
224,298,45220,1,0,0:0:0:0:
224,298,45340,2,0,L|238:223,1,60.5000021741388,8|0,0:0|0:0,0:0:0:0:
312,297,45580,6,0,B|390:315|390:315|451:303,1,121.000004348278,2|8,0:0|0:0,0:0:0:0:
469,116,46060,1,2,0:0:0:0:
469,116,46180,1,0,0:0:0:0:
403,45,46300,1,8,0:0:0:0:
403,45,46420,2,0,B|354:53|354:53|267:31,1,121.000004348278,2|0,0:0|0:0,0:0:0:0:
284,35,46780,1,8,0:0:0:0:
358,213,47020,2,0,L|350:274,1,60.5000021741388,2|0,0:0|0:0,0:0:0:0:
256,299,47260,2,0,L|242:215,1,60.5000021741388,8|0,0:0|0:0,0:0:0:0:
185,162,47500,6,0,P|136:143|64:165,1,121.000004348278,2|8,0:0|0:0,0:0:0:0:
36,350,47980,1,2,0:0:0:0:
36,350,48100,1,0,0:0:0:0:
119,306,48220,1,8,0:0:0:0:
119,306,48340,2,0,B|156:323|156:323|243:309,1,121.000004348278,2|0,0:0|0:0,0:0:0:0:
235,310,48700,1,8,0:0:0:0:
427,290,48940,2,0,L|426:362,1,60.5000021741388,2|0,0:0|0:0,0:0:0:0:
325,262,49180,2,0,L|316:189,1,60.5000021741388,8|0,0:0|0:0,0:0:0:0:
338,106,49420,5,14,0:0:0:0:
338,106,49540,2,0,L|410:103,1,60.5000021741388,4|4,0:0|0:0,0:0:0:0:
255,54,49780,5,14,0:0:0:0:
255,54,49900,2,0,L|182:47,1,60.5000021741388,4|4,0:0|0:0,0:0:0:0:
134,125,50140,5,14,0:0:0:0:
134,125,50260,1,4,0:0:0:0:
134,125,50380,2,0,L|123:208,2,60.5000021741388,4|12|12,0:0|0:0|0:0,0:0:0:0:
236,157,50740,1,4,0:0:0:0:
236,157,50860,6,0,L|242:253,1,60.5000021741388,14|0,0:0|0:0,0:0:0:0:
150,323,51100,2,0,L|154:262,1,60.5000021741388,8|0,0:0|0:0,0:0:0:0:
244,331,51340,6,0,P|289:345|365:319,1,110.000000596046,6|0,0:0|0:0,0:0:0:0:
431,201,51820,2,0,B|429:126|429:126|398:91,1,110.000000596046,10|4,0:0|0:0,0:0:0:0:
354,157,52180,2,0,B|321:170|321:170|233:147,2,110.000000596046,6|0|0,0:0|0:0|0:0,0:0:0:0:
320,87,52780,1,8,0:0:0:0:
166,87,53020,1,0,0:0:0:0:
166,87,53140,1,0,0:0:0:0:
166,87,53260,6,0,B|150:122|150:122|159:217,1,110.000000596046,6|0,0:0|0:0,0:0:0:0:
142,347,53740,2,0,P|193:360|255:345,1,110.000000596046,8|4,0:0|0:0,0:0:0:0:
296,287,54100,2,0,P|361:271|424:304,1,110.000000596046,6|0,0:0|0:0,0:0:0:0:
477,294,54460,1,0,0:0:0:0:
349,379,54700,1,8,0:0:0:0:
345,226,54940,1,0,0:0:0:0:
215,308,55180,6,0,B|220:273|220:273|197:200,1,110.000000596046,6|0,0:0|0:0,0:0:0:0:
62,130,55660,2,0,B|52:165|52:165|71:236,1,110.000000596046,8|4,0:0|0:0,0:0:0:0:
121,295,56020,2,0,P|77:313|15:293,2,110.000000596046,6|0|0,0:0|0:0|0:0,0:0:0:0:
174,239,56620,1,8,0:0:0:0:
327,219,56860,1,0,0:0:0:0:
243,87,57100,6,0,P|195:72|137:89,1,110.000000596046,6|0,0:0|0:0,0:0:0:0:
23,190,57580,2,0,B|11:259|11:259|27:306,1,110.000000596046,8|4,0:0|0:0,0:0:0:0:
87,252,57940,2,0,P|131:240|211:271,1,110.000000596046,6|8,0:0|0:0,0:0:0:0:
265,284,58300,6,0,L|274:195,1,55.000000298023,8|4,0:0|0:0,0:0:0:0:
342,259,58540,2,0,L|350:327,1,55.000000298023,8|4,0:0|0:0,0:0:0:0:
417,278,58780,2,0,L|423:203,1,55.000000298023,4|0,0:0|0:0,0:0:0:0:
433,147,59020,5,4,0:1:0:0:
105,150,65740,6,0,L|121:220,4,55.000000298023,2|0|0|0|8,0:0|0:0|0:0|0:0|0:0,0:0:0:0:
105,150,66700,6,0,P|164:121|262:160,1,165.000000894069,2|0,0:0|0:0,0:0:0:0:
318,107,67180,2,0,L|439:91,1,110.000000596046,8|0,0:0|0:0,0:0:0:0:
447,256,67660,2,0,L|335:242,1,110.000000596046,2|0,0:0|0:0,0:0:0:0:
184,226,68140,1,8,0:0:0:0:
272,352,68380,1,0,0:0:0:0:
277,198,68620,6,0,B|230:177|230:177|93:198,1,165.000000894069,2|0,0:0|0:0,0:0:0:0:
117,194,69100,1,8,0:0:0:0:
195,326,69340,2,0,L|179:397,2,55.000000298023,0|0|2,0:0|0:0|0:0,0:0:0:0:
195,326,69700,2,0,P|254:311|302:328,1,110.000000596046,0|0,0:0|0:0,0:0:0:0:
362,370,70060,2,0,P|420:383|483:353,1,110.000000596046,8|0,0:0|0:0,0:0:0:0:
495,215,70540,6,0,B|388:197|388:197|327:223,1,165.000000894069,2|0,0:0|0:0,0:0:0:0:
295,285,71020,2,0,P|246:287|190:234,1,110.000000596046,8|0,0:0|0:0,0:0:0:0:
198,252,71380,1,0,0:0:0:0:
31,91,71740,2,0,B|73:101|73:101|145:78,1,110.000000596046,0|8,0:0|0:0,0:0:0:0:
290,93,72220,1,0,0:0:0:0:
205,221,72460,6,0,B|178:287|216:342|216:342|249:310,1,165.000000894069,2|0,0:0|0:0,0:0:0:0:
302,266,72940,2,0,B|334:247|334:247|431:253,1,110.000000596046,8|0,0:0|0:0,0:0:0:0:
462,304,73300,2,0,B|446:268|446:268|457:175,1,110.000000596046,2|4,0:0|0:0,0:0:0:0:
440,122,73660,6,0,L|385:100,5,55.000000298023,4|4|12|4|4|4,0:0|0:0|0:0|0:0|0:0|0:0,0:0:0:0:
388,101,74380,6,0,P|321:123|264:97,2,123.75000539124,4|0|0,0:1|0:0|0:0,0:0:0:0:
333,202,75340,2,0,B|311:280|311:280|328:342,1,123.75000539124,2|0,0:0|0:0,0:0:0:0:
333,356,75820,2,0,L|247:358,1,82.5000035941599,8|0,0:0|0:0,0:0:0:0:
147,304,76300,6,0,P|165:245|151:186,2,123.75000539124,2|0|0,0:0|0:0|0:0,0:0:0:0:
44,358,77260,2,0,B|30:322|30:322|47:238,1,123.75000539124,2|0,0:0|0:0,0:0:0:0:
21,216,77740,2,0,L|38:125,1,82.5000035941599,8|0,0:0|0:0,0:0:0:0:
139,83,78220,6,0,B|175:106|175:106|286:101,2,123.75000539124,4|0|0,0:1|0:0|0:0,0:0:0:0:
193,184,79180,2,0,P|208:236|185:306,1,123.75000539124,2|0,0:0|0:0,0:0:0:0:
217,321,79660,2,0,L|299:310,1,82.5000035941599,8|0,0:0|0:0,0:0:0:0:
444,259,80140,6,0,L|456:90,1,165.000000894069,4|0,0:1|0:0,0:0:0:0:
455,94,80620,1,8,0:0:0:0:
334,189,80860,1,0,0:0:0:0:
212,94,81100,2,0,L|217:34,2,55.000000298023,2|0|0,0:0|0:0|0:0,0:0:0:0:
118,247,81580,2,0,L|138:165,1,55.000000298023,8|0,0:0|0:0,0:0:0:0:
199,227,81820,2,0,L|206:281,1,55.000000298023,4|0,0:0|0:0,0:0:0:0:
142,323,82060,6,0,L|33:315,1,110.000000596046,4|0,0:1|0:0,0:0:0:0:
32,314,82420,1,0,0:0:0:0:
194,149,82780,2,0,P|246:137|304:149,1,110.000000596046,8|2,0:0|0:0,0:0:0:0:
349,207,83140,2,0,B|420:217|420:217|466:202,1,110.000000596046,0|0,0:0|0:0,0:0:0:0:
456,205,83500,1,8,0:0:0:0:
380,70,83740,1,0,0:0:0:0:
230,34,83980,6,0,L|175:54,7,55.000000298023,6|4|4|4|4|4|4|4,0:0|0:0|0:0|0:0|0:0|0:0|0:0|0:0,0:0:0:0:
178,52,85900,6,0,L|176:192,1,121.000004348278,4|8,0:1|0:0,0:0:0:0:
114,244,86260,1,0,0:0:0:0:
171,323,86380,2,0,L|249:349,1,60.5000021741388,2|0,0:0|0:0,0:0:0:0:
281,261,86620,1,8,0:0:0:0:
281,261,86740,2,0,B|352:243|352:243|402:256,1,121.000004348278,2|0,0:0|0:0,0:0:0:0:
453,384,87100,2,0,L|327:349,1,121.000004348278,8|2,0:0|0:0,0:0:0:0:
228,342,87460,1,0,0:0:0:0:
183,256,87580,2,0,L|199:197,1,60.5000021741388,8|0,0:0|0:0,0:0:0:0:
309,195,87820,6,0,B|381:208|381:208|441:194,1,121.000004348278,2|8,0:0|0:0,0:0:0:0:
263,346,88300,2,0,L|273:255,2,60.5000021741388,2|0|8,0:0|0:0|0:0,0:0:0:0:
263,346,88660,2,0,L|138:340,1,121.000004348278,2|0,0:0|0:0,0:0:0:0:
143,341,89020,1,8,0:0:0:0:
23,188,89260,2,0,L|101:168,1,60.5000021741388,2|0,0:0|0:0,0:0:0:0:
135,92,89500,2,0,L|137:30,1,60.5000021741388,8|0,0:0|0:0,0:0:0:0:
174,179,89740,6,0,B|246:203|246:203|299:194,1,121.000004348278,2|8,0:0|0:0,0:0:0:0:
453,101,90220,2,0,L|509:123,2,60.5000021741388,2|0|8,0:0|0:0|0:0,0:0:0:0:
386,30,90580,2,0,L|264:33,1,121.000004348278,2|0,0:0|0:0,0:0:0:0:
209,112,90940,1,8,0:0:0:0:
354,240,91180,2,0,L|343:299,2,60.5000021741388,2|0|8,0:0|0:0|0:0,0:0:0:0:
182,327,91660,5,6,0:0:0:0:
182,327,91780,2,0,L|109:339,1,60.5000021741388,4|12,0:0|0:0,0:0:0:0:
232,241,92020,5,6,0:0:0:0:
232,241,92140,2,0,L|248:168,1,60.5000021741388,4|4,0:0|0:0,0:0:0:0:
280,330,92380,5,14,0:0:0:0:
280,330,92500,2,0,B|341:373|341:373|401:373,1,121.000004348278,6|0,0:0|0:0,0:0:0:0:
483,365,92860,1,8,0:0:0:0:
397,115,93100,2,0,L|336:109,3,60.5000021741388,4|4|12|4,0:0|0:0|0:0|0:0,0:0:0:0:
337,110,93580,6,0,L|342:231,1,121.000004348278,4|8,0:1|0:0,0:0:0:0:
390,315,93940,1,0,0:0:0:0:
476,270,94060,2,0,L|478:204,1,60.5000021741388,2|0,0:0|0:0,0:0:0:0:
455,116,94300,1,8,0:0:0:0:
455,116,94420,2,0,P|380:103|324:113,1,121.000004348278,2|0,0:0|0:0,0:0:0:0:
271,36,94780,1,8,0:0:0:0:
213,220,95020,1,2,0:0:0:0:
213,220,95140,1,0,0:0:0:0:
213,220,95260,2,0,L|235:298,1,60.5000021741388,8|0,0:0|0:0,0:0:0:0:
200,87,95500,6,0,B|122:69|122:69|61:81,1,121.000004348278,2|8,0:0|0:0,0:0:0:0:
43,268,95980,1,2,0:0:0:0:
43,268,96100,1,0,0:0:0:0:
109,339,96220,1,8,0:0:0:0:
109,339,96340,2,0,B|158:331|158:331|245:353,1,121.000004348278,2|0,0:0|0:0,0:0:0:0:
228,349,96700,1,8,0:0:0:0:
154,171,96940,2,0,L|162:110,1,60.5000021741388,2|0,0:0|0:0,0:0:0:0:
256,85,97180,2,0,L|270:169,1,60.5000021741388,8|0,0:0|0:0,0:0:0:0:
327,222,97420,6,0,P|376:241|448:219,1,121.000004348278,2|8,0:0|0:0,0:0:0:0:
476,34,97900,1,2,0:0:0:0:
476,34,98020,1,0,0:0:0:0:
393,78,98140,1,8,0:0:0:0:
393,78,98260,2,0,B|356:61|356:61|269:75,1,121.000004348278,2|0,0:0|0:0,0:0:0:0:
277,74,98620,1,8,0:0:0:0:
85,94,98860,2,0,L|86:22,1,60.5000021741388,2|0,0:0|0:0,0:0:0:0:
187,122,99100,2,0,L|196:195,1,60.5000021741388,8|0,0:0|0:0,0:0:0:0:
174,278,99340,5,14,0:0:0:0:
174,278,99460,2,0,L|102:281,1,60.5000021741388,4|4,0:0|0:0,0:0:0:0:
257,330,99700,5,14,0:0:0:0:
257,330,99820,2,0,L|330:337,1,60.5000021741388,4|4,0:0|0:0,0:0:0:0:
378,259,100060,5,14,0:0:0:0:
378,259,100180,1,4,0:0:0:0:
378,259,100300,2,0,L|389:176,1,60.5000021741388,4|12,0:0|0:0,0:0:0:0:
293,170,100540,2,0,L|276:97,1,60.5000021741388,12|4,0:0|0:0,0:0:0:0:
446,202,100780,6,0,L|385:198,1,60.5000021741388,14|0,0:0|0:0,0:0:0:0:
297,296,101021,2,0,L|357:292,1,60.5000021741388,4|0,0:0|0:0,0:0:0:0:
256,192,101260,12,0,103900,0:0:0:0:
423,166,105100,6,0,B|455:133|455:133|452:244,2,148.499996272802,2|0|0,0:0|0:0|0:0,0:0:0:0:
305,298,106300,2,0,L|177:288,1,98.9999975152012,0|0,0:0|0:0,0:0:0:0:
165,210,106780,1,0,0:0:0:0:
103,274,107020,6,0,B|71:307|71:307|74:196,2,148.499996272802,2|0|0,0:0|0:0|0:0,0:0:0:0:
220,140,108220,2,0,L|337:140,1,98.9999975152012,0|0,0:0|0:0,0:0:0:0:
364,312,108940,6,4,B|461:332|461:332|519:305,2,148.499996272802,6|4|4,0:0|0:0|0:0,0:0:0:0:
277,291,109900,1,8,0:0:0:0:
104,247,110380,2,0,B|100:187|100:187|130:140,1,98.9999975152012,0|0,0:0|0:0,0:0:0:0:
206,130,110860,2,4,B|265:139|298:99|298:99|351:138,2,148.499996272802,6|4|4,0:0|0:0|0:0,0:0:0:0:
226,42,111820,5,8,0:0:0:0:
140,67,112060,2,0,L|91:59,3,32.9999991717337,0|0|0|8,0:0|0:0|0:0|0:0,0:0:0:0:
194,217,112780,6,4,B|291:237|291:237|349:210,2,148.499996272802,6|4|4,0:0|0:0|0:0,0:0:0:0:
116,261,113740,1,8,0:0:0:0:
0,125,114220,2,0,B|1:60|1:60|26:18,1,98.9999975152012,0|0,0:0|0:0,0:0:0:0:
85,88,114700,2,4,B|144:97|182:66|182:66|176:121,2,148.499996272802,6|4|4,0:0|0:0|0:0,0:0:0:0:
61,265,115900,2,0,P|107:256|185:255,1,98.9999975152012,0|0,0:0|0:0,0:0:0:0:
158,253,116620,6,0,P|154:199|166:109,1,110.000000596046,2|0,0:0|0:0,0:0:0:0:
227,88,116980,2,0,L|336:78,1,110.000000596046,0|0,0:0|0:0,0:0:0:0:
77,26,117580,1,2,0:0:0:0:
77,26,117700,2,0,B|65:62|65:62|69:135,1,110.000000596046,0|0,0:0|0:0,0:0:0:0:
168,379,118300,1,0,0:0:0:0:
17,273,118540,6,0,P|68:279|129:266,2,110.000000596046,2|0|8,0:0|0:0|0:0,0:0:0:0:
203,141,119260,2,0,B|247:168|266:218|266:218|321:194|321:194|404:221,1,220.000001192092,0|0,0:0|0:0,0:0:0:0:
422,381,119980,2,0,L|343:360,1,55.000000298023,8|0,0:0|0:0,0:0:0:0:
368,366,120700,6,0,B|367:321|350:290|350:290|380:260|380:260|375:174,1,165.000000894069,0|0,0:0|0:0,0:0:0:0:
122,282,121420,2,0,B|155:314|155:314|209:292|209:292|274:337,2,165.000000894069,0|0|0,0:0|0:0|0:0,0:0:0:0:
24,135,122380,6,0,P|77:148|133:133,1,110.000000596046,2|0,0:0|0:0,0:0:0:0:
268,245,122860,2,0,P|321:231|399:241,1,110.000000596046,8|0,0:0|0:0,0:0:0:0:
432,302,123220,2,0,B|387:272|376:210|412:169|412:169|403:113|403:113|346:132|346:132|260:113,1,330.000001788138,2|4,0:0|0:0,0:0:0:0:
81,231,124540,6,0,L|10:264,1,55.000000298023,8|0,0:0|0:0,0:0:0:0:
64,146,124780,2,0,L|-6:180,1,55.000000298023,6|0,0:0|0:0,0:0:0:0:
71,63,125020,2,0,L|128:27,1,55.000000298023,12|4,0:0|0:0,0:0:0:0:
188,86,125260,6,0,L|137:120,1,55.000000298023,6|4,0:0|0:0,0:0:0:0:
212,168,125500,2,0,L|175:217,1,55.000000298023,12|4,0:0|0:0,0:0:0:0:
261,243,125740,6,0,L|243:301,1,55.000000298023,6|4,0:0|0:0,0:0:0:0:
334,300,125980,2,0,L|337:361,1,55.000000298023,12|4,0:0|0:0,0:0:0:0:
424,291,126220,6,0,P|436:247|429:173,1,110.000000596046,6|0,0:0|0:0,0:0:0:0:
277,99,126700,2,0,P|224:97|167:84,1,110.000000596046,8|0,0:0|0:0,0:0:0:0:
105,146,127060,6,0,P|212:260|269:169,1,275.000001490115,2|8,0:0|0:0,0:0:0:0:
306,35,127900,2,0,L|363:40,1,55.000000298023,2|0,0:0|0:0,0:0:0:0:
346,126,128140,6,0,P|335:177|373:240,1,110.000000596046
423,167,128500,2,0,B|344:166|344:166|306:195|306:195|254:178,1,165.000000894069,0|0,0:0|0:0,0:0:0:0:
104,243,129100,6,0,B|150:271|150:271|199:253|199:253|262:275,1,165.000000894069,2|0,0:0|0:0,0:0:0:0:
209,348,129580,2,0,B|277:371|277:371|314:347|314:347|373:344,1,165.000000894069,8|0,0:0|0:0,0:0:0:0:
345,258,130060,5,2,0:0:0:0:
256,192,130180,12,0,131020,0:0:0:0:
256,192,131980,5,4,0:0:0:0:
256,192,139660,5,4,0:0:0:0:
156,137,141580,6,0,L|136:253,1,110.000000596046,4|4,0:0|0:0,0:0:0:0:
313,248,142060,2,0,L|300:128,1,110.000000596046,4|12,0:0|0:0,0:0:0:0:
301,138,143500,6,0,L|161:136,1,121.000004348278,4|8,0:1|0:0,0:0:0:0:
123,214,143860,1,0,0:0:0:0:
185,287,143980,2,0,L|263:261,1,60.5000021741388,2|0,0:0|0:0,0:0:0:0:
338,281,144220,1,8,0:0:0:0:
338,281,144340,2,0,B|412:303|412:303|455:286,1,121.000004348278,2|0,0:0|0:0,0:0:0:0:
483,182,144700,2,0,L|357:147,1,121.000004348278,8|2,0:0|0:0,0:0:0:0:
277,189,145060,1,0,0:0:0:0:
190,231,145180,2,0,L|96:204,1,60.5000021741388,8|0,0:0|0:0,0:0:0:0:
52,159,145420,6,0,P|41:101|67:32,1,121.000004348278,2|8,0:0|0:0,0:0:0:0:
240,112,145900,2,0,L|230:203,2,60.5000021741388,2|0|8,0:0|0:0|0:0,0:0:0:0:
323,162,146260,2,0,L|448:168,1,121.000004348278,2|0,0:0|0:0,0:0:0:0:
443,167,146620,1,8,0:0:0:0:
369,346,146860,2,0,L|286:334,1,60.5000021741388,2|0,0:0|0:0,0:0:0:0:
202,262,147100,2,0,L|262:254,1,60.5000021741388,8|0,0:0|0:0,0:0:0:0:
347,206,147340,6,0,P|356:156|353:85,1,121.000004348278,2|8,0:0|0:0,0:0:0:0:
165,132,147820,2,0,L|109:110,2,60.5000021741388,2|0|8,0:0|0:0|0:0,0:0:0:0:
96,201,148180,2,0,P|75:251|99:323,1,121.000004348278,2|0,0:0|0:0,0:0:0:0:
182,347,148540,1,8,0:0:0:0:
334,228,148780,2,0,L|409:215,2,60.5000021741388,2|0|8,0:0|0:0|0:0,0:0:0:0:
165,133,149260,5,6,0:0:0:0:
165,133,149380,2,0,L|134:60,1,60.5000021741388,4|12,0:0|0:0,0:0:0:0:
250,187,149620,5,6,0:0:0:0:
250,187,149740,2,0,L|324:193,1,60.5000021741388,4|4,0:0|0:0,0:0:0:0:
169,221,149980,5,14,0:0:0:0:
169,221,150100,2,0,B|145:255|145:255|136:342,1,121.000004348278,6|0,0:0|0:0,0:0:0:0:
136,333,150460,1,8,0:0:0:0:
24,174,150700,2,0,L|29:112,3,60.5000021741388,4|4|12|4,0:0|0:0|0:0|0:0,0:0:0:0:
29,113,151180,6,0,L|150:108,1,121.000004348278,4|8,0:1|0:0,0:0:0:0:
226,168,151540,1,0,0:0:0:0:
303,110,151660,2,0,L|304:49,1,60.5000021741388,2|0,0:0|0:0,0:0:0:0:
316,207,151900,1,8,0:0:0:0:
316,207,152020,2,0,P|381:235|433:231,1,121.000004348278,2|0,0:0|0:0,0:0:0:0:
429,231,152380,1,8,0:0:0:0:
308,382,152620,1,2,0:0:0:0:
308,382,152740,1,0,0:0:0:0:
308,382,152860,2,0,L|233:368,1,60.5000021741388,8|0,0:0|0:0,0:0:0:0:
167,317,153100,6,0,B|185:239|185:239|173:178,1,121.000004348278,2|8,0:0|0:0,0:0:0:0:
89,25,153580,1,2,0:0:0:0:
89,25,153700,1,0,0:0:0:0:
15,91,153820,1,8,0:0:0:0:
15,91,153940,2,0,B|90:112|90:112|133:100,1,121.000004348278,2|0,0:0|0:0,0:0:0:0:
131,100,154300,1,8,0:0:0:0:
275,269,154540,2,0,L|282:209,1,60.5000021741388,2|0,0:0|0:0,0:0:0:0:
380,203,154780,2,0,L|366:119,1,60.5000021741388,8|0,0:0|0:0,0:0:0:0:
427,64,155020,6,0,P|378:45|306:67,1,121.000004348278,2|8,0:0|0:0,0:0:0:0:
184,206,155500,1,2,0:0:0:0:
184,206,155620,1,0,0:0:0:0:
141,293,155740,1,8,0:0:0:0:
141,293,155860,2,0,B|178:310|178:310|265:296,1,121.000004348278,2|0,0:0|0:0,0:0:0:0:
257,297,156220,1,8,0:0:0:0:
441,239,156460,2,0,L|440:311,1,60.5000021741388,2|0,0:0|0:0,0:0:0:0:
340,227,156700,2,0,L|331:154,1,60.5000021741388,8|0,0:0|0:0,0:0:0:0:
197,179,156940,5,14,0:0:0:0:
197,179,157060,2,0,L|125:182,1,60.5000021741388,4|4,0:0|0:0,0:0:0:0:
274,95,157300,5,14,0:0:0:0:
274,95,157420,2,0,L|347:88,1,60.5000021741388,4|4,0:0|0:0,0:0:0:0:
161,63,157660,5,14,0:0:0:0:
161,63,157780,1,4,0:0:0:0:
161,63,157900,2,0,L|92:60,5,36.6666668653487,8|8|8|4|4|4,0:0|0:1|0:1|0:0|0:0|0:0,0:0:0:0:
64,129,158380,6,4,L|8:131,3,36.6666668653487,8|8|8|4,0:3|0:3|0:3|0:3,0:0:0:0:
177,253,158860,6,0,L|317:255,1,121.000004348278,4|8,0:1|0:0,0:0:0:0:
376,197,159220,1,0,0:0:0:0:
456,251,159340,2,0,L|450:328,1,60.5000021741388,2|0,0:0|0:0,0:0:0:0:
462,153,159580,1,8,0:0:0:0:
462,153,159700,2,0,P|479:100|454:34,1,121.000004348278,2|0,0:0|0:0,0:0:0:0:
381,99,160060,2,0,L|255:105,1,121.000004348278,8|2,0:0|0:0,0:0:0:0:
183,164,160420,1,0,0:0:0:0:
105,106,160540,2,0,L|118:33,1,60.5000021741388,8|0,0:0|0:0,0:0:0:0:
212,170,160780,6,0,B|197:243|197:243|213:302,1,121.000004348278,2|8,0:0|0:0,0:0:0:0:
16,264,161260,2,0,L|37:184,2,60.5000021741388,2|0|8,0:0|0:0|0:0,0:0:0:0:
49,355,161620,2,0,P|108:373|176:349,1,121.000004348278,2|0,0:0|0:0,0:0:0:0:
163,357,161980,1,8,0:0:0:0:
271,161,162220,2,0,L|211:169,1,60.5000021741388,2|0,0:0|0:0,0:0:0:0:
330,247,162460,2,0,L|390:255,1,60.5000021741388,8|0,0:0|0:0,0:0:0:0:
491,161,162700,6,0,P|435:138|370:155,1,121.000004348278,2|8,0:0|0:0,0:0:0:0:
227,272,163180,2,0,L|240:332,2,60.5000021741388,2|0|8,0:0|0:0|0:0,0:0:0:0:
178,188,163540,2,0,P|128:167|56:191,1,121.000004348278,2|0,0:0|0:0,0:0:0:0:
118,264,163900,1,8,0:0:0:0:
181,81,164140,2,0,L|91:63,2,60.5000021741388,2|0|8,0:0|0:0|0:0,0:0:0:0:
305,187,164620,5,6,0:0:0:0:
305,187,164740,2,0,L|293:260,1,60.5000021741388,4|12,0:0|0:0,0:0:0:0:
401,186,164980,5,6,0:0:0:0:
401,186,165100,2,0,L|475:192,1,60.5000021741388,4|4,0:0|0:0,0:0:0:0:
352,100,165340,5,14,0:0:0:0:
352,100,165460,2,0,L|231:89,1,121.000004348278,6|0,0:0|0:0,0:0:0:0:
231,89,165820,1,8,0:0:0:0:
114,268,166060,2,0,L|175:274,3,60.5000021741388,4|4|12|4,0:0|0:0|0:0|0:0,0:0:0:0:
175,274,166540,6,0,L|170:153,1,121.000004348278,4|8,0:1|0:0,0:0:0:0:
122,69,166900,1,0,0:0:0:0:
60,144,167020,2,0,L|-6:142,1,60.5000021741388,2|0,0:0|0:0,0:0:0:0:
44,227,167260,1,8,0:0:0:0:
44,227,167380,2,0,P|31:302|41:358,1,121.000004348278,2|0,0:0|0:0,0:0:0:0:
37,345,167740,1,8,0:0:0:0:
224,298,167980,1,2,0:0:0:0:
224,298,168100,1,0,0:0:0:0:
224,298,168220,2,0,L|238:223,1,60.5000021741388,8|0,0:0|0:0,0:0:0:0:
312,297,168460,6,0,B|390:315|390:315|451:303,1,121.000004348278,2|8,0:0|0:0,0:0:0:0:
469,116,168940,1,2,0:0:0:0:
469,116,169060,1,0,0:0:0:0:
403,45,169180,1,8,0:0:0:0:
403,45,169300,2,0,B|354:53|354:53|267:31,1,121.000004348278,2|0,0:0|0:0,0:0:0:0:
284,35,169660,1,8,0:0:0:0:
358,213,169900,2,0,L|350:274,1,60.5000021741388,2|0,0:0|0:0,0:0:0:0:
256,299,170140,2,0,L|242:215,1,60.5000021741388,8|0,0:0|0:0,0:0:0:0:
185,162,170380,6,0,P|136:143|64:165,1,121.000004348278,2|8,0:0|0:0,0:0:0:0:
36,350,170860,1,2,0:0:0:0:
36,350,170980,1,0,0:0:0:0:
119,306,171100,1,8,0:0:0:0:
119,306,171220,2,0,B|156:323|156:323|243:309,1,121.000004348278,2|0,0:0|0:0,0:0:0:0:
235,310,171580,1,8,0:0:0:0:
427,290,171820,2,0,L|426:362,1,60.5000021741388,2|0,0:0|0:0,0:0:0:0:
325,262,172060,2,0,L|316:189,1,60.5000021741388,8|0,0:0|0:0,0:0:0:0:
338,106,172300,5,14,0:0:0:0:
338,106,172420,2,0,L|410:103,1,60.5000021741388,4|4,0:0|0:0,0:0:0:0:
255,54,172660,5,14,0:0:0:0:
255,54,172780,2,0,L|182:47,1,60.5000021741388,4|4,0:0|0:0,0:0:0:0:
134,125,173020,5,14,0:0:0:0:
134,125,173140,1,4,0:0:0:0:
134,125,173260,2,0,L|123:208,2,60.5000021741388,4|12|12,0:0|0:0|0:0,0:0:0:0:
236,157,173620,1,4,0:0:0:0:
236,157,173740,6,0,L|242:253,1,60.5000021741388,14|4,0:0|0:0,0:0:0:0:
156,347,173980,2,0,L|160:286,1,60.5000021741388,8|0,0:0|0:0,0:0:0:0:
262,327,174220,6,0,P|307:341|383:315,1,110.000000596046,6|0,0:0|0:0,0:0:0:0:
409,156,174700,2,0,B|334:158|334:158|299:189,1,110.000000596046,8|4,0:0|0:0,0:0:0:0:
219,176,175060,2,0,B|189:196|189:196|98:193,2,110.000000596046,2|0|0,0:0|0:0|0:0,0:0:0:0:
163,106,175660,1,8,0:0:0:0:
222,284,175900,1,4,0:0:0:0:
222,284,176020,1,0,0:0:0:0:
222,284,176140,6,0,B|257:300|257:300|352:291,1,110.000000596046,6|0,0:0|0:0,0:0:0:0:
444,160,176620,2,0,P|393:147|331:162,1,110.000000596046,8|4,0:0|0:0,0:0:0:0:
275,221,176980,2,0,P|207:237|140:207,1,110.000000596046,6|0,0:0|0:0,0:0:0:0:
109,161,177340,1,0,0:0:0:0:
44,324,177580,1,8,0:0:0:0:
11,151,177820,1,4,0:0:0:0:
169,226,178060,6,0,B|204:231|204:231|277:208,1,110.000000596046,6|0,0:0|0:0,0:0:0:0:
365,56,178540,2,0,B|330:46|330:46|259:65,1,110.000000596046,8|4,0:0|0:0,0:0:0:0:
202,132,178900,2,0,P|158:150|96:130,2,110.000000596046,6|0|0,0:0|0:0|0:0,0:0:0:0:
151,59,179500,1,8,0:0:0:0:
87,223,179740,1,0,0:0:0:0:
225,331,179980,6,0,B|258:311|258:311|363:308,1,110.000000596046,6|0,0:0|0:0,0:0:0:0:
485,225,180460,2,0,B|497:156|497:156|481:109,1,110.000000596046,8|4,0:0|0:0,0:0:0:0:
411,167,180820,2,0,P|358:182|305:170,1,110.000000596046,6|4,0:0|0:0,0:0:0:0:
223,131,181180,6,0,L|218:186,1,55.000000298023,4|4,0:0|0:0,0:0:0:0:
137,256,181420,2,0,L|131:202,1,55.000000298023,12|4,0:0|0:0,0:0:0:0:
223,277,181660,2,4,L|219:332,1,55.000000298023,0|4,0:0|0:0,0:0:0:0:
315,297,181900,6,0,P|345:267|425:288,1,123.75000539124,0|0,0:0|0:0,0:0:0:0:
481,342,182380,6,0,L|471:217,1,110.000000596046,8|8,0:1|0:1,0:0:0:0:
319,143,182860,2,0,P|265:159|209:156,1,110.000000596046,8|0,0:1|0:0,0:0:0:0:
14,26,183340,2,0,P|68:24|146:32,1,110.000000596046,0|8,0:0|0:1,0:0:0:0:
255,247,183820,6,0,P|200:254|146:256,2,110.000000596046,8|0|0,0:1|0:0|0:0,0:0:0:0:
179,82,184540,1,8,0:1:0:0:
45,196,184780,2,0,L|56:305,1,110.000000596046,8|0,0:1|0:0,0:0:0:0:
216,380,185260,1,8,0:1:0:0:
198,204,185500,1,0,0:0:0:0:
198,204,185620,1,8,0:1:0:0:
198,204,185740,6,0,P|255:212|311:214,1,110.000000596046,0|0,0:0|0:0,0:0:0:0:
482,196,186220,2,0,L|471:332,1,110.000000596046,8|0,0:1|0:0,0:0:0:0:
387,330,186580,2,0,P|337:321|248:324,1,110.000000596046,8|0,0:1|0:0,0:0:0:0:
22,249,187180,2,0,P|82:243|177:219,1,110.000000596046,8|0,0:1|0:0,0:0:0:0:
194,172,187540,1,8,0:1:0:0:
194,172,187660,6,0,P|249:188|321:167,1,110.000000596046,0|0,0:0|0:0,0:0:0:0:
377,20,188140,2,0,L|267:24,1,110.000000596046,8|0,0:1|0:0,0:0:0:0:
201,82,188500,2,0,P|146:75|96:52,1,110.000000596046,8|0,0:1|0:0,0:0:0:0:
87,139,188860,6,0,L|83:199,4,55.000000298023,8|0|8|0|8,0:1|0:0|0:1|0:0|0:1,0:0:0:0:
