osu file format v9

[General]
AudioFilename: koisuru.mp3
AudioLeadIn: 982
PreviewTime: 90920
Countdown: 0
SampleSet: Soft
StackLeniency: 0.7
Mode: 0
LetterboxInBreaks: 1

[Editor]
DistanceSpacing: 0.9
BeatDivisor: 4
GridSize: 8

[Metadata]
Title:Koisuru*Uchuu Sensou!! (Ryu* Remix)
Artist:Prim
Creator:DoKoLP
Version:DoKo
Source:beatmania IIDX 19 Lincle
Tags:OnosakiHito L.E.D. cyber beatnation2 - Hi Speed conclusion-

[Difficulty]
HPDrainRate:6
CircleSize:4
OverallDifficulty:9
ApproachRate:9
SliderMultiplier:1.8
SliderTickRate:2

[Events]
//Background and Video events
0,0,"22287805.png"
//Break Periods
2,10923,18379
2,130038,138379
//Storyboard Layer 0 (Background)
//Storyboard Layer 1 (Fail)
//Storyboard Layer 2 (Pass)
//Storyboard Layer 3 (Foreground)
//Storyboard Sound Samples
//Background Colour Transformations
3,100,163,162,255

[TimingPoints]
110,294.840294840295,4,1,0,50,1,0
1436,-100,4,2,0,100,0,0
3648,-100,4,2,0,100,0,0
10429,-100,4,1,0,65,0,0
10503,-100,4,1,0,60,0,0
10576,-100,4,1,0,50,0,0
10650,-100,4,1,0,40,0,0
10724,-100,4,1,0,30,0,0
18979,-100,4,1,0,60,0,0
20159,-100,4,1,0,70,0,0
40208,-100,4,1,0,40,0,0
41092,-66.6666666666667,4,1,0,70,0,0
41387,-100,4,1,0,70,0,1
62616,-100,4,1,0,70,0,0
88562,-100,4,1,0,80,0,0
89151,-100,4,1,0,90,0,0
89594,-100,4,1,0,100,0,0
90920,-100,4,1,0,40,0,0
91805,-66.6666666666667,4,1,0,70,0,0
92100,-100,4,1,0,70,0,1
129839,-100,4,1,0,70,0,0
147824,-111.111111111111,4,1,0,70,0,0
148119,-125,4,1,0,70,0,0
148414,-142.857142857143,4,1,0,70,0,0
148709,-166.666666666667,4,2,0,60,0,0
155785,-125,4,2,0,60,0,0
156080,-100,4,2,0,60,0,0
156375,-83.3333333333333,4,2,0,60,0,0
156670,-71.4285714285714,4,2,0,60,0,0
156965,-62.5,4,2,0,60,0,0
157259,-55.5555555555556,4,2,0,60,0,0
158144,-50,4,1,0,60,0,0
165220,-100,4,1,0,60,0,0
166399,-100,4,2,0,60,0,0
168758,-100,4,1,0,40,0,0
169643,-66.6666666666667,4,1,0,70,0,0
169938,-100,4,1,0,70,0,1
212395,-100,4,1,0,50,0,0
231264,-100,4,1,0,100,0,0

[Colours]
Combo1 : 41,226,217
Combo2 : 23,135,202
Combo3 : 98,52,192
Combo4 : 218,61,218

[HitObjects]
184,192,1289,2,0,B|208:144|256:152,1,90,4|0
328,192,1584,2,0,B|304:240|256:232,1,90,2|0
255,152,1879,2,0,B|304:144|328:192,1,90
256,231,2173,2,0,B|208:240|184:192,1,90,2|0
256,72,2468,6,0,B|312:72|328:128,1,90
256,312,2763,2,0,B|200:312|184:256,1,90,2|0
376,192,3058,2,0,B|376:248|320:264,1,90
136,192,3353,2,0,B|136:136|192:120,1,90,2|0
376,296,3648,6,0,B|336:320|328:368,1,90,8|0
328,176,3942,2,0,B|296:264,1,90,8|0
184,176,4237,2,0,B|216:264,1,90,8|0
136,296,4532,2,0,B|176:320|184:368,1,90,8|0
256,192,4827,6,0,B|256:104,1,90
328,232,5122,2,0,B|304:280|256:288|208:280|184:232,1,180,8|8
256,32,5711,1,0
256,112,5859,1,0
256,192,6006,6,0,B|160:192,1,90,8|0
256,192,6301,2,0,B|188:259,1,90,8|0
256,192,6596,2,0,B|323:259,1,90,8|0
256,192,6891,2,0,B|352:192,1,90,8|0
256,112,7186,5,2
280,264,7333,1,0
256,272,7407,1,0
232,264,7481,2,0,B|192:224|144:264|96:304|48:264,1,180,2|0
24,200,7923,1,0
40,192,7996,1,0
56,192,8070,1,2
160,112,8217,1,0
144,112,8291,1,0
128,104,8365,6,0,B|72:96|48:48,1,90,2|0
256,48,8660,2,0,B|312:56|336:104,1,90
256,128,8955,1,2
336,192,9102,1,0
256,256,9250,1,0
176,192,9397,1,0
256,328,9544,5,2
336,192,9692,1,0
360,160,9766,1,0
384,128,9839,1,2
432,256,9987,1,0
408,288,10060,1,0
384,320,10134,1,2
344,320,10208,1,0
304,320,10281,1,0
264,320,10355,1,0
224,320,10429,2,0,B|192:320,6,30,0|0|0|0|0|0|4
256,48,18979,5,0
256,80,19274,1,0
256,112,19569,1,0
256,144,19864,5,0
256,160,19938,1,0
256,176,20011,1,0
256,192,20085,1,0
256,208,20159,6,0,B|256:304|144:336,1,180,4|0
72,344,20601,1,0
24,280,20748,1,0
56,208,20896,1,0
136,208,21043,1,0
176,280,21191,1,0
256,352,21338,6,0,B|304:328|344:352|344:352|336:312|376:272,1,180,2|0
374,110,21780,2,0,B|336:72|344:32|344:32|304:56|256:32,1,180,2|0
176,16,22223,2,0,B|128:8,2,45
200,96,22517,6,0,B|152:112|144:144|144:144|160:208|96:240,1,180
64,160,22960,2,0,B|16:176|16:232,1,90
64,296,23254,1,0
144,320,23402,2,0,B|184:336|208:320|224:296|216:264|216:264|240:264|256:296|272:264|296:264|296:264|288:296|304:320|328:336|368:320,1,315
400,304,23992,6,0,B|432:272|440:224,1,90,2|0
416,80,24286,2,0,B|384:120|336:120,1,90,2|0
256,240,24581,2,0,B|256:192|200:160,1,90
136,136,24876,6,0,B|80:136|48:96|56:32|112:16,1,180
176,64,25318,2,0,B|224:64|264:40,1,90
344,24,25613,1,0
424,40,25761,2,0,B|464:72|480:112|480:112|488:120|488:120|464:152|464:192,1,180,0|8
480,272,26203,5,0
472,288,26277,1,0
456,296,26350,2,0,B|416:328|368:336|320:320|296:288|312:248|352:232|160:232|200:248|216:288|192:320|144:336|96:328|56:296,1,450,8|0
120,240,27235,6,0,B|144:200|200:184,1,90
321,187,27530,2,0,B|368:200|392:240,1,90
312,272,27824,1,0
200,272,27972,1,0
256,160,28119,2,0,B|256:72,1,90
176,96,28414,5,8
96,112,28562,1,0
56,104,28635,1,0
24,80,28709,1,8
56,240,28856,1,0
136,256,29004,1,8
176,240,29078,1,0
208,216,29151,1,8
248,200,29225,1,0
288,208,29299,1,8
360,248,29446,1,0
416,312,29594,6,0,B|504:320,1,90,2|0
376,72,29888,2,0,B|464:64,1,90,2|0
264,296,30183,2,0,B|352:304,1,90,2|0
224,88,30478,2,0,B|312:80,1,90,2|0
112,280,30773,2,0,B|200:288,1,90,2|0
72,104,31068,2,0,B|160:96,1,90,2|0
256,192,31363,5,8
424,192,31510,1,0
424,192,31584,1,0
424,192,31657,1,8
256,344,31805,1,8
88,192,31952,6,0,B|48:112,1,90,2|0
192,104,32247,2,0,B|176:16,1,90,2|0
320,104,32542,2,0,B|336:16,1,90,2|0
424,192,32837,2,0,B|464:112,1,90,2|0
256,264,33132,5,8
192,104,33279,1,0
168,136,33353,1,0
136,152,33426,1,8
312,152,33574,1,0
312,152,33648,1,0
312,152,33721,6,0,B|368:160|400:112,1,90,2|0
248,232,34016,2,0,B|292:266|344:241,1,90,2|0
152,272,34311,2,0,B|173:324|230:328,1,90,2|0
48,264,34606,2,0,B|39:320|87:352,1,90,2|0
104,192,34901,5,2
256,112,35048,1,0
256,272,35195,1,2
120,160,35343,1,0
288,128,35490,1,2
224,264,35638,1,0
376,320,35785,1,2
472,208,35933,1,0
392,88,36080,6,0,B|400:40|440:16,1,90,2|0
304,48,36375,2,0,B|280:88|304:136,1,90,2|0
424,264,36670,1,2
456,288,36743,1,0
472,328,36817,1,0
392,336,36965,1,2
392,336,37038,1,0
392,336,37112,1,0
472,152,37259,5,2
440,128,37333,1,0
400,112,37407,1,2
360,104,37481,1,0
320,120,37554,1,2
288,152,37628,1,2
264,184,37702,1,2
232,208,37775,1,2
192,216,37849,6,0,B|184:208|184:208|176:216|176:216|184:216|184:216|176:216|176:216|152:232|128:216,1,90,8|0
96,144,38144,2,0,B|48:168|48:216,1,90
72,296,38439,2,0,B|72:320,6,22.5
104,320,38734,2,0,B|120:352,6,22.5
144,336,39028,2,0,B|152:328|152:328|152:336|152:336|152:344|152:344|160:328|160:328|160:336|160:336|160:344|160:344|168:328|168:328|168:336|168:336|168:344|168:344|176:328|176:328|176:336|176:336|176:344|176:344|184:328|184:328|184:336|184:336|184:344|184:344|192:328|192:328|192:336|192:336|192:344|192:344|200:328|200:328|200:336|200:336|200:344|200:344|208:328|208:328|208:336|208:336|208:344|208:344|216:328|216:328|216:336|216:336|216:344|216:344|224:328|224:328|224:336|224:336|224:344|224:344|232:328|232:328|232:336|232:336|232:344|232:344|240:328|240:328|240:336|240:336|240:344|240:344|248:328|248:328|248:336|248:336|248:344|248:344|256:328|256:328|256:336|256:336|256:344|256:344|264:328|264:328|264:336|264:336|264:344|264:344|272:328|272:328|272:336|272:336|272:344|272:344|280:328|280:328|280:336|280:336|280:344|280:344|288:336|288:336|336:336,1,630,4|0
416,336,40208,5,4
64,192,40503,1,4
416,48,40797,1,4
272,192,41092,6,0,B|296:224|256:296|216:224|240:192,1,134.999995976687,2|0
112,160,41387,5,2
80,136,41461,1,0
64,96,41535,1,0
72,56,41608,1,0
96,24,41682,1,2
136,8,41756,1,0
176,16,41829,1,0
208,40,41903,1,0
232,72,41977,5,2
264,104,42051,1,0
296,128,42124,1,0
336,136,42198,1,0
376,120,42272,1,2
400,88,42345,1,0
400,48,42419,1,0
376,16,42493,1,0
336,0,42567,5,2
296,16,42640,1,0
272,48,42714,1,0
272,88,42788,1,0
280,128,42861,1,2
296,168,42935,1,0
296,208,43009,1,0
280,248,43082,1,0
240,264,43156,5,2
200,272,43230,1,0
160,264,43304,1,0
128,240,43377,1,0
112,200,43451,1,2
120,160,43525,1,0
152,128,43598,1,0
192,120,43672,1,0
232,128,43746,6,0,B|280:136|320:112,1,90,8|0
416,248,44041,2,0,B|376:264|352:312,1,90,8|0
256,352,44336,6,0,B|216:368,1,45,2|0
201,342,44483,2,0,B|158:343,1,45
153,314,44630,2,0,B|112:301,1,45
117,272,44778,2,0,B|83:245,1,45
98,219,44925,6,0,B|48:136,1,90,8|0
224,56,45220,2,0,B|307:5,1,90
413,164,45515,2,0,B|464:248,1,90,8|0
288,328,45810,2,0,B|204:378,1,90
256,192,46105,5,2
256,192,46252,1,0
256,192,46547,2,0,B|224:160|184:144|128:160|104:216,1,180,2|2
256,192,47137,2,0,B|288:160|328:144|384:160|408:216,1,180,2|2
328,240,47579,2,2,B|304:288|256:296|208:288|184:240,1,180,2|0
256,48,48168,1,2
256,48,48463,5,0
328,80,48611,1,0
368,152,48758,1,0
368,152,48906,1,2
256,336,49200,5,2
184,304,49349,1,0
144,232,49496,1,0
368,152,49643,5,0
160,152,49790,1,0
352,232,49938,1,0
232,128,50085,1,0
296,176,50232,1,0
224,208,50380,1,0
304,104,50527,1,0
160,152,50675,1,0
256,32,50822,5,2
296,48,50896,1,0
336,64,50969,1,0
376,80,51043,1,0
416,96,51117,2,0,B|456:112,3,45,2|0|0|0
376,168,51412,5,2
376,208,51485,1,0
376,248,51559,1,0
376,288,51633,1,0
376,328,51707,2,0,B|376:376,3,45,2|0|0|0
288,312,52001,5,2
248,296,52075,1,0
216,272,52149,1,0
192,240,52223,1,0
176,200,52296,1,2
168,160,52370,1,0
168,120,52444,1,0
184,88,52517,1,0
216,64,52591,6,0,B|256:40,1,45,2|0
344,72,52738,2,0,B|304:96,1,45
304,184,52886,2,0,B|344:160,1,45,2|0
432,192,53033,2,0,B|392:216,1,45
440,280,53181,5,2
464,312,53254,1,0
456,352,53328,1,0
416,368,53402,1,0
384,344,53476,1,2
344,328,53549,1,0
304,336,53623,1,0
272,360,53697,1,0
272,360,53770,5,2
272,360,53844,1,0
272,360,53918,1,0
272,360,53992,1,0
272,360,54065,2,0,B|224:360,3,45,2|0|0|0
240,280,54360,5,2
240,280,54434,1,0
240,280,54508,1,0
240,280,54581,1,0
240,280,54655,2,0,B|208:248,3,45,2|0|0|0
304,216,54950,6,0,B|344:176|328:128,1,90,8|0
248,152,55245,1,0
448,248,55392,1,8
400,184,55539,2,0,B|360:224|376:272,2,90,8|0|0
464,136,55982,5,8
256,40,56277,1,8
48,136,56571,2,8,B|32:184|40:256|104:296,1,180,8|8
128,200,57014,2,0,B|160:248|200:280|256:280|296:280,1,180,8|8
360,272,57456,1,0
432,240,57603,1,8
480,176,57751,1,0
392,64,57898,5,2
392,64,58046,1,0
384,328,58340,5,2
384,328,58488,1,0
120,320,58783,5,2
120,320,58931,1,0
128,56,59225,5,2
128,56,59373,1,0
208,192,59667,6,0,B|168:208,1,45,2|0
214,215,59815,2,0,B|187:249,1,45
231,233,59962,2,0,B|225:276,1,45,2|0
255,240,60110,2,0,B|272:280,1,45
280,233,60257,5,2
352,200,60404,1,0
208,72,60699,5,2
96,48,60846,1,0
424,112,61141,5,2
464,256,61289,1,0
176,208,61584,5,2
32,312,61731,1,0
336,136,62026,5,2
176,136,62173,1,0
256,264,62321,1,2
256,264,62616,6,0,B|240:312|192:320,1,90
176,240,62910,1,8
232,184,63058,1,0
152,160,63205,2,0,B|112:136|104:80|160:24|216:64,1,180,0|8
280,96,63648,1,0
360,112,63795,5,0
496,192,63942,1,0
352,272,64090,1,8
352,272,64237,2,0,B|312:336|248:344|192:320,1,180
40,232,64680,1,8
40,232,64827,2,0,B|80:168|144:160|200:184,1,180
256,240,65269,6,0,B|304:248|344:224,1,90,8|0
256,144,65564,2,0,B|208:136|168:160,1,90
360,144,65859,1,8
152,240,66006,1,0
312,64,66154,1,0
360,224,66301,1,0
176,144,66449,1,8
128,304,66596,6,0,B|128:352|184:368,1,90
320,304,66891,2,0,B|376:320|408:288,1,90,0|8
192,80,67186,2,0,B|136:64|104:96,1,90
160,152,67481,5,0
112,216,67628,1,8
128,296,67775,2,0,B|128:344|88:376,2,90
192,248,68218,2,0,B|264:216|264:216|328:240|360:200,1,180,8|0
304,144,68660,2,0,B|352:112|392:136,2,90,0|8|0
224,136,69102,6,0,B|192:88|152:80,1,90
368,224,69396,2,0,B|408:240|456:216,1,90,8|0
192,272,69692,6,0,B|152:288|152:288|144:328|104:336|104:336|80:328|32:328,1,180,0|8
16,248,70134,1,0
48,176,70281,2,0,B|64:136|56:88,1,90
136,120,70576,2,0,B|144:72|128:24,1,90,8|0
336,120,70871,6,0,B|384:136|400:184,1,90
320,200,71166,2,0,B|336:240|320:288,1,90,8|0
248,248,71461,5,0
240,208,71535,1,0
248,168,71608,1,0
272,136,71682,1,0
232,144,71756,1,8
192,160,71829,1,0
152,160,71903,1,0
112,152,71977,1,0
80,128,72051,6,0,B|48:96|40:48,1,90,4|0
224,32,72345,1,8
136,64,72493,2,0,B|152:104|200:128,1,90
280,136,72788,5,0
208,256,72935,1,8
376,240,73082,1,0
248,336,73230,5,0
280,216,73377,1,0
408,312,73525,1,8
192,160,73672,2,0,B|144:144|120:96,1,90
208,80,73967,5,0
304,80,74114,1,8
256,16,74262,1,0
256,144,74409,6,0,B|272:192|328:208,2,90,0|0|8
176,168,74852,1,0
144,240,74999,1,0
152,320,75146,1,0
152,320,75294,2,0,B|176:368|224:376,1,90,8|0
296,368,75589,5,0
376,200,75736,1,0
192,224,75883,2,0,B|152:184|144:144,1,90,8|0
160,48,76178,5,8
256,40,76326,1,0
256,56,76399,1,0
264,72,76473,2,0,B|288:120|352:160|424:128,1,180,8|0
360,56,76915,5,0
256,192,77063,1,8
432,224,77210,1,0
480,296,77358,2,0,B|456:336|464:384,1,90
368,344,77652,2,0,B|288:280|200:280,1,180,8|0
120,280,78095,5,0
48,320,78242,1,8
120,280,78390,2,0,B|160:224|160:160|120:112,1,180
56,64,78832,1,8
216,112,78979,1,0
336,216,79127,6,0,B|384:240|440:232,1,90,2|0
256,296,79422,2,0,B|256:384,1,90,2|0
176,168,79716,2,0,B|128:144|72:152,1,90,2|0
320,112,80011,2,0,B|352:64|392:56,1,90,2|0
232,224,80306,5,0
400,192,80453,1,0
344,320,80601,2,0,B|312:352|256:368|208:360|176:336,1,180,8|0
144,312,80969,1,0
120,280,81043,1,0
112,240,81117,1,0
120,200,81191,1,0
152,176,81264,1,0
192,176,81338,1,0
224,200,81412,1,0
232,240,81485,6,0,B|256:288|296:304|296:304|336:256|392:288,1,180,4|8
448,312,81928,1,0
424,152,82075,2,0,B|392:64,1,90
256,128,82370,2,0,B|184:64,1,90,8|0
80,152,82665,6,0,B|40:176|24:224,1,90
184,312,82960,2,0,B|224:280|224:232,1,90,8|0
336,96,83254,2,0,B|376:64|424:72,1,90
440,240,83549,2,0,B|400:272|352:256,1,90,8|0
208,56,83844,5,0
400,152,83992,1,0
256,232,84139,6,0,B|256:288|208:312,1,90,8|0
176,240,84434,1,0
336,288,84581,1,0
232,160,84729,1,8
408,256,84876,2,0,B|480:224|496:160|496:104,1,180
424,40,85318,5,8
400,72,85392,1,0
384,112,85466,1,0
256,168,85613,1,8
256,128,85687,1,0
256,88,85761,1,0
88,40,85908,1,8
112,72,85982,1,0
128,112,86056,1,0
256,272,86203,6,0,B|304:280|344:256,2,90,0|0|8
144,208,86645,1,0
152,320,86793,2,0,B|168:360|216:384,2,90,0|0|8
232,192,87235,2,0,B|296:160|304:88|272:32,1,180,8|0
208,96,87677,6,0,B|120:120,1,90,8|0
352,176,87972,2,0,B|440:200,1,90,8|0
256,304,88267,1,8
256,304,88340,1,0
256,304,88414,1,0
176,224,88562,5,0
336,160,88709,1,0
144,120,88856,1,0
368,264,89004,1,0
112,184,89151,1,0
304,224,89299,1,0
128,280,89446,1,0
272,160,89594,2,0,B|288:120|336:96,1,90
368,80,89815,5,0
408,80,89888,1,0
440,96,89962,1,0
464,128,90036,1,0
464,168,90110,1,0
448,208,90183,1,0
416,232,90257,1,0
376,232,90331,1,0
344,208,90404,5,0
320,176,90478,1,0
288,160,90552,1,0
248,160,90625,1,0
216,184,90699,1,0
200,224,90773,1,0
216,264,90847,1,0
248,288,90920,6,0,B|296:304|320:344,1,90,4|0
240,368,91215,2,0,B|152:368,1,90,4|0
328,240,91510,2,0,B|304:200|320:152,1,90,4|0
192,192,91805,6,0,B|184:144|120:136|120:200|176:208,1,134.999995976687
344,344,92100,5,2
384,352,92173,1,0
424,344,92247,1,0
456,320,92321,1,0
472,280,92395,1,2
472,240,92468,1,0
456,200,92542,1,0
424,176,92616,1,0
384,168,92689,5,2
344,176,92763,1,0
304,192,92837,1,0
264,192,92910,1,0
224,176,92984,1,2
192,152,93058,1,0
176,112,93132,1,0
184,72,93205,1,0
216,48,93279,6,0,B|248:16,1,45,2|0
288,80,93426,2,0,B|320:112,1,45
360,48,93574,2,0,B|392:16,1,45,2|0
432,80,93721,2,0,B|464:112,1,45
392,144,93869,2,0,B|360:176,1,45,2|0
432,208,94016,2,0,B|464:240,1,45,0|0
392,272,94164,2,0,B|360:304,1,45,2|0
328,224,94311,2,0,B|296:192,1,45,0|0
272,168,94458,5,2
248,144,94532,1,0
224,120,94606,1,0
200,96,94680,1,0
176,72,94753,1,2
152,48,94827,1,0
128,24,94901,6,0,B|184:24,3,45,0|0|2|0
56,80,95195,2,0,B|8:80,5,45,0|0|2|0|0|0
80,104,95638,5,2
104,128,95711,1,0
128,152,95785,1,0
152,176,95859,1,0
176,200,95933,1,2
208,224,96006,6,0,B|256:224,4,45,0|0|0|2|0
272,136,96375,2,0,B|336:104,5,45
224,64,96817,5,2
184,56,96891,1,0
144,64,96965,1,0
120,96,97038,1,0
112,136,97112,1,2
128,176,97186,1,0
168,192,97259,1,0
208,192,97333,1,0
248,176,97407,5,2
288,184,97481,1,0
320,208,97554,1,2
336,248,97628,1,0
328,288,97702,1,2
304,320,97775,1,0
272,344,97849,6,0,B|232:376|184:376,1,90,2|0
24,288,98144,1,2
24,288,98291,1,0
224,232,98439,2,0,B|272:240|312:200,1,90,2|0
240,152,98734,1,0
200,80,98881,2,0,B|160:40|120:40,1,90,2|0
128,120,99176,5,8
80,264,99323,1,0
208,368,99471,1,8
352,272,99618,1,0
296,120,99766,1,8
80,264,99913,1,0
352,272,100060,1,8
128,120,100208,1,0
256,192,100281,12,4,101240
312,120,101535,6,0,B|360:104|400:120,1,90,8|0
360,192,101829,1,0
304,248,101977,2,0,B|264:288|272:336,1,90,8|0
352,312,102272,1,0
208,232,102419,1,0
160,88,102567,2,0,B|224:40|288:40|336:56,1,180,8|0
480,184,103009,1,8
408,104,103156,1,0
432,248,103304,5,8
408,280,103378,1,0
368,296,103452,1,8
328,288,103525,1,0
288,272,103598,1,8
248,272,103672,1,0
208,280,103746,6,0,B|160:288|136:336,1,90,8|0
256,192,104041,2,0,B|240:144|208:112,1,90,8|0
112,200,104336,2,0,B|64:208|24:192,1,90,8|0
112,88,104630,2,0,B|112:40|64:16,2,90,8|0|8
88,168,105073,5,0
88,208,105146,1,0
104,248,105220,1,8
128,280,105294,1,0
168,296,105367,1,0
208,304,105441,1,0
248,296,105515,1,8
280,280,105589,1,0
320,272,105662,6,0,B|368:272,1,45,0|0
352,192,105810,2,0,B|400:176,1,45,8|0
352,112,105957,2,0,B|384:80,1,45,8|0
304,48,106105,2,0,B|320:8,1,45,8|0
232,24,106252,6,0,B|208:56|152:80,2,90,8|0|0
208,152,106694,2,0,B|208:192|176:240,2,90,8|0|0
320,56,107137,1,0
416,176,107284,2,0,B|432:216|432:264,1,90,8|0
400,336,107579,1,0
328,368,107726,1,8
336,288,107874,2,0,B|304:256|256:232|208:256|176:288,3,180,8|0|8|0
248,328,108906,6,0,B|272:240|232:152,1,180,2|0
192,80,109348,1,2
368,160,109495,1,0
144,160,109643,1,2
320,80,109790,1,0
256,264,109938,1,2
192,80,110085,1,0
256,264,110232,5,0
256,224,110306,1,0
256,184,110380,1,0
256,144,110453,1,0
256,104,110527,2,0,B|232:64,4,45
392,192,110969,5,2
360,216,111043,1,0
320,232,111117,1,0
280,240,111191,1,0
240,240,111264,1,2
200,224,111338,1,0
168,192,111412,1,0
152,160,111485,1,0
152,120,111559,1,2
168,80,111633,5,0
200,56,111707,1,0
240,56,111780,1,0
280,72,111854,1,2
296,112,111928,1,0
296,152,112001,1,0
280,184,112075,1,0
248,208,112149,1,2
200,224,112223,5,0
160,224,112296,1,0
120,232,112370,1,0
88,256,112444,1,2
80,296,112517,1,0
96,328,112591,1,0
136,344,112665,1,0
176,336,112738,1,2
200,304,112812,5,0
200,264,112886,1,0
184,224,112960,1,0
160,192,113033,1,2
136,160,113107,1,0
136,120,113181,1,0
160,88,113254,1,0
200,72,113328,6,0,B|248:56|288:64,1,90,2|0
256,136,113623,1,0
304,200,113770,2,2,B|352:192|376:152,1,90
384,112,113992,5,0
376,72,114065,1,0
344,40,114139,1,0
304,32,114213,1,0
264,40,114286,1,0
232,64,114360,1,0
216,104,114434,1,0
184,136,114508,6,0,B|152:176|104:184|64:160|48:104,2,180,2|0|2
264,184,115245,2,0,B|352:184,1,90,2|0
320,256,115539,2,0,B|384:320,1,90,2|0
304,344,115834,5,8
208,40,116129,1,0
128,312,116424,1,8
384,72,116719,1,0
80,216,117014,1,8
80,216,117161,1,8
432,168,117456,1,0
256,192,117751,1,8
184,56,118046,6,0,B|144:32|96:40,1,90,8|0
128,112,118340,2,0,B|80:112|40:136,1,90
104,192,118635,1,8
256,296,118783,1,0
408,192,118930,1,0
256,88,119078,1,0
144,192,119225,5,2
256,48,119372,1,0
368,192,119520,1,0
336,296,119667,2,0,B|424:312|464:296|488:248|480:200|448:192|448:192|480:184|488:136|464:88|424:72|336:88,1,450,2|2
296,104,120478,5,0
256,112,120552,1,0
216,104,120625,1,0
184,80,120699,1,2
152,56,120773,1,0
112,48,120847,1,0
72,56,120920,1,0
40,80,120994,5,2
16,112,121068,1,0
8,152,121141,1,0
16,192,121215,1,0
40,224,121289,1,2
72,248,121363,1,0
112,256,121436,1,0
152,248,121510,1,0
192,240,121584,5,2
232,248,121657,1,0
264,272,121731,1,0
280,312,121805,1,0
264,352,121879,1,2
224,368,121952,1,0
184,352,122026,1,0
176,312,122100,1,0
192,272,122173,5,2
232,248,122247,1,0
272,232,122321,1,0
304,216,122395,1,0
328,184,122468,1,2
336,144,122542,1,0
320,104,122616,1,0
288,80,122689,1,0
256,112,122763,5,2
224,80,122837,1,0
184,72,122910,1,0
144,80,122984,1,0
144,120,123058,1,2
104,112,123132,1,0
64,120,123205,1,0
32,144,123279,1,0
48,176,123353,5,2
32,216,123426,1,0
48,256,123500,1,0
88,272,123574,1,0
112,240,123648,1,2
152,224,123721,1,0
192,232,123795,1,0
232,256,123869,1,0
248,296,123942,5,2
272,264,124016,1,0
304,240,124090,1,0
344,224,124164,1,0
376,200,124237,1,2
400,168,124311,1,0
400,128,124385,1,0
376,96,124458,1,0
344,72,124532,5,2
304,64,124606,1,0
264,80,124680,1,0
240,112,124753,1,0
208,144,124827,1,2
168,160,124901,1,0
128,152,124974,1,0
104,120,125048,1,0
104,160,125122,5,2
104,200,125195,1,0
96,240,125269,1,0
80,280,125343,1,0
120,272,125417,1,2
160,264,125490,1,0
200,264,125564,1,0
240,280,125638,1,0
272,296,125711,6,0,B|320:320,1,45,2|0
328,232,125859,2,0,B|376:232,1,45
328,152,126006,2,0,B|376:152,1,45,2|0
272,88,126154,2,0,B|320:64,1,45
200,48,126301,5,2
160,40,126375,1,0
120,40,126449,1,0
80,56,126522,1,0
48,80,126596,2,0,B|16:120,3,45,2|0|0|0
96,160,126891,5,2
80,200,126965,1,0
88,240,127038,1,0
112,272,127112,1,0
152,288,127186,2,0,B|200:304,3,45,2|0|0|0
216,224,127481,5,8
288,256,127628,1,0
368,240,127775,1,0
416,176,127923,1,8
392,96,128070,1,0
472,112,128218,1,0
336,152,128365,6,0,B|248:152,1,90,8|0
64,224,128660,1,0
24,368,128807,2,0,B|112:368,1,90,8|0
296,296,129102,1,0
264,224,129250,6,0,B|176:224,1,90,8|0
88,296,129544,2,0,B|176:296,2,90,8|0|0
168,192,138979,6,0,B|152:160,6,22.5
200,216,139274,6,0,B|216:256|200:304,1,90,8|0
272,160,139569,2,0,B|296:200|296:248,1,90
320,80,139864,2,0,B|360:112|368:160,1,90
368,8,140159,2,0,B|408:32|424:80,1,90
448,152,140453,5,8
440,232,140601,1,0
384,296,140748,1,0
304,312,140896,1,0
232,184,141043,1,0
256,336,141191,1,0
256,152,141338,1,0
208,312,141485,1,0
280,184,141633,6,0,B|328:168|352:128,1,90,8|0
256,88,141928,2,0,B|256:40|216:8,1,90
152,96,142223,2,0,B|104:80|56:88,1,90
104,192,142517,2,0,B|64:216|48:264,1,90
144,272,142812,5,8
216,312,142960,1,0
296,320,143107,1,0
376,304,143254,1,0
368,112,143401,1,0
256,192,143549,1,0
320,24,143696,1,0
160,144,143843,1,0
112,32,143992,6,0,B|72:0,2,45,8|0|0
64,96,144286,1,0
32,192,144434,1,0
128,168,144581,1,0
32,96,144729,1,0
32,224,144876,1,0
160,168,145024,1,0
256,72,145171,6,0,B|256:16,2,45,8|0|0
304,144,145466,1,0
304,240,145613,1,0
208,240,145761,1,0
208,144,145908,1,0
376,192,146055,1,0
144,192,146203,1,0
256,312,146350,5,8
272,320,146424,1,0
288,328,146498,1,0
304,336,146571,1,0
320,344,146645,1,0
336,344,146719,1,0
352,344,146793,1,8
368,344,146866,5,0
384,344,146940,1,8
400,344,147014,1,0
416,344,147087,1,0
432,344,147161,1,0
448,344,147235,2,0,B|496:344,3,45
448,328,147530,6,0,B|472:240,1,90,8|0
368,248,147824,2,8,B|376:168,1,80.9999961376192,8|0
280,200,148119,2,0,B|280:128,1,72,8|0
184,184,148414,2,0,B|168:120,1,62.999998497963,8|0
88,208,148709,6,0,B|64:160,2,54.0000012874604,4|0|0
104,256,149151,1,0
136,296,149299,2,0,B|184:328|240:320,1,108.000002574921,2|0
288,304,149741,1,0
336,288,149888,2,0,B|368:272|400:272,2,54.0000012874604,2|0|0
336,240,150331,2,0,B|352:184|336:128|288:104|232:112|200:152,1,216.000005149841,2|0
176,168,151068,6,0,B|128:200|72:184,1,108.000002574921,2|0
336,168,151657,2,0,B|384:200|440:184,1,108.000002574921,2|0
256,336,152247,2,0,B|256:224,1,108.000002574921,2|2
256,176,152689,2,0,B|256:56,1,108.000002574921,2|0
136,208,153279,5,0
136,208,153426,2,0,B|88:248|32:240,1,108.000002574921,2|0
72,80,154016,2,0,B|120:40|176:48,1,108.000002574921,2|0
256,144,154606,1,2
296,168,154753,1,0
344,176,154901,1,2
392,160,155048,2,0,B|448:128|464:80,1,108.000002574921,2|2
456,32,155490,5,2
408,24,155638,1,0
360,32,155785,6,0,B|328:56|288:48,1,72,2|0
96,96,156080,6,0,B|136:120|184:96,1,90,2|0
344,176,156375,6,0,B|400:272,1,108.000002574921,2|0
192,240,156670,6,0,B|128:352,1,125.999996995926,2|0
88,176,156965,6,0,B|48:104|88:32,1,144,2|0
408,96,157259,6,0,B|448:176|400:256,1,161.999992275238,2|0
120,176,157554,6,0,B|80:104|128:16,1,161.999992275238,2|0
440,96,157849,6,0,B|480:168|432:256,1,161.999992275238,2|0
256,352,158144,6,0,B|72:368|72:168|256:192|256:192|440:224|440:0|256:32,1,720
208,272,158881,5,0
304,112,159028,1,0
208,272,159176,1,0
304,112,159323,6,0,B|320:80|376:72|416:104|440:144|432:200|400:232|352:248|304:240|256:192|256:192|208:152|160:136|112:152|80:184|72:240|96:280|136:312|192:304|208:272,1,720,4|0
344,160,160060,5,0
168,224,160208,1,0
344,160,160355,1,0
168,224,160503,6,0,B|96:264|96:264|8:200|24:112|80:64|152:80,1,360,4|0
256,192,160945,1,0
344,160,161092,2,0,B|416:120|416:120|504:184|488:272|432:320|360:304,1,360,4|0
256,120,161535,1,0
256,264,161682,6,0,B|240:336|176:360|112:352,1,180,4|0
176,256,161977,2,0,B|113:295|51:267|11:216,1,180,4|0
256,120,162272,2,0,B|272:48|336:24|400:32,1,180,4|0
336,128,162567,2,0,B|398:88|460:116|500:167,1,180,4|0
112,192,162861,6,0,B|136:104,1,90,4|0
120,241,163009,2,0,B|113:150,1,90
145,284,163156,2,0,B|107:201,1,90
184,316,163304,2,0,B|119:251,1,90,0|0
230,333,163451,2,0,B|148:294,1,90,4|0
281,333,163598,2,0,B|190:325,1,90
328,316,163746,2,0,B|239:339,1,90
366,284,163893,2,0,B|291:336,1,90
391,241,164041,5,4
400,191,164114,1,0
391,142,164188,1,0
366,99,164262,1,0
328,67,164336,1,4
281,50,164409,1,0
230,50,164483,1,0
184,67,164557,1,0
145,99,164630,5,4
120,142,164704,1,0
112,191,164778,1,0
120,241,164852,1,0
145,284,164925,1,4
183,316,164999,1,0
230,333,165073,1,0
281,333,165146,1,4
312,320,165220,5,0
336,296,165294,1,4
352,264,165367,1,0
360,232,165441,1,4
360,200,165515,1,0
352,168,165589,1,4
336,144,165662,1,0
312,120,165736,1,4
280,104,165810,5,0
248,104,165883,1,4
216,112,165957,1,0
192,128,166031,1,4
168,152,166105,1,0
160,184,166178,1,4
160,216,166252,1,0
176,248,166326,1,4
200,272,166399,6,0,B|240:288|272:256|280:232,3,90,8|0|0|0
288,168,166989,2,0,B|248:152|216:184|208:208,3,90,8|0|0|0
264,80,167579,2,0,B|320:88|352:112|376:144|384:176|384:224|376:280|344:320|288:344|216:344|144:328|112:240|112:176|136:136|184:88|224:80,1,630,8|0
256,192,168758,5,4
440,56,169053,1,4
72,56,169348,1,4
240,192,169643,6,0,B|224:240|256:248|256:248|288:240|272:192,1,134.999995976687,2|0
256,64,169938,5,2
232,48,170011,1,0
200,40,170085,1,0
168,40,170159,1,0
144,56,170232,1,2
128,80,170306,1,0
120,112,170380,1,0
128,144,170453,1,0
136,176,170527,5,2
136,208,170601,1,0
120,240,170675,1,0
96,264,170748,1,0
64,280,170822,1,2
32,280,170896,1,0
8,264,170969,1,0
0,232,171043,1,0
16,200,171117,5,2
48,192,171191,1,0
80,200,171264,1,0
96,224,171338,1,0
96,264,171412,1,2
112,296,171485,1,0
136,320,171559,1,0
168,328,171633,1,0
200,328,171707,5,2
232,320,171780,1,0
256,296,171854,1,0
272,272,171928,1,0
280,240,172001,1,2
272,208,172075,1,0
256,176,172149,6,0,B|232:136|240:88,1,90,2|0
400,184,172444,2,0,B|424:224|416:272,1,90
160,200,172738,2,0,B|136:160|144:112,1,90,2|0
456,104,173033,2,0,B|488:136|488:192,1,90
472,264,173328,1,2
416,320,173476,5,2
376,312,173549,1,0
336,304,173623,1,0
296,296,173697,1,0
256,288,173770,1,2
216,280,173844,1,0
176,272,173918,6,0,B|128:256,1,45,2|0
160,137,174065,2,0,B|184:176,1,45
256,133,174213,2,0,B|256:88,1,45,2|0
351,137,174360,2,0,B|328:176,1,45
336,272,174508,2,0,B|384:256,1,45,2|0
416,248,174655,5,2
448,232,174729,1,0
472,200,174802,1,0
488,160,174876,1,0
488,120,174950,1,2
464,88,175024,1,0
432,64,175097,1,0
392,56,175171,1,0
352,64,175245,5,2
320,88,175318,1,0
304,128,175392,1,0
288,160,175466,1,0
264,192,175539,1,2
232,216,175613,1,0
192,224,175687,1,0
152,216,175761,1,0
120,192,175834,5,2
96,160,175908,1,0
96,120,175982,1,0
120,88,176055,1,0
152,64,176129,1,2
192,64,176203,1,0
232,80,176277,1,0
248,112,176350,1,0
248,152,176424,5,2
264,192,176498,1,0
288,224,176571,1,0
328,240,176645,1,0
368,248,176719,1,2
408,232,176793,1,0
440,208,176866,1,0
456,168,176940,1,0
456,128,177014,5,8
336,168,177161,1,0
424,40,177309,1,8
296,184,177456,1,0
320,32,177603,1,8
184,160,177751,1,0
368,112,177898,1,8
144,32,178046,5,8
120,64,178119,1,0
96,96,178193,1,0
72,128,178267,1,0
48,160,178340,1,0
24,192,178414,1,0
64,192,178488,5,8
88,224,178562,1,0
112,256,178635,1,0
136,288,178709,1,0
160,256,178783,5,8
200,240,178856,1,0
240,224,178930,1,0
280,208,179004,1,0
248,184,179078,5,8
272,152,179151,1,0
296,120,179225,1,0
320,88,179299,1,0
344,56,179372,6,0,B|392:24|440:32,1,90,8|0
432,144,179667,1,8
400,256,179815,2,0,B|368:288|312:288,1,90,8|0
192,272,180110,1,8
320,112,180257,1,0
160,128,180404,2,0,B|120:104|96:64,2,90,8|0|0
256,192,180847,1,8
352,256,180994,2,0,B|392:288|384:336|352:360|312:368|280:344,1,180,8|0
232,280,181436,5,0
168,232,181584,2,0,B|120:208|80:224,1,90,8|0
184,120,181879,2,0,B|152:88|104:72,1,90,8|0
344,152,182173,2,0,B|392:176|432:160,1,90,8|0
328,264,182468,2,0,B|360:296|408:312,1,90,8|0
256,360,182763,5,0
176,336,182910,1,8
144,320,182984,1,0
120,288,183058,1,0
120,248,183132,1,0
144,216,183205,1,8
176,192,183279,1,0
216,192,183353,1,0
256,208,183426,1,0
296,200,183500,6,0,B|352:192|368:144,1,90,2|0
168,72,183795,2,0,B|133:27|83:37,1,90,2|0
48,232,184090,6,0,B|26:284|60:322,2,90,8|0|0
120,264,184532,1,8
128,224,184606,1,0
112,184,184680,1,0
48,128,184827,1,8
208,40,184974,1,8
328,176,185122,2,0,B|352:224|336:272,1,90,8|0
232,232,185417,1,0
288,88,185564,1,8
424,120,185711,2,0,B|464:216|440:304,2,180,0|8|8
368,56,186449,5,4
288,32,186596,1,0
208,40,186743,2,0,B|152:48|136:112,1,90,8|0
288,264,187038,1,8
224,120,187186,1,0
120,272,187333,1,8
392,112,187481,1,0
440,192,187628,2,0,B|456:232,3,45,8|0|0|0
416,240,187923,2,0,B|416:288,3,45,8|0|0|0
376,264,188218,2,0,B|368:288,6,22.5,8|0|0|0|0|0|0
336,248,188512,2,0,B|320:264,6,22.5
320,216,188807,5,2
296,184,188881,1,0
264,160,188955,1,0
224,144,189028,1,0
184,136,189102,1,2
144,144,189176,1,0
112,160,189250,1,0
88,192,189323,1,0
88,152,189397,5,2
104,112,189471,1,0
128,80,189544,1,0
160,64,189618,1,0
200,56,189692,1,2
240,56,189766,1,0
280,72,189839,1,0
312,104,189913,1,0
272,104,189987,5,2
232,120,190060,1,0
208,152,190134,1,0
200,192,190208,1,0
216,224,190281,1,2
248,248,190355,1,0
288,256,190429,1,0
328,248,190503,1,0
360,224,190576,5,2
392,200,190650,1,0
432,192,190724,1,0
472,208,190797,1,0
496,240,190871,1,2
504,280,190945,1,0
488,320,191019,1,0
456,344,191092,1,0
416,352,191166,6,0,B|360:376|320:376|296:336|240:336,1,180,2|0
160,352,191608,1,2
176,272,191756,5,2
160,232,191829,1,0
160,192,191903,1,0
176,160,191977,1,0
208,136,192051,1,2
248,128,192124,1,0
288,136,192198,1,0
320,160,192272,1,0
336,192,192345,1,0
256,192,192419,12,0,193377
344,352,193525,5,2
168,352,193672,1,0
256,96,193967,2,0,B|240:48|192:32|192:32|112:80,1,180,2|0
256,96,194557,2,0,B|272:48|320:32|320:32|400:80,1,180,2|0
328,128,194999,2,0,B|312:152|312:152|256:200|200:152|200:152|184:128,1,180,2|0
256,352,195589,1,2
256,352,195883,5,2
208,192,196031,1,0
344,280,196178,1,0
168,280,196326,1,2
304,192,196473,1,0
376,104,196621,1,2
256,32,196768,1,0
136,104,196915,1,2
256,192,197063,5,2
256,200,197137,1,0
256,208,197210,1,0
256,216,197284,1,0
256,224,197358,1,0
256,232,197431,1,0
256,240,197505,1,0
256,248,197579,1,0
256,256,197652,5,2
256,264,197726,1,0
256,272,197800,1,0
256,280,197874,1,0
256,288,197947,1,0
256,296,198021,1,0
256,304,198095,1,0
256,312,198168,1,0
256,320,198242,6,0,B|256:376,3,45,2|0|0|0
336,312,198537,2,0,B|360:352,3,45,2|0|0|0
400,256,198832,2,0,B|448:272,3,45,2|0|0|0
448,192,199127,2,0,B|496:192,3,45,2|0|0|0
456,112,199422,5,2
448,72,199495,1,0
424,40,199569,1,0
384,24,199643,1,0
344,24,199716,1,2
304,40,199790,1,0
280,72,199864,1,0
272,112,199938,1,0
256,152,200011,5,2
224,176,200085,1,0
184,192,200159,1,0
144,176,200232,1,0
120,144,200306,1,2
112,104,200380,1,0
128,64,200453,1,0
160,40,200527,1,0
200,32,200601,6,0,B|248:32|280:72,1,90,2|0
328,128,200896,5,2
344,168,200969,1,0
344,208,201043,1,0
328,248,201117,1,0
296,280,201191,1,2
256,296,201264,1,0
216,296,201338,1,0
176,280,201412,1,0
144,304,201485,5,2
104,312,201559,1,0
64,296,201633,1,0
48,256,201707,1,0
64,216,201780,1,2
96,200,201854,1,0
136,200,201928,1,0
168,224,202001,1,0
192,192,202075,5,2
224,168,202149,1,0
264,160,202223,1,0
304,168,202296,1,0
296,208,202370,6,0,B|344:192|392:208,1,90,2|0
496,344,202665,2,0,B|448:360|400:344,1,90,2|0
256,280,202960,6,0,B|256:376,2,90,2|0|0
376,192,203402,2,0,B|464:160,1,90,2|0
136,200,203697,2,0,B|48:168,1,90,2|0
208,160,203992,6,0,B|232:200|208:240|208:240|216:248|216:248|208:256|208:256|184:288|144:296,1,180,2|0
304,224,204434,2,0,B|280:184|304:144|304:144|296:136|296:136|304:128|304:128|328:96|368:88,1,180,2|0
376,184,204876,1,0
136,184,205024,1,2
256,56,205171,1,0
480,72,205318,5,0
336,176,205465,1,2
48,128,205760,5,0
88,272,205908,1,2
416,336,206203,5,0
304,312,206350,1,2
160,184,206645,5,0
232,151,206792,1,2
256,48,207087,5,2
256,64,207161,1,0
256,80,207235,1,0
256,96,207309,1,0
256,112,207382,5,2
256,128,207456,1,0
256,144,207530,1,0
256,160,207603,1,0
256,176,207677,6,0,B|256:264,1,90,2|0
144,104,208119,6,0,B|56:104,1,90,2|0
368,280,208562,6,0,B|456:280,1,90,2|0
336,128,209004,6,0,B|408:64,1,90,2|0
176,256,209446,6,0,B|104:320,2,90,2|0|2
256,192,209888,1,0
256,192,210036,5,2
296,72,210184,1,0
192,144,210331,1,0
312,144,210479,1,2
216,72,210626,1,0
136,96,210773,1,0
136,96,210920,6,0,B|80:96|48:128,2,90,2|0|0
376,96,211363,2,0,B|432:96|464:128,2,90,2|0|2
128,176,211805,5,2
384,176,211952,1,2
256,312,212100,2,0,B|256:344,6,22.5,2|0|0|0|0|0|0
296,352,212395,6,0,B|344:360|384:320,1,90,8|0
416,152,212689,2,0,B|424:104|384:64,1,90,8|0
216,32,212984,2,0,B|168:24|128:64,1,90,8|0
96,232,213279,2,0,B|88:280|128:320,1,90,8|0
320,192,213574,2,0,B|320:144|288:104,1,90,8|0
192,192,213869,2,0,B|192:240|224:280,1,90,8|0
336,288,214164,5,8
176,96,214311,1,8
176,96,214385,1,8
176,96,214458,1,0
256,192,214606,1,8
232,216,214680,1,0
200,232,214753,6,0,B|160:264|112:240,1,90,8|0
152,176,215048,2,0,B|104:168|72:128,1,90,8|0
312,152,215343,2,8,B|352:120|400:144,1,90,8|0
360,208,215638,2,0,B|408:216|440:256,1,90,8|0
360,288,215933,5,8
256,328,216080,1,8
256,328,216154,1,8
256,328,216227,1,0
272,216,216375,1,8
272,176,216449,1,0
272,136,216522,6,0,B|272:40,1,90,8|0
240,248,216817,2,0,B|240:344,1,90,8|0
336,136,217112,2,0,B|336:40,1,90,8|0
176,248,217407,2,8,B|176:344,1,90,8|0
400,136,217702,2,0,B|400:40,1,90,8|0
112,248,217996,2,0,B|112:344,1,90,8|0
464,136,218291,2,0,B|464:40,1,90,8|0
48,248,218586,2,0,B|48:344,1,90,8|0
184,344,218881,5,8
344,264,219028,1,8
384,248,219102,1,8
416,232,219176,1,0
168,120,219323,1,8
128,136,219397,1,0
96,152,219471,6,0,B|56:184|48:232,1,90,8|0
216,304,219766,2,0,B|256:344|296:304,1,90,8|0
416,232,220060,2,0,B|456:200|464:152,1,90,8|0
296,80,220355,2,0,B|256:40|216:80,1,90,8|0
120,192,220650,5,8
256,320,220797,2,0,B|256:368,2,45,8|0|8
408,192,221092,1,8
392,192,221166,1,0
376,192,221240,1,8
360,192,221313,1,0
344,192,221387,1,8
328,192,221461,1,0
312,192,221535,6,0,B|224:192,1,90,8|0
336,56,221829,5,8
256,48,221977,1,0
392,272,222124,1,8
400,192,222272,1,0
176,328,222419,1,8
256,336,222567,1,0
120,112,222714,1,8
112,192,222862,1,0
328,192,223009,6,0,B|328:240|288:272|256:296|256:360,1,180
184,192,223451,2,0,B|184:240|224:272|256:296|255:353,1,180,2|0
256,96,223893,1,0
256,96,224041,1,0
376,136,224188,6,0,B|464:152,1,90,8|0
384,224,224483,2,0,B|288:240,1,90,8|0
47,152,224778,2,0,B|136:136,1,90,8|0
216,238,225073,2,0,B|128:224,1,90,8|0
256,360,225367,5,0
256,360,225662,2,0,B|304:280|304:280|256:208,1,180,2|0
208,144,226105,1,0
256,80,226252,1,2
304,144,226399,1,0
256,208,226547,6,0,B|256:256|216:296,1,90,8|0
344,248,226842,2,0,B|336:296|296:328,1,90,8|0
256,176,227137,2,0,B|256:128|296:88,1,90,8|0
168,136,227432,2,0,B|176:88|216:56,1,90,8|0
344,160,227726,5,8
168,224,227874,1,8
168,224,227947,1,8
168,224,228021,2,0,B|176:272|200:312|256:344|312:312|336:272|344:224,1,270
360,192,228537,1,0
392,168,228611,1,8
464,128,228758,1,8
464,128,228832,1,0
464,128,228906,6,0,B|464:72|424:48,1,90,8|0
344,224,229200,2,0,B|392:304,1,90,8|0
168,160,229495,2,0,B|120:80,1,90,8|0
48,256,229790,2,0,B|48:312|88:336,1,90,8|0
256,272,230085,5,8
256,256,230159,1,0
264,240,230232,1,8
272,224,230306,1,0
272,208,230380,1,8
264,192,230453,1,0
256,176,230527,1,8
248,160,230601,5,0
240,144,230675,1,8
240,128,230748,1,0
248,112,230822,1,8
256,96,230896,1,0
256,80,230969,6,0,B|256:40,8,22.5,8|0|0|0|0|0|4|0|0
