osu file format v13

[General]
AudioFilename: Prefuse 73 _ The End of Biters - International (2004).mp3
AudioLeadIn: 0
PreviewTime: -1
Countdown: 0
SampleSet: Normal
StackLeniency: 0.7
Mode: 2
LetterboxInBreaks: 1
WidescreenStoryboard: 1

[Editor]
DistanceSpacing: 2
BeatDivisor: 8
GridSize: 32
TimelineZoom: 1.7

[Metadata]
Title:The End of Biters - International (2004)
TitleUnicode:The End of Biters - International (2004)
Artist:Prefuse 73
ArtistUnicode:Prefuse 73
Creator:AceNic
Version:Platter
Source:
Tags:
BeatmapID:479428
BeatmapSetID:173061

[Difficulty]
HPDrainRate:6
CircleSize:4
OverallDifficulty:7
ApproachRate:8.5
SliderMultiplier:1.4
SliderTickRate:1

[Events]
//Background and Video events
0,0,"149695274_640.jpg",0,0
Video,0,"Prefuse 73 _ The End of Biters - International (2004).avi"
//Break Periods
//Storyboard Layer 0 (Background)
//Storyboard Layer 1 (Fail)
//Storyboard Layer 2 (Pass)
//Storyboard Layer 3 (Foreground)
//Storyboard Sound Samples
//Background Colour Transformations
3,100,163,162,255

[TimingPoints]
2095,625.130235465722,4,1,0,15,1,0
29600,-100,4,1,0,15,0,1
39602,-100,4,1,0,15,0,0

[HitObjects]
192,64,2095,5,0,0:0:0:0:
320,64,2720,5,0,0:0:0:0:
160,320,3345,5,0,0:0:0:0:
352,320,3970,5,0,0:0:0:0:
96,64,4595,5,0,0:0:0:0:
416,64,5220,5,0,0:0:0:0:
32,320,5845,5,0,0:0:0:0:
480,320,6470,5,0,0:0:0:0:
64,64,7096,5,0,0:0:0:0:
96,96,7252,1,0,0:0:0:0:
128,64,7408,1,0,0:0:0:0:
160,96,7564,1,0,0:0:0:0:
192,64,7721,2,0,P|288:64|320:96,1,140
416,160,8658,5,0,0:0:0:0:
448,288,8971,2,0,L|352:160|352:160,1,140,0|0,0:0|0:0,0:0:0:0:
256,256,9909,5,0,0:0:0:0:
320,128,10221,2,0,L|384:288|384:288,1,140
224,224,11159,1,0,0:0:0:0:
96,320,11471,5,0,0:0:0:0:
320,320,11628,1,0,0:0:0:0:
256,320,11784,1,0,0:0:0:0:
160,320,11940,1,0,0:0:0:0:
64,128,12097,5,0,0:0:0:0:
128,160,12253,1,0,0:0:0:0:
128,96,12409,2,0,P|160:64|192:96,1,70
192,160,13034,6,0,B|256:192|256:160|256:128,1,70
320,128,13503,1,0,0:0:0:0:
192,96,13659,1,0,0:0:0:0:
320,64,13816,2,0,L|384:64|416:64,1,70
384,128,14285,1,0,0:0:0:0:
320,192,14441,1,0,0:0:0:0:
224,224,14597,5,0,0:0:0:0:
160,288,14753,1,0,0:0:0:0:
96,224,14910,1,0,0:0:0:0:
160,160,15066,1,0,0:0:0:0:
160,224,15222,1,0,0:0:0:0:
64,64,15535,6,0,L|96:96,1,35
128,64,15847,1,0,0:0:0:0:
192,64,16004,2,0,L|224:96,1,35,0|0,0:0|0:0,0:0:0:0:
256,64,16316,1,0,0:0:0:0:
320,32,16472,1,0,0:0:0:0:
448,160,16629,1,0,0:0:0:0:
384,96,16785,1,0,0:0:0:0:
96,320,17098,6,0,P|160:352|224:320,1,140
256,224,18035,1,0,0:0:0:0:
320,288,18348,2,0,L|416:320,1,70
384,256,18817,2,0,P|320:192|352:96,1,175,0|0,0:0|0:0,0:0:0:0:
64,320,20223,5,0,0:0:0:0:
224,224,20848,2,0,L|160:160,1,70
160,160,21317,1,0,0:0:0:0:
128,128,21474,1,0,0:0:0:0:
64,192,22099,5,0,0:0:0:0:
448,192,22411,1,0,0:0:0:0:
384,256,22724,5,0,0:0:0:0:
320,192,22880,1,0,0:0:0:0:
448,160,23036,1,0,0:0:0:0:
256,128,23193,2,0,B|192:192|160:160|128:128,1,140
64,160,23974,1,0,0:0:0:0:
160,256,24599,6,0,L|256:320,1,105
256,288,25224,1,0,0:0:0:0:
448,288,25537,1,0,0:0:0:0:
352,224,25849,2,0,L|320:192,1,35
320,160,26162,2,0,L|352:128,1,35
384,64,26475,1,0,0:0:0:0:
480,96,26631,1,0,0:0:0:0:
384,128,26787,1,0,0:0:0:0:
64,64,27100,5,0,0:0:0:0:
64,192,27256,1,0,0:0:0:0:
192,192,27412,1,0,0:0:0:0:
192,64,27569,1,0,0:0:0:0:
128,128,27725,5,0,0:0:0:0:
32,224,27881,1,0,0:0:0:0:
128,320,28037,1,0,0:0:0:0:
224,224,28194,1,0,0:0:0:0:
128,224,28350,2,0,P|256:128|320:128,1,210
96,64,29600,5,0,0:0:0:0:
256,64,29757,1,0,0:0:0:0:
416,64,29913,1,0,0:0:0:0:
256,192,30069,12,0,30694,0:0:0:0:
416,192,30850,5,0,0:0:0:0:
96,192,31163,1,0,0:0:0:0:
256,192,31319,1,0,0:0:0:0:
256,192,31476,12,0,31944,0:0:0:0:
96,320,32101,5,0,0:0:0:0:
416,320,32413,1,0,0:0:0:0:
256,192,32570,12,0,33195,0:0:0:0:
64,320,33351,6,0,L|160:320,1,70,0|0,0:0|0:0,0:0:0:0:
224,320,33820,1,0,0:0:0:0:
160,224,33976,5,0,0:0:0:0:
192,224,34054,1,0,0:0:0:0:
160,160,34132,1,0,0:0:0:0:
192,160,34211,1,0,0:0:0:0:
224,160,34289,1,0,0:0:0:0:
256,160,34367,1,0,0:0:0:0:
224,96,34445,1,0,0:0:0:0:
256,96,34523,1,0,0:0:0:0:
320,64,34601,5,0,0:0:0:0:
480,192,34758,1,0,0:0:0:0:
320,320,34914,1,0,0:0:0:0:
256,192,35070,12,0,35695,0:0:0:0:
64,96,35852,5,0,0:0:0:0:
96,96,35930,1,0,0:0:0:0:
64,128,36008,1,0,0:0:0:0:
160,160,36164,1,0,0:0:0:0:
256,192,36320,12,0,36946,0:0:0:0:
320,320,37102,5,0,0:0:0:0:
160,256,37414,1,0,0:0:0:0:
256,192,37571,12,0,38196,0:0:0:0:
416,96,38352,5,0,0:0:0:0:
384,128,38430,1,0,0:0:0:0:
352,160,38508,1,0,0:0:0:0:
384,192,38586,1,0,0:0:0:0:
416,224,38665,1,0,0:0:0:0:
288,224,38821,1,0,0:0:0:0:
192,192,38977,5,0,0:0:0:0:
160,192,39055,1,0,0:0:0:0:
192,128,39133,1,0,0:0:0:0:
160,128,39212,1,0,0:0:0:0:
128,128,39290,1,0,0:0:0:0:
96,128,39368,1,0,0:0:0:0:
128,64,39446,1,0,0:0:0:0:
96,64,39524,1,0,0:0:0:0:
64,192,39602,6,0,L|192:192,1,122.5
224,192,40227,1,0,0:0:0:0:
320,192,40540,1,0,0:0:0:0:
416,192,40853,2,0,L|320:96,1,122.5
160,192,41478,1,0,0:0:0:0:
64,192,42103,5,0,0:0:0:0:
256,192,42415,1,0,0:0:0:0:
352,192,42728,1,0,0:0:0:0:
160,192,43041,1,0,0:0:0:0:
448,192,43353,2,0,L|352:96,1,122.5
480,192,43978,1,0,0:0:0:0:
448,192,44603,6,0,L|320:192,1,122.5
288,192,45228,1,0,0:0:0:0:
192,192,45541,1,0,0:0:0:0:
96,192,45854,2,0,L|192:96,1,122.5
352,192,46479,1,0,0:0:0:0:
448,192,47104,5,0,0:0:0:0:
256,192,47416,1,0,0:0:0:0:
160,192,47729,1,0,0:0:0:0:
352,192,48042,1,0,0:0:0:0:
64,192,48354,2,0,L|160:96,1,122.5
32,192,48979,1,0,0:0:0:0:
64,192,49604,6,0,L|192:192,1,122.5
96,192,50229,1,0,0:0:0:0:
256,192,50542,1,0,0:0:0:0:
416,192,50855,2,0,L|288:192,1,122.5
384,192,51480,1,0,0:0:0:0:
64,192,52105,5,0,0:0:0:0:
448,192,52417,1,0,0:0:0:0:
160,192,52730,1,0,0:0:0:0:
352,192,53043,1,0,0:0:0:0:
256,192,53355,2,0,L|160:96,1,122.5
352,192,53980,1,0,0:0:0:0:
448,192,54605,6,0,L|320:192,1,122.5
416,192,55230,1,0,0:0:0:0:
256,192,55543,1,0,0:0:0:0:
96,192,55856,2,0,L|224:192,1,122.5
128,192,56481,1,0,0:0:0:0:
160,64,57106,5,0,0:0:0:0:
352,64,57262,1,0,0:0:0:0:
160,96,57419,1,0,0:0:0:0:
384,128,57575,5,0,0:0:0:0:
128,160,57731,1,0,0:0:0:0:
384,160,57888,1,0,0:0:0:0:
96,224,58044,5,0,0:0:0:0:
416,256,58200,1,0,0:0:0:0:
96,256,58356,1,0,0:0:0:0:
448,320,58513,5,0,0:0:0:0:
96,352,58669,1,0,0:0:0:0:
448,352,58825,1,0,0:0:0:0:
224,192,58982,6,0,L|320:192,1,70
448,192,59606,6,0,L|320:192,1,122.5
288,192,60231,1,0,0:0:0:0:
192,192,60544,1,0,0:0:0:0:
96,192,60857,2,0,L|192:96,1,122.5
352,192,61482,1,0,0:0:0:0:
448,192,62107,5,0,0:0:0:0:
256,192,62419,1,0,0:0:0:0:
160,192,62732,1,0,0:0:0:0:
352,192,63045,1,0,0:0:0:0:
64,192,63357,2,0,L|160:96,1,122.5
32,192,63982,1,0,0:0:0:0:
64,192,64607,6,0,L|192:192,1,122.5
224,192,65232,1,0,0:0:0:0:
320,192,65545,1,0,0:0:0:0:
416,192,65858,2,0,L|320:96,1,122.5
160,192,66483,1,0,0:0:0:0:
64,192,67108,5,0,0:0:0:0:
256,192,67420,1,0,0:0:0:0:
352,192,67733,1,0,0:0:0:0:
160,192,68046,1,0,0:0:0:0:
448,192,68358,2,0,L|352:96,1,122.5
480,192,68983,1,0,0:0:0:0:
448,192,69608,6,0,L|320:192,1,122.5
416,192,70233,1,0,0:0:0:0:
256,192,70546,1,0,0:0:0:0:
96,192,70859,2,0,L|224:192,1,122.5
128,192,71484,1,0,0:0:0:0:
448,192,72109,5,0,0:0:0:0:
64,192,72421,1,0,0:0:0:0:
352,192,72734,1,0,0:0:0:0:
160,192,73047,1,0,0:0:0:0:
256,192,73359,2,0,L|352:96,1,122.5
160,192,73984,1,0,0:0:0:0:
64,192,74609,6,0,L|192:192,1,122.5
96,192,75234,1,0,0:0:0:0:
256,192,75547,1,0,0:0:0:0:
416,192,75860,2,0,L|288:192,1,122.5
384,192,76485,1,0,0:0:0:0:
352,64,77110,5,0,0:0:0:0:
160,64,77266,1,0,0:0:0:0:
352,96,77423,1,0,0:0:0:0:
128,128,77579,5,0,0:0:0:0:
384,160,77735,1,0,0:0:0:0:
128,160,77892,1,0,0:0:0:0:
416,224,78048,5,0,0:0:0:0:
96,256,78204,1,0,0:0:0:0:
416,256,78360,1,0,0:0:0:0:
64,320,78517,5,0,0:0:0:0:
416,352,78673,1,0,0:0:0:0:
64,352,78829,1,0,0:0:0:0:
294,192,78986,6,0,L|224:192,1,70
