osu file format v12

[General]
AudioFilename: Pulsefire Ezreal Trailer - League of Legends.mp3
AudioLeadIn: 2000
PreviewTime: 25333
Countdown: 0
SampleSet: Normal
StackLeniency: 0.7
Mode: 1
LetterboxInBreaks: 0

[Editor]
DistanceSpacing: 0.1
BeatDivisor: 4
GridSize: 32

[Metadata]
Title:Pulsefire Trailer
TitleUnicode:Pulsefire Trailer
Artist:Praeco
ArtistUnicode:Praeco
Creator:Kokatsu
Version:Oni
Source:League of Legends
Tags:Ezreal Theme Riot Games Riotgames Christian Linke Champion MOBA login LoL Taiko
BeatmapID:175718
BeatmapSetID:58464

[Difficulty]
HPDrainRate:6
CircleSize:5
OverallDifficulty:5
ApproachRate:5
SliderMultiplier:1.4
SliderTickRate:2

[Events]
//Background and Video events
0,0,"Taikobg.jpg",0,85
//Break Periods
//Storyboard Layer 0 (Background)
//Storyboard Layer 1 (Fail)
//Storyboard Layer 2 (Pass)
//Storyboard Layer 3 (Foreground)
//Storyboard Sound Samples
//Background Colour Transformations
3,100,163,162,255

[TimingPoints]
197.755568558784,372.670807453416,4,1,0,50,1,0
12123,-100,4,1,0,55,0,0
25353,-86.9565217391304,4,1,0,65,0,0
25539,-86.9565217391304,4,1,0,65,0,1
43427,-86.9565217391304,4,1,0,65,0,0

[Colours]
Combo1 : 0,0,255
Combo2 : 255,0,0
Combo3 : 0,0,255
Combo4 : 255,0,0

[HitObjects]
256,192,197,1,8,0:0:0:0:
256,192,756,1,8,0:0:0:0:
256,192,1688,1,8,0:0:0:0:
256,192,2247,1,8,0:0:0:0:
256,192,3179,1,8,0:0:0:0:
256,192,3738,1,8,0:0:0:0:
256,192,4669,1,8,0:0:0:0:
256,192,5228,1,8,0:0:0:0:
256,192,6160,1,4,0:0:0:0:
256,192,6533,1,4,0:0:0:0:
256,192,7651,1,0,0:0:0:0:
256,192,8210,1,0,0:0:0:0:
256,192,8396,5,8,0:0:0:0:
256,192,9141,5,4,0:0:0:0:
256,192,9514,1,4,0:0:0:0:
256,192,10632,1,0,0:0:0:0:
256,192,11191,1,0,0:0:0:0:
256,192,11377,5,8,0:0:0:0:
256,192,11750,5,0,0:0:0:0:
256,192,12123,1,4,0:0:0:0:
256,192,12495,1,4,0:0:0:0:
256,192,12868,5,0,0:0:0:0:
256,192,13054,1,0,0:0:0:0:
256,192,13241,5,8,0:0:0:0:
256,192,13427,5,0,0:0:0:0:
256,192,13613,1,0,0:0:0:0:
256,192,13800,1,0,0:0:0:0:
256,192,13986,5,8,0:0:0:0:
256,192,14172,5,0,0:0:0:0:
256,192,14359,5,8,0:0:0:0:
256,192,14545,5,0,0:0:0:0:
256,192,14731,1,0,0:0:0:0:
256,192,14918,5,8,0:0:0:0:
256,192,15104,5,4,0:0:0:0:
256,192,15477,1,4,0:0:0:0:
256,192,15849,5,8,0:0:0:0:
256,192,16036,5,0,0:0:0:0:
256,192,16222,1,0,0:0:0:0:
256,192,16408,1,0,0:0:0:0:
256,192,16595,5,8,0:0:0:0:
256,192,16781,5,0,0:0:0:0:
256,192,16967,5,8,0:0:0:0:
256,192,17154,5,0,0:0:0:0:
256,192,17340,5,8,0:0:0:0:
256,192,17526,1,8,0:0:0:0:
256,192,17713,5,4,0:0:0:0:
256,192,17899,1,4,0:0:0:0:
256,192,18085,1,4,0:0:0:0:
256,192,18458,1,4,0:0:0:0:
256,192,18831,1,0,0:0:0:0:
256,192,19017,1,0,0:0:0:0:
256,192,19203,5,8,0:0:0:0:
256,192,19390,1,8,0:0:0:0:
256,192,19576,5,0,0:0:0:0:
256,192,19762,1,0,0:0:0:0:
256,192,19949,1,0,0:0:0:0:
256,192,20135,5,8,0:0:0:0:
256,192,20321,1,8,0:0:0:0:
256,192,20508,5,0,0:0:0:0:
256,192,20694,5,8,0:0:0:0:
256,192,20880,1,8,0:0:0:0:
256,192,21067,5,4,0:0:0:0:
256,192,21439,1,4,0:0:0:0:
256,192,21812,1,0,0:0:0:0:
256,192,21998,1,0,0:0:0:0:
256,192,22185,5,8,0:0:0:0:
256,192,22371,1,8,0:0:0:0:
256,192,22558,5,0,0:0:0:0:
256,192,22744,1,0,0:0:0:0:
256,192,22930,5,8,0:0:0:0:
256,192,23117,1,8,0:0:0:0:
256,192,23303,5,0,0:0:0:0:
256,192,23489,5,8,0:0:0:0:
256,192,23676,1,8,0:0:0:0:
256,192,23862,5,0,0:0:0:0:
256,192,25353,5,0,0:0:0:0:
256,192,25539,5,4,0:0:0:0:
256,192,25912,1,4,0:0:0:0:
256,192,26284,5,8,0:0:0:0:
256,192,26377,5,0,0:0:0:0:
256,192,26471,1,0,0:0:0:0:
256,192,26657,5,8,0:0:0:0:
256,192,26843,5,0,0:0:0:0:
256,192,26936,1,0,0:0:0:0:
256,192,27030,5,8,0:0:0:0:
256,192,27216,1,8,0:0:0:0:
256,192,27402,5,0,0:0:0:0:
256,192,27589,1,0,0:0:0:0:
256,192,27775,5,8,0:0:0:0:
256,192,27961,5,0,0:0:0:0:
256,192,28148,5,8,0:0:0:0:
256,192,28334,5,0,0:0:0:0:
256,192,28520,1,4,0:0:0:0:
256,192,28893,1,4,0:0:0:0:
256,192,29266,5,8,0:0:0:0:
256,192,29359,5,0,0:0:0:0:
256,192,29452,1,0,0:0:0:0:
256,192,29638,5,8,0:0:0:0:
256,192,29825,5,0,0:0:0:0:
256,192,29918,1,0,0:0:0:0:
256,192,30011,5,8,0:0:0:0:
256,192,30197,1,8,0:0:0:0:
256,192,30384,5,0,0:0:0:0:
256,192,30570,1,0,0:0:0:0:
256,192,30756,5,8,0:0:0:0:
256,192,30849,5,0,0:0:0:0:
256,192,31036,1,0,0:0:0:0:
256,192,31129,5,8,0:0:0:0:
256,192,31315,5,0,0:0:0:0:
256,192,31502,1,4,0:0:0:0:
256,192,31874,1,4,0:0:0:0:
256,192,32247,5,8,0:0:0:0:
256,192,32340,1,8,0:0:0:0:
256,192,32433,1,8,0:0:0:0:
256,192,32620,5,0,0:0:0:0:
256,192,32806,1,0,0:0:0:0:
256,192,32899,1,0,0:0:0:0:
256,192,32992,5,8,0:0:0:0:
256,192,33179,5,0,0:0:0:0:
256,192,33365,5,8,0:0:0:0:
256,192,33551,5,0,0:0:0:0:
256,192,33738,5,8,0:0:0:0:
256,192,33924,1,8,0:0:0:0:
256,192,34017,5,0,0:0:0:0:
256,192,34110,5,8,0:0:0:0:
256,192,34203,1,8,0:0:0:0:
256,192,34297,5,0,0:0:0:0:
256,192,34483,1,4,0:0:0:0:
256,192,34856,1,4,0:0:0:0:
256,192,35228,1,0,0:0:0:0:
256,192,35321,5,8,0:0:0:0:
256,192,35415,5,0,0:0:0:0:
256,192,35601,5,8,0:0:0:0:
256,192,35787,5,0,0:0:0:0:
256,192,35880,1,0,0:0:0:0:
256,192,35974,5,8,0:0:0:0:
256,192,36160,1,8,0:0:0:0:
256,192,36346,5,0,0:0:0:0:
256,192,36533,1,0,0:0:0:0:
256,192,36719,5,8,0:0:0:0:
256,192,36905,1,8,0:0:0:0:
256,192,37092,5,0,0:0:0:0:
256,192,37278,1,0,0:0:0:0:
256,192,37464,1,4,0:0:0:0:
256,192,37837,1,4,0:0:0:0:
256,192,38210,1,0,0:0:0:0:
256,192,38303,5,8,0:0:0:0:
256,192,38396,5,0,0:0:0:0:
256,192,38582,5,8,0:0:0:0:
256,192,38769,5,0,0:0:0:0:
256,192,38862,1,0,0:0:0:0:
256,192,38955,5,8,0:0:0:0:
256,192,39141,1,8,0:0:0:0:
256,192,39328,5,0,0:0:0:0:
256,192,39514,1,0,0:0:0:0:
256,192,39700,5,8,0:0:0:0:
256,192,39794,1,8,0:0:0:0:
256,192,39980,1,8,0:0:0:0:
256,192,40073,5,0,0:0:0:0:
256,192,40259,1,0,0:0:0:0:
256,192,40446,1,4,0:0:0:0:
256,192,40818,1,4,0:0:0:0:
256,192,41191,5,8,0:0:0:0:
256,192,41284,1,8,0:0:0:0:
256,192,41377,5,0,0:0:0:0:
256,192,41564,5,8,0:0:0:0:
256,192,41750,5,0,0:0:0:0:
256,192,41843,1,0,0:0:0:0:
256,192,41936,5,8,0:0:0:0:
256,192,42123,1,8,0:0:0:0:
256,192,42309,5,0,0:0:0:0:
256,192,42495,1,0,0:0:0:0:
256,192,42682,5,8,0:0:0:0:
256,192,42868,5,0,0:0:0:0:
256,192,42961,1,0,0:0:0:0:
256,192,43054,1,0,0:0:0:0:
256,192,43148,5,8,0:0:0:0:
256,192,43241,5,0,0:0:0:0:
256,192,43427,1,4,0:0:0:0:
256,192,43800,1,4,0:0:0:0:
256,192,44172,1,0,0:0:0:0:
256,192,44359,1,0,0:0:0:0:
256,192,44545,5,8,0:0:0:0:
256,192,44731,5,0,0:0:0:0:
256,192,44918,1,0,0:0:0:0:
256,192,45104,1,0,0:0:0:0:
256,192,45290,5,8,0:0:0:0:
256,192,45477,5,0,0:0:0:0:
256,192,45663,1,0,0:0:0:0:
256,192,45849,5,8,0:0:0:0:
256,192,46036,5,0,0:0:0:0:
256,192,46222,5,8,0:0:0:0:
256,192,46408,5,0,0:0:0:0:
256,192,46595,1,0,0:0:0:0:
256,192,46781,5,8,0:0:0:0:
256,192,46967,5,0,0:0:0:0:
256,192,47154,1,0,0:0:0:0:
256,192,47340,5,8,0:0:0:0:
256,192,47526,5,0,0:0:0:0:
256,192,47713,5,8,0:0:0:0:
256,192,47899,5,0,0:0:0:0:
256,192,47992,1,0,0:0:0:0:
256,192,48085,5,8,0:0:0:0:
256,192,48272,1,8,0:0:0:0:
256,192,48365,1,8,0:0:0:0:
256,192,48458,1,8,0:0:0:0:
256,192,48644,1,8,0:0:0:0:
256,192,48738,1,8,0:0:0:0:
256,192,48831,1,8,0:0:0:0:
256,192,48924,1,8,0:0:0:0:
256,192,49017,5,0,0:0:0:0:
256,192,49110,1,0,0:0:0:0:
256,192,49203,5,8,0:0:0:0:
256,192,49390,1,12,0:0:0:0:
