osu file format v12

[General]
AudioFilename: Pulsefire Ezreal Trailer - League of Legends.mp3
AudioLeadIn: 2000
PreviewTime: 25333
Countdown: 0
SampleSet: Normal
StackLeniency: 0.7
Mode: 1
LetterboxInBreaks: 0

[Editor]
DistanceSpacing: 0.1
BeatDivisor: 2
GridSize: 32

[Metadata]
Title:Pulsefire Trailer
TitleUnicode:Pulsefire Trailer
Artist:Praeco
ArtistUnicode:Praeco
Creator:Kokatsu
Version:Kantan
Source:League of Legends
Tags:Ezreal Theme Riot Games Riotgames Christian Linke Champion MOBA login LoL Taiko
BeatmapID:175716
BeatmapSetID:58464

[Difficulty]
HPDrainRate:4
CircleSize:5
OverallDifficulty:4
ApproachRate:5
SliderMultiplier:1
SliderTickRate:1

[Events]
//Background and Video events
0,0,"Taikobg.jpg",0,85
//Break Periods
//Storyboard Layer 0 (Background)
//Storyboard Layer 1 (Fail)
//Storyboard Layer 2 (Pass)
//Storyboard Layer 3 (Foreground)
//Storyboard Sound Samples
//Background Colour Transformations
3,100,163,162,255

[TimingPoints]
197.755568558784,372.670807453416,4,1,0,50,1,0
12123,-100,4,1,0,55,0,0
25539,-100,4,1,0,65,0,1
43427,-100,4,1,0,65,0,0

[Colours]
Combo1 : 0,0,255
Combo2 : 255,0,0
Combo3 : 0,0,255
Combo4 : 255,0,0

[HitObjects]
256,192,197,2,0,B|352:192,3,50
256,192,1688,2,0,B|352:192,3,50
256,192,3179,2,0,B|352:192,3,50
256,192,4669,2,0,B|352:192,3,50
256,192,6160,5,8,0:0:0:0:
256,192,6533,1,8,0:0:0:0:
256,192,9141,1,8,0:0:0:0:
256,192,9514,1,8,0:0:0:0:
256,192,12123,1,8,0:0:0:0:
256,192,12495,1,8,0:0:0:0:
256,192,13613,5,0,0:0:0:0:
256,192,15104,5,8,0:0:0:0:
256,192,15477,1,8,0:0:0:0:
256,192,16595,5,0,0:0:0:0:
256,192,18085,5,8,0:0:0:0:
256,192,18458,1,8,0:0:0:0:
256,192,19576,5,0,0:0:0:0:
256,192,20694,5,8,0:0:0:0:
256,192,21067,1,8,0:0:0:0:
256,192,21439,1,8,0:0:0:0:
256,192,22558,5,0,0:0:0:0:
256,192,23303,5,8,0:0:0:0:
256,192,25539,1,8,0:0:0:0:
256,192,25912,1,8,0:0:0:0:
256,192,27030,5,0,0:0:0:0:
256,192,27775,5,8,0:0:0:0:
256,192,28520,1,8,0:0:0:0:
256,192,28893,1,8,0:0:0:0:
256,192,30011,5,0,0:0:0:0:
256,192,30756,1,0,0:0:0:0:
256,192,31502,5,8,0:0:0:0:
256,192,31874,1,8,0:0:0:0:
256,192,32992,5,0,0:0:0:0:
256,192,33738,5,8,0:0:0:0:
256,192,34483,1,8,0:0:0:0:
256,192,34856,1,8,0:0:0:0:
256,192,35974,5,0,0:0:0:0:
256,192,36719,1,0,0:0:0:0:
256,192,37464,5,8,0:0:0:0:
256,192,37837,1,8,0:0:0:0:
256,192,38955,5,0,0:0:0:0:
256,192,39700,5,8,0:0:0:0:
256,192,40446,1,8,0:0:0:0:
256,192,40818,1,8,0:0:0:0:
256,192,41936,5,0,0:0:0:0:
256,192,42682,1,0,0:0:0:0:
256,192,43427,5,8,0:0:0:0:
256,192,43800,1,8,0:0:0:0:
256,192,44918,5,0,0:0:0:0:
256,192,46408,1,0,0:0:0:0:
256,192,46781,1,0,0:0:0:0:
256,192,47899,5,8,0:0:0:0:
256,192,48644,1,8,0:0:0:0:
256,192,49390,1,12,0:0:0:0:
