osu file format v12

[General]
AudioFilename: Pulsefire Ezreal Trailer - League of Legends.mp3
AudioLeadIn: 2000
PreviewTime: 25333
Countdown: 0
SampleSet: Normal
StackLeniency: 0.7
Mode: 1
LetterboxInBreaks: 0

[Editor]
DistanceSpacing: 0.1
BeatDivisor: 4
GridSize: 32

[Metadata]
Title:Pulsefire Trailer
TitleUnicode:Pulsefire Trailer
Artist:Praeco
ArtistUnicode:Praeco
Creator:Kokatsu
Version:Inner Oni
Source:League of Legends
Tags:Ezreal Theme Riot Games Riotgames Christian Linke Champion MOBA login LoL Taiko
BeatmapID:175715
BeatmapSetID:58464

[Difficulty]
HPDrainRate:6
CircleSize:5
OverallDifficulty:6
ApproachRate:5
SliderMultiplier:1.4
SliderTickRate:2

[Events]
//Background and Video events
0,0,"Taikobg.jpg",0,85
//Break Periods
//Storyboard Layer 0 (Background)
//Storyboard Layer 1 (Fail)
//Storyboard Layer 2 (Pass)
//Storyboard Layer 3 (Foreground)
//Storyboard Sound Samples
//Background Colour Transformations
3,100,163,162,255

[TimingPoints]
197.755568558784,372.670807453416,4,1,0,50,1,0
12123,-100,4,1,0,55,0,0
25353,-80,4,1,0,65,0,0
25539,-80,4,1,0,65,0,1
43427,-80,4,1,0,65,0,0

[Colours]
Combo1 : 0,0,255
Combo2 : 255,0,0
Combo3 : 0,0,255
Combo4 : 255,0,0

[HitObjects]
256,192,197,1,8,0:0:0:0:
256,192,756,1,8,0:0:0:0:
256,192,1688,1,8,0:0:0:0:
256,192,2247,1,8,0:0:0:0:
256,192,2620,5,0,0:0:0:0:
256,192,3179,5,8,0:0:0:0:
256,192,3738,1,8,0:0:0:0:
256,192,4669,1,8,0:0:0:0:
256,192,5228,1,8,0:0:0:0:
256,192,5601,5,0,0:0:0:0:
256,192,6160,5,4,0:0:0:0:
256,192,6533,1,4,0:0:0:0:
256,192,7651,1,0,0:0:0:0:
256,192,8210,1,0,0:0:0:0:
256,192,8396,5,8,0:0:0:0:
256,192,9141,5,4,0:0:0:0:
256,192,9514,1,4,0:0:0:0:
256,192,10632,1,0,0:0:0:0:
256,192,11191,1,0,0:0:0:0:
256,192,11377,5,8,0:0:0:0:
256,192,11750,5,0,0:0:0:0:
256,192,12123,1,4,0:0:0:0:
256,192,12495,1,4,0:0:0:0:
256,192,12868,5,8,0:0:0:0:
256,192,12961,1,8,0:0:0:0:
256,192,13054,5,0,0:0:0:0:
256,192,13241,1,0,0:0:0:0:
256,192,13427,5,8,0:0:0:0:
256,192,13613,5,0,0:0:0:0:
256,192,13707,1,0,0:0:0:0:
256,192,13800,1,0,0:0:0:0:
256,192,13986,5,8,0:0:0:0:
256,192,14172,5,0,0:0:0:0:
256,192,14359,5,8,0:0:0:0:
256,192,14545,1,8,0:0:0:0:
256,192,14731,5,0,0:0:0:0:
256,192,14918,1,0,0:0:0:0:
256,192,15104,1,4,0:0:0:0:
256,192,15477,1,4,0:0:0:0:
256,192,15849,1,0,0:0:0:0:
256,192,15943,5,8,0:0:0:0:
256,192,16036,1,8,0:0:0:0:
256,192,16222,1,8,0:0:0:0:
256,192,16408,1,8,0:0:0:0:
256,192,16595,1,8,0:0:0:0:
256,192,16688,1,8,0:0:0:0:
256,192,16781,5,0,0:0:0:0:
256,192,16967,5,8,0:0:0:0:
256,192,17154,5,0,0:0:0:0:
256,192,17340,5,8,0:0:0:0:
256,192,17526,5,8,0:0:0:0:
256,192,17713,1,4,0:0:0:0:
256,192,17899,1,4,0:0:0:0:
256,192,18085,1,4,0:0:0:0:
256,192,18458,1,4,0:0:0:0:
256,192,18831,5,8,0:0:0:0:
256,192,18924,5,0,0:0:0:0:
256,192,19017,1,0,0:0:0:0:
256,192,19203,1,0,0:0:0:0:
256,192,19390,5,8,0:0:0:0:
256,192,19576,1,8,0:0:0:0:
256,192,19669,1,8,0:0:0:0:
256,192,19762,5,0,0:0:0:0:
256,192,19856,5,8,0:0:0:0:
256,192,19949,5,0,0:0:0:0:
256,192,20042,1,0,0:0:0:0:
256,192,20135,5,8,0:0:0:0:
256,192,20321,5,0,0:0:0:0:
256,192,20508,1,0,0:0:0:0:
256,192,20694,5,8,0:0:0:0:
256,192,20787,1,8,0:0:0:0:
256,192,20880,1,8,0:0:0:0:
256,192,21067,5,4,0:0:0:0:
256,192,21439,1,4,0:0:0:0:
256,192,21812,1,0,0:0:0:0:
256,192,21998,1,0,0:0:0:0:
256,192,22185,5,8,0:0:0:0:
256,192,22371,1,8,0:0:0:0:
256,192,22558,1,8,0:0:0:0:
256,192,22651,5,0,0:0:0:0:
256,192,22744,5,8,0:0:0:0:
256,192,22930,5,0,0:0:0:0:
256,192,23023,1,0,0:0:0:0:
256,192,23117,5,8,0:0:0:0:
256,192,23303,1,8,0:0:0:0:
256,192,23396,5,0,0:0:0:0:
256,192,23489,1,0,0:0:0:0:
256,192,23582,5,8,0:0:0:0:
256,192,23676,5,0,0:0:0:0:
256,192,23769,1,0,0:0:0:0:
256,192,23862,5,8,0:0:0:0:
256,192,23955,1,8,0:0:0:0:
256,192,25353,1,0,0:0:0:0:
256,192,25539,5,4,0:0:0:0:
256,192,25912,1,4,0:0:0:0:
256,192,26284,5,8,0:0:0:0:
256,192,26377,5,0,0:0:0:0:
256,192,26471,1,0,0:0:0:0:
256,192,26564,1,0,0:0:0:0:
256,192,26657,5,8,0:0:0:0:
256,192,26843,1,8,0:0:0:0:
256,192,26936,1,8,0:0:0:0:
256,192,27030,5,0,0:0:0:0:
256,192,27216,1,0,0:0:0:0:
256,192,27309,5,8,0:0:0:0:
256,192,27402,5,0,0:0:0:0:
256,192,27495,1,0,0:0:0:0:
256,192,27589,5,8,0:0:0:0:
256,192,27682,1,8,0:0:0:0:
256,192,27775,5,0,0:0:0:0:
256,192,27868,1,0,0:0:0:0:
256,192,27961,5,8,0:0:0:0:
256,192,28054,5,0,0:0:0:0:
256,192,28148,5,8,0:0:0:0:
256,192,28241,1,8,0:0:0:0:
256,192,28334,5,0,0:0:0:0:
256,192,28520,1,4,0:0:0:0:
256,192,28893,1,4,0:0:0:0:
256,192,29266,5,8,0:0:0:0:
256,192,29359,5,0,0:0:0:0:
256,192,29452,5,8,0:0:0:0:
256,192,29545,1,8,0:0:0:0:
256,192,29638,5,0,0:0:0:0:
256,192,29825,5,8,0:0:0:0:
256,192,29918,5,0,0:0:0:0:
256,192,30011,1,0,0:0:0:0:
256,192,30197,1,0,0:0:0:0:
256,192,30384,5,8,0:0:0:0:
256,192,30570,1,8,0:0:0:0:
256,192,30663,5,0,0:0:0:0:
256,192,30849,1,0,0:0:0:0:
256,192,30943,5,8,0:0:0:0:
256,192,31129,5,0,0:0:0:0:
256,192,31222,1,0,0:0:0:0:
256,192,31315,5,8,0:0:0:0:
256,192,31502,5,4,0:0:0:0:
256,192,31874,1,4,0:0:0:0:
256,192,32247,1,0,0:0:0:0:
256,192,32340,5,8,0:0:0:0:
256,192,32433,5,0,0:0:0:0:
256,192,32526,5,8,0:0:0:0:
256,192,32620,5,0,0:0:0:0:
256,192,32713,1,0,0:0:0:0:
256,192,32806,5,8,0:0:0:0:
256,192,32992,5,0,0:0:0:0:
256,192,33179,5,8,0:0:0:0:
256,192,33272,1,8,0:0:0:0:
256,192,33365,1,8,0:0:0:0:
256,192,33458,1,8,0:0:0:0:
256,192,33551,5,0,0:0:0:0:
256,192,33644,1,0,0:0:0:0:
256,192,33738,5,8,0:0:0:0:
256,192,33831,5,0,0:0:0:0:
256,192,33924,1,0,0:0:0:0:
256,192,34017,1,0,0:0:0:0:
256,192,34110,5,8,0:0:0:0:
256,192,34203,1,8,0:0:0:0:
256,192,34297,5,0,0:0:0:0:
256,192,34483,1,4,0:0:0:0:
256,192,34856,1,4,0:0:0:0:
256,192,35228,1,0,0:0:0:0:
256,192,35321,1,0,0:0:0:0:
256,192,35415,5,8,0:0:0:0:
256,192,35508,1,8,0:0:0:0:
256,192,35601,5,0,0:0:0:0:
256,192,35787,5,8,0:0:0:0:
256,192,35880,1,8,0:0:0:0:
256,192,35974,5,0,0:0:0:0:
256,192,36160,1,0,0:0:0:0:
256,192,36346,5,8,0:0:0:0:
256,192,36533,5,0,0:0:0:0:
256,192,36719,5,8,0:0:0:0:
256,192,36812,5,0,0:0:0:0:
256,192,36998,5,8,0:0:0:0:
256,192,37092,5,0,0:0:0:0:
256,192,37278,1,0,0:0:0:0:
256,192,37464,1,4,0:0:0:0:
256,192,37837,1,4,0:0:0:0:
256,192,38210,5,8,0:0:0:0:
256,192,38303,1,8,0:0:0:0:
256,192,38396,1,8,0:0:0:0:
256,192,38489,1,8,0:0:0:0:
256,192,38582,5,0,0:0:0:0:
256,192,38769,1,0,0:0:0:0:
256,192,38862,1,8,0:0:0:0:
256,192,38955,1,0,0:0:0:0:
256,192,39141,1,0,0:0:0:0:
256,192,39235,1,0,0:0:0:0:
256,192,39328,5,8,0:0:0:0:
256,192,39421,5,0,0:0:0:0:
256,192,39514,5,8,0:0:0:0:
256,192,39607,1,8,0:0:0:0:
256,192,39700,5,0,0:0:0:0:
256,192,39794,1,0,0:0:0:0:
256,192,39887,5,8,0:0:0:0:
256,192,39980,1,8,0:0:0:0:
256,192,40073,5,0,0:0:0:0:
256,192,40166,5,8,0:0:0:0:
256,192,40259,1,8,0:0:0:0:
256,192,40446,5,4,0:0:0:0:
256,192,40818,1,4,0:0:0:0:
256,192,41191,5,8,0:0:0:0:
256,192,41284,5,0,0:0:0:0:
256,192,41377,1,0,0:0:0:0:
256,192,41471,5,8,0:0:0:0:
256,192,41564,5,0,0:0:0:0:
256,192,41750,5,8,0:0:0:0:
256,192,41843,5,0,0:0:0:0:
256,192,41936,5,0,0:0:0:0:
256,192,42123,1,8,0:0:0:0:
256,192,42309,1,0,0:0:0:0:
256,192,42495,1,8,0:0:0:0:
256,192,42682,5,0,0:0:0:0:
256,192,42775,1,0,0:0:0:0:
256,192,42961,1,0,0:0:0:0:
256,192,43054,5,8,0:0:0:0:
256,192,43241,5,0,0:0:0:0:
256,192,43427,1,4,0:0:0:0:
256,192,43800,1,4,0:0:0:0:
256,192,44172,1,0,0:0:0:0:
256,192,44359,1,0,0:0:0:0:
256,192,44545,5,8,0:0:0:0:
256,192,44731,1,8,0:0:0:0:
256,192,44918,5,0,0:0:0:0:
256,192,45011,1,0,0:0:0:0:
256,192,45104,5,8,0:0:0:0:
256,192,45290,1,8,0:0:0:0:
256,192,45384,1,8,0:0:0:0:
256,192,45477,1,0,0:0:0:0:
256,192,45663,1,8,0:0:0:0:
256,192,45756,1,8,0:0:0:0:
256,192,45849,5,0,0:0:0:0:
256,192,45943,1,0,0:0:0:0:
256,192,46036,5,8,0:0:0:0:
256,192,46129,1,8,0:0:0:0:
256,192,46222,1,8,0:0:0:0:
256,192,46408,5,4,0:0:0:0:
256,192,46595,5,8,0:0:0:0:
256,192,46781,5,4,0:0:0:0:
256,192,46967,5,8,0:0:0:0:
256,192,47154,1,8,0:0:0:0:
256,192,47247,5,0,0:0:0:0:
256,192,47340,1,0,0:0:0:0:
256,192,47526,5,8,0:0:0:0:
256,192,47620,1,8,0:0:0:0:
256,192,47713,5,0,0:0:0:0:
256,192,47899,5,8,0:0:0:0:
256,192,47992,1,8,0:0:0:0:
256,192,48085,1,8,0:0:0:0:
256,192,48179,1,8,0:0:0:0:
256,192,48272,5,0,0:0:0:0:
256,192,48365,1,0,0:0:0:0:
256,192,48458,1,0,0:0:0:0:
256,192,48551,1,0,0:0:0:0:
256,192,48644,5,8,0:0:0:0:
256,192,48738,1,8,0:0:0:0:
256,192,48831,5,0,0:0:0:0:
256,192,48924,1,0,0:0:0:0:
256,192,49017,5,8,0:0:0:0:
256,192,49110,5,0,0:0:0:0:
256,192,49203,5,8,0:0:0:0:
256,192,49390,1,12,0:0:0:0:
