osu file format v5

[General]
AudioFilename: munTaungTaun.mp3
AudioLeadIn: 3000
PreviewTime: -1
Countdown: 0
SampleSet: Normal
StackLeniency: 0.7
Mode: 0
LetterboxInBreaks: 1

[Editor]
Bookmarks: 2230,33621,67231,77435,88084,94628,106941,112931,122248,132453,153417,155525,160183,188579,192806,212162,217043
DistanceSpacing: 1.60000002384186
BeatDivisor: 4
GridSize: 8

[Metadata]
Title:Mun Taung Taun
Artist:Poyfai Mahlaiporn
Creator:pete2528
Version:Hard
Source:Thai Folk Song
Tags:

[Difficulty]
HPDrainRate:7
CircleSize:5
OverallDifficulty:7
SliderMultiplier:1.4
SliderTickRate:1

[Events]
//Background and Video events
Video,-2900,"Tong_Torn.avi"
0,0,"bg.jpg"
//Break Periods
2,32613,32622
2,60553,66331
2,119120,121348
2,176356,177031
2,229611,231395
//Storyboard Layer 0 (Background)
//Storyboard Layer 1 (Fail)
//Storyboard Layer 2 (Pass)
//Storyboard Layer 3 (Foreground)
//Storyboard Sound Samples
//Background Colour Transformations
3,100,163,162,255

[TimingPoints]
468,443.688530651483,4,1,0,66,1,0
2230,-100,4,2,0,66,0,0
7677,-100,4,1,0,66,0,0
87906,-100,4,1,0,66,0,1
103669,-100,4,1,0,66,0,0
106747,-100,4,1,0,66,0,0
121661,-100,4,1,0,66,0,1
145764,-50,4,1,0,66,0,0
147538,-100,4,1,0,66,0,0
152197,-100,4,1,0,66,0,0
232073,-100,4,1,0,66,0,1

[Colours]
Combo1 : 255,255,128
Combo2 : 5,240,5
Combo3 : 5,5,240
Combo4 : 240,5,5
Combo5 : 255,128,0

[HitObjects]
64,96,2242,5,0
256,96,2908,5,0
256,96,3130,1,0
256,160,3351,1,0
302,191,3573,1,0
253,219,3795,1,0
204,193,4017,1,0
258,84,4683,5,0
257,140,4904,1,0
255,196,5126,1,0
254,252,5348,1,0
198,258,5570,1,0
198,202,5792,1,0
256,96,6457,5,0
256,152,6679,1,0
256,208,6901,1,0
255,264,7123,1,0
309,252,7345,1,0
318,196,7567,1,0
376,192,7788,6,0,C|452:192,3,70
448,128,8676,5,0
448,64,8898,1,0
384,64,9119,1,0
320,64,9341,1,4
224,64,9785,5,0
111,66,10229,1,0
111,177,10672,1,0
111,177,10894,1,0
114,289,11338,1,0
225,293,11782,1,0
336,291,12225,1,0
336,229,12447,1,0
336,167,12669,1,0
336,104,12891,1,4
224,64,13334,5,0
111,66,13778,1,0
111,177,14222,1,0
111,177,14444,1,0
108,289,14887,1,2
136,289,14998,1,2
164,289,15109,1,2
236,290,15331,1,2
264,289,15442,1,2
292,288,15553,1,2
359,289,15775,1,2
387,288,15886,1,2
415,287,15997,1,2
422,220,16218,1,0
422,219,16440,1,4
411,65,16884,5,0
109,68,17328,1,0
318,67,17771,1,2
208,67,17993,1,2
256,192,18437,1,0
110,189,18881,1,0
403,190,19324,1,2
332,191,19546,1,2
261,191,19768,1,2
190,191,19990,1,4
383,347,20433,5,0
380,45,20877,1,0
381,254,21321,1,2
381,144,21543,1,2
256,192,21986,1,0
259,46,22430,1,0
258,339,22874,1,2
258,268,23096,1,2
257,197,23317,1,2
256,126,23539,1,4
101,65,23983,5,0
403,68,24427,1,0
194,67,24870,1,2
304,67,25092,1,2
256,192,25536,1,0
402,189,25980,1,0
109,190,26423,1,2
179,190,26645,1,2
249,190,26867,1,2
319,190,27089,1,4
256,192,27422,12,4,32413
443,320,33522,5,0
379,321,33744,1,0
316,323,33966,1,0
252,323,34188,1,4
76,252,34853,5,2
76,188,35075,1,8
76,124,35297,1,2
78,61,35519,1,8
141,61,35741,1,2
204,61,35963,1,4
256,192,36184,12,0,36850
128,222,37072,5,8
130,285,37294,1,8
192,290,37515,1,8
189,352,37737,1,12
359,270,38403,5,2
401,223,38625,1,8
423,164,38847,1,2
434,102,39068,1,8
385,61,39290,1,2
322,57,39512,1,12
123,57,40178,5,2
83,105,40399,1,8
43,154,40621,1,2
93,191,40843,1,8
136,144,41065,1,2
178,97,41287,1,4
328,210,41952,5,2
286,257,42174,1,8
243,303,42396,1,2
290,344,42618,1,8
334,299,42840,1,2
375,251,43062,1,4
189,287,43727,5,2
189,223,43949,1,8
189,159,44171,1,2
192,96,44393,1,8
192,96,44615,1,2
192,96,44836,1,4
303,248,45502,5,2
366,246,45724,1,8
368,183,45946,1,2
305,187,46167,1,8
305,123,46389,2,0,L|383:123,1,70,2|4
256,192,47166,12,4,47498
256,192,47609,12,4,47942
256,192,48053,12,4,48386
256,192,48940,12,4,49273
256,192,49384,12,4,49717
256,192,49828,12,4,50161
118,289,50826,5,0
181,287,51048,1,2
186,224,51270,1,0
249,223,51492,1,2
249,223,51714,1,0
249,223,51935,1,2
253,160,52157,5,4
254,160,52379,1,4
316,163,52601,1,0
316,162,52823,1,0
378,165,53045,2,8,L|378:129,2,35
376,228,53488,1,0
377,291,53710,1,4
96,310,54376,5,0
159,308,54598,1,0
158,245,54819,1,0
159,308,55041,1,0
222,309,55263,2,2,L|383:309,1,140,2|6
417,196,56150,6,0,L|418:104,1,70
419,62,56594,5,0
419,62,56816,1,0
419,62,57038,2,2,L|276:62,1,140,2|6
167,63,57925,5,0
103,63,58147,1,0
100,126,58369,2,0,L|189:126,1,70
256,192,58813,12,4,60365
70,55,67243,5,8
70,55,67464,1,8
116,98,67686,1,8
116,98,67908,1,4
299,51,68574,1,2
299,51,68796,1,8
361,50,69017,1,2
361,50,69239,1,8
423,54,69461,1,2
423,54,69683,2,2,L|423:197,1,140,4|0
101,192,70792,5,8
164,191,71014,1,8
227,190,71236,1,8
290,189,71458,2,0,L|329:122|270:60,1,140
223,70,72123,5,2
223,70,72345,1,8
159,71,72567,1,2
159,71,72789,1,8
95,70,73011,1,2
95,70,73232,2,0,L|259:70,1,140,0|0
298,72,73898,5,2
298,72,74120,1,0
325,128,74342,2,0,L|366:196,1,70,2|0
304,216,74785,2,0,L|252:133,1,70,2|4
96,74,75673,6,0,L|96:151,1,70,2|0
97,207,76116,1,2
98,270,76338,1,0
161,270,76560,1,2
224,271,76782,1,4
412,270,77447,5,2
412,270,77669,1,0
408,207,77891,1,2
407,143,78113,1,0
407,79,78335,1,2
407,79,78557,1,4
218,70,79222,5,2
154,68,79444,1,0
154,131,79666,1,2
217,132,79888,1,0
280,134,80110,1,2
282,71,80331,1,0
92,70,80997,5,8
92,133,81219,1,8
93,195,81441,1,8
95,257,81663,2,0,L|94:85,1,140,8|4
280,83,82772,5,8
329,122,82994,1,8
371,75,83215,1,8
427,103,83437,2,0,L|255:104,1,140,8|4
192,267,84546,5,8
192,330,84768,1,8
255,328,84990,1,8
256,264,85212,2,0,L|428:264,1,140,8|4
396,200,85878,5,2
396,137,86099,1,2
396,73,86321,1,2
332,73,86543,1,2
268,71,86765,1,0
267,102,86876,1,0
268,134,86987,1,0
330,136,87209,1,2
330,136,87320,1,0
330,136,87430,1,4
63,64,88096,5,2
126,63,88318,1,0
189,63,88540,1,2
252,63,88762,1,0
314,63,88983,1,0
345,63,89094,1,0
376,63,89205,1,4
417,292,89871,5,2
353,292,90093,1,0
290,292,90314,1,2
226,292,90536,1,0
162,293,90758,1,0
130,293,90869,1,0
98,293,90980,1,4
392,190,91645,5,2
329,190,91867,1,0
265,190,92089,1,2
201,190,92311,1,0
137,190,92533,1,2
256,192,92644,12,0,94086
311,127,94529,5,8
205,260,94973,1,8
347,171,95417,5,8
182,203,95860,1,8
350,227,96304,5,8
202,145,96748,1,8
313,275,97192,5,8
256,117,97635,1,8
254,286,98079,1,8
256,192,98301,12,8,99410
254,190,99854,5,4
114,185,100297,5,8
115,255,100519,1,2
255,254,100963,1,0
325,254,101185,1,8
395,254,101407,1,2
405,114,101850,1,0
405,114,102072,1,8
405,114,102294,1,2
278,111,102738,5,0
245,165,102960,1,0
280,217,103181,1,0
249,280,103403,1,4
160,176,103847,5,0
384,160,104291,5,0
168,96,104734,5,0
336,240,105178,5,0
216,48,105622,5,0
264,264,106065,5,0
328,48,106509,5,0
283,129,106953,5,4
281,192,107175,1,0
282,254,107396,1,0
280,317,107618,1,0
232,318,107785,1,0
152,319,108062,5,0
120,320,108173,1,0
88,320,108284,1,0
88,256,108506,2,0,L|89:178,1,70
91,122,108949,5,0
90,90,109060,1,0
90,58,109171,1,0
153,55,109393,2,0,L|223:55,1,70
262,54,109726,5,0
325,53,109948,1,0
356,52,110059,1,0
425,52,110280,1,0
456,52,110391,1,0
484,142,110724,5,0
421,144,110946,1,0
357,142,111168,1,0
325,143,111279,2,0,L|278:143,1,35
285,205,111611,2,2,L|202:205,1,70
210,268,112055,2,2,L|127:268,1,70
92,133,112943,6,0,L|140:67,2,70
61,188,113608,1,0
110,227,113830,2,4,L|169:272,1,70,0|4
347,248,114717,5,0
410,246,114939,1,0
407,182,115161,2,4,L|333:182|333:102,1,140,0|4
225,64,116492,5,0
162,66,116714,1,0
98,67,116936,1,0
97,130,117158,1,0
256,192,117379,12,4,118932
416,192,122260,6,0,L|320:192,2,70,2|0|2
345,194,122926,1,4
156,194,123591,1,2
92,193,123813,1,0
92,193,124035,2,0,L|170:194,3,70,2|0|2|0
159,130,124922,5,8
159,98,125033,1,8
159,66,125144,1,8
222,65,125366,1,8
253,64,125477,1,8
284,64,125588,1,8
347,63,125865,6,0,L|418:63,1,70,2|0
419,126,126308,2,0,L|419:198,1,70,2|0
419,196,126752,1,2
419,196,126974,1,0
419,196,127196,2,0,L|358:272,1,70,2|0
312,253,127639,1,2
312,253,127861,1,0
248,253,128083,1,2
248,253,128305,1,4
122,255,128693,5,0
122,223,128804,1,0
121,191,128915,1,0
123,128,129137,2,0,L|45:128,1,70
52,64,129581,1,0
122,62,129803,2,0,L|219:62,1,70,0|4
188,202,130468,5,2
258,202,130690,1,2
328,199,130912,1,2
293,137,131134,1,2
259,76,131356,1,2
328,75,131577,1,2
398,75,131799,1,6
417,284,132465,5,2
346,283,132687,1,2
275,282,132909,1,2
205,282,133130,1,2
134,282,133352,1,8
102,281,133463,1,8
63,282,133574,1,12
58,71,134240,6,2,L|150:71,2,70
58,71,134905,2,0,L|57:161,1,70,8|8
57,140,135349,1,12
264,168,136014,6,2,L|264:260,2,70
264,168,136680,2,0,L|174:167,1,70,8|8
195,167,137124,1,12
384,75,137789,6,2,L|292:75,2,70
384,75,138455,2,0,L|385:165,1,70,8|8
385,144,138898,1,12
381,213,139120,5,2
345,212,139231,1,2
309,211,139342,1,2
238,211,139564,1,2
202,211,139675,1,2
166,211,139786,1,2
95,211,140008,2,2,L|17:211,1,70
20,289,140451,1,4
20,289,140673,1,4
22,115,141339,5,10
22,115,141560,1,8
84,118,141782,1,10
147,116,142004,1,8
155,53,142226,2,12,L|296:53,1,140,2|4
369,116,143113,6,0,L|369:197,1,70
432,191,143557,1,0
434,121,143779,1,0
503,116,144001,2,0,L|503:47|403:47,1,157.5,0|4
257,51,144888,5,2
256,121,145110,1,2
256,191,145332,1,2
256,191,145554,1,2
257,191,145775,2,2,B|287:249|350:141|296:86|176:87|141:154|99:316|266:381|367:324|532:219|467:-6|343:-25|79:-29|72:71|57:340|179:344|289:341|395:270|389:145,1,962.5,2|4
311,127,147772,5,8
205,260,148216,1,8
347,171,148659,5,8
182,203,149103,1,8
350,227,149547,5,8
202,145,149991,1,8
313,275,150434,5,8
256,117,150878,1,8
256,279,151377,5,0
256,209,151599,2,0,L|257:123,1,70
257,68,152043,1,0
257,68,152264,1,0
200,26,152486,1,0
164,25,152597,1,0
128,25,152708,1,0
93,26,152819,1,0
57,27,152930,1,0
21,27,153041,1,0
20,27,153152,1,0
60,104,153429,6,0,L|60:202,1,70
60,104,153873,2,0,L|122:165,1,70
60,104,154261,2,0,L|141:104,3,70
264,49,155537,5,0
292,69,155648,1,0
316,93,155758,1,0
336,121,155869,1,0
354,150,155980,1,0
369,181,156091,1,0
386,211,156202,1,0
386,246,156258,2,0,L|367:281,3,35
337,292,156701,6,0,L|287:304,3,35
267,298,157145,1,0
232,295,157256,1,0
198,284,157367,1,0
166,268,157478,1,0
134,252,157589,1,0
105,231,157700,1,0
86,201,157811,1,0
86,165,157921,6,0,L|142:84|201:165|209:50|298:163|298:163|291:52|369:112|399:33,1,735,0|4
411,65,160639,5,0
109,68,161083,1,0
318,67,161526,1,2
208,67,161748,1,2
256,192,162192,1,2
110,189,162636,1,0
403,190,163079,1,2
332,191,163301,1,2
261,191,163523,1,2
190,191,163745,1,4
383,347,164189,5,0
380,45,164632,1,0
381,254,165076,1,2
381,144,165298,1,2
256,192,165741,1,2
259,46,166185,1,0
258,339,166629,1,2
258,268,166851,1,2
257,197,167073,1,2
256,126,167294,1,2
101,65,167738,5,0
403,68,168182,1,0
194,67,168625,1,2
304,67,168847,1,2
256,192,169291,1,2
402,189,169735,1,0
109,190,170178,1,2
179,190,170400,1,2
249,190,170622,1,2
319,190,170844,1,0
197,259,171288,5,0
130,337,171731,1,0
241,337,172175,1,2
241,337,172397,1,2
353,334,172840,1,0
357,223,173284,1,0
355,112,173728,1,2
293,112,173950,1,2
231,112,174172,1,2
168,112,174393,1,4
255,194,175503,5,8
255,194,175724,1,8
255,194,175946,1,8
255,194,176168,1,4
116,328,177943,5,2
256,328,178387,1,2
325,326,178608,1,0
395,327,178830,1,2
395,186,179274,1,0
254,182,179718,1,2
114,189,180161,1,8
114,189,180383,1,8
114,189,180605,1,8
114,48,181049,5,0
253,48,181492,1,2
393,49,181936,1,2
393,119,182158,1,0
394,189,182380,1,2
395,328,182823,1,2
254,325,183267,1,2
256,184,183711,5,0
256,43,184155,1,0
116,44,184598,1,0
110,183,185042,1,0
180,184,185264,5,2
250,184,185486,1,2
254,114,185707,1,2
183,114,185929,1,2
181,43,186151,1,2
251,41,186373,1,2
320,36,186595,2,2,L|321:126,1,70
323,246,187260,5,2
252,245,187482,1,8
181,244,187704,1,2
110,244,187926,1,8
180,244,188148,1,2
250,244,188370,1,8
319,244,188591,1,4
416,64,189257,6,0,L|384:128,1,70,2|8
325,104,189701,2,0,L|244:70,1,70,2|8
204,48,190144,1,0
204,48,190366,1,4
256,192,190921,12,4,191253
256,192,191364,12,4,191697
256,192,191808,12,4,192141
68,80,192806,5,2
67,143,193028,1,2
66,206,193250,1,2
129,205,193472,1,2
192,206,193694,1,2
255,206,193916,2,0,L|256:134|163:134,1,140,0|4
124,135,194581,5,2
125,71,194803,1,2
188,71,195025,1,2
251,71,195247,1,2
314,72,195469,1,2
313,134,195690,1,6
309,201,195912,5,8
309,201,196023,1,8
309,201,196134,1,8
271,260,196356,5,8
271,260,196467,1,8
271,260,196578,1,8
204,282,196800,5,8
204,282,196911,1,8
204,282,197022,1,8
134,287,197243,2,12,L|135:207,1,70,0|12
138,32,198131,5,0
140,95,198353,1,0
203,94,198574,1,0
140,95,198796,1,0
139,158,199018,2,0,L|139:319,1,140
252,353,199905,6,0,L|344:354,1,70
386,355,200349,5,0
386,355,200571,1,0
386,355,200793,2,0,L|386:212,1,140
385,103,201680,5,0
385,39,201902,1,0
322,36,202124,2,0,L|322:125,1,70
256,192,202568,12,4,204120
191,137,204620,5,8
324,243,205064,1,8
235,101,205507,5,8
267,266,205951,1,8
291,98,206395,5,8
209,246,206839,1,8
339,135,207282,5,8
181,192,207726,1,8
343,201,208169,1,8
272,199,208391,5,8
219,201,208613,1,8
166,203,208835,1,8
113,202,209057,1,8
38,299,209445,2,0,L|77:320|59:354|126:362,1,140,0|4
202,373,210166,6,0,L|300:373,1,70,0|8
342,373,210609,2,0,L|412:373,1,70
482,367,211053,2,0,L|482:285,1,70,0|8
411,295,211497,2,0,L|331:295,1,70
270,296,211941,2,0,L|197:296,1,70,0|8
129,297,212384,2,4,L|50:297,1,70,0|0
50,227,212828,2,4,L|50:152,3,70
148,85,213882,6,0,L|234:57,1,87.5,8|0
285,61,214325,6,0,L|374:95,1,87.5
394,143,214769,6,0,L|378:231,1,87.5,8|0
354,276,215213,6,0,L|280:328,1,87.5,0|0
224,325,215656,6,0,L|159:257,1,87.5,8|0
156,201,216100,6,0,L|245:201,1,87.5,0|8
244,201,216599,5,8
244,201,216821,1,8
244,201,217043,1,8
307,201,217265,1,0
308,263,217486,1,0
306,326,217708,1,0
337,326,217819,1,0
415,328,218097,5,0
414,296,218208,1,0
415,264,218319,1,0
353,251,218540,2,0,L|257:251,1,87.5
206,253,218983,5,0
205,221,219094,1,0
205,189,219205,1,0
142,183,219427,2,0,L|142:100,1,70
142,81,219760,5,0
205,79,219982,1,0
236,79,220093,1,0
298,79,220314,1,0
329,78,220425,1,0
423,76,220758,5,0
486,77,220980,1,0
485,140,221202,1,0
453,142,221313,2,0,L|406:142,1,35
355,147,221645,2,2,L|272:147,1,70,0|2
285,210,222089,2,2,L|202:210,1,70,8|2
118,142,222977,6,0,L|166:76,1,70
118,142,223421,1,0
87,197,223642,1,0
136,236,223864,2,0,L|195:281,1,70,0|4
373,257,224751,5,8
436,255,224973,1,8
436,191,225195,2,2,L|434:103,1,70
434,121,225639,1,8
434,121,225750,1,8
434,121,225861,1,12
251,73,226526,5,0
276,130,226748,1,0
316,81,226970,1,0
341,138,227192,1,0
256,192,227303,12,4,227636
256,192,227747,12,4,228080
256,192,228191,12,4,228523
256,192,228634,12,4,228967
256,192,229078,12,4,229411
96,192,232295,6,0,L|192:192,2,70,2|0|2
167,190,232961,1,4
356,190,233626,1,2
420,191,233848,1,0
420,191,234070,2,0,L|342:190,3,70,2|0|2|0
353,254,234957,5,8
353,286,235068,1,8
353,318,235179,1,8
290,319,235401,1,8
259,320,235512,1,8
228,320,235623,1,8
165,321,235845,6,0,L|94:321,1,70,2|0
93,258,236288,2,0,L|93:186,1,70,2|0
93,188,236732,1,2
93,188,236954,1,0
93,188,237176,2,0,L|154:112,1,70,2|0
200,131,237619,1,2
200,131,237841,1,0
264,131,238063,1,2
264,131,238285,1,4
390,129,238728,5,2
390,161,238839,1,0
391,193,238950,1,0
389,256,239172,2,0,L|467:256,1,70,2|0
460,320,239616,1,0
390,322,239838,2,0,L|293:322,1,70,2|4
324,182,240503,5,2
254,182,240725,1,2
184,185,240947,1,2
219,247,241169,1,2
253,308,241391,1,2
184,309,241612,1,2
114,309,241834,1,6
95,100,242500,5,2
166,101,242722,1,0
237,102,242944,1,2
307,102,243165,1,0
378,102,243387,1,2
410,103,243498,1,2
449,102,243609,1,6
454,313,244275,6,2,L|362:313,2,70
454,313,244940,2,0,L|455:223,1,70,8|8
455,244,245384,1,12
248,216,246049,6,2,L|248:124,2,70
248,216,246715,2,0,L|338:217,1,70,8|8
317,217,247159,1,12
128,309,247824,6,2,L|220:309,2,70
128,309,248490,2,0,L|127:219,1,70,8|8
127,240,248933,1,12
131,171,249155,5,2
167,172,249266,1,2
203,173,249377,1,2
274,173,249599,1,2
310,173,249710,1,2
346,173,249821,1,2
415,173,250042,1,2
450,173,250153,1,2
485,173,250264,1,2
489,103,250486,1,4
487,103,250708,1,4
490,269,251374,5,2
490,269,251595,1,0
428,266,251817,1,2
365,268,252039,1,0
357,331,252261,2,4,L|144:330,1,210,2|4
143,268,253148,6,0,L|143:187,1,70,2|0
80,193,253592,1,2
78,263,253814,1,0
9,268,254036,2,0,L|9:337|151:337,1,210,0|4
255,333,254923,5,2
256,263,255145,1,0
256,193,255367,1,2
256,193,255589,1,0
256,192,255699,12,4,257363
201,257,257807,5,8
307,124,258251,1,8
165,213,258694,5,8
330,181,259138,1,8
162,157,259582,5,8
310,239,260026,1,8
199,109,260469,5,8
256,267,260913,1,8
257,104,261356,1,8
256,191,261578,5,8
185,191,261800,1,8
254,192,262021,1,8
324,191,262243,1,8
256,191,262465,2,8,L|256:227,2,35
256,191,262798,2,8,L|256:227,2,35
256,191,263131,1,12
