osu file format v5

[General]
AudioFilename: Power Puff Girls - Love Makes The World Go Round.mp3
AudioLeadIn: 0
PreviewTime: -1
Countdown: 1
SampleSet: Normal
StackLeniency: 0.7
Mode: 0
LetterboxInBreaks: 1

[Editor]
DistanceSpacing: 1.5
BeatDivisor: 4
GridSize: 8

[Metadata]
Title:Love Makes the World Go Round
Artist:Powerpuff Girls
Creator:Cheedar
Version:ventuz - Normal
Source:The Powerpuff Girls
Tags:the powerpuff power puff girls

[Difficulty]
HPDrainRate:2
CircleSize:4
OverallDifficulty:2
SliderMultiplier:0.6
SliderTickRate:1

[Events]
//Background and Video events
Video,0,"Power Puff Girls - Love Makes The World Go 'round.flv"
0,0,"bg.png"
//Break Periods
2,63855,76914
2,91640,104808
//Storyboard Layer 0 (Background)
//Storyboard Layer 1 (Fail)
//Storyboard Layer 2 (Pass)
//Storyboard Layer 3 (Foreground)
//Storyboard Sound Samples
//Background Colour Transformations
3,100,0,255,255

[TimingPoints]
1768,435.834295800737,4,1,0,60,1,0

[Colours]
Combo1 : 0,0,0
Combo2 : 255,0,128
Combo3 : 0,128,255
Combo4 : 0,255,0
Combo5 : 255,255,255

[HitObjects]
216,72,22688,1,0
160,128,23559,1,0
112,192,24431,1,0
160,256,25085,2,4,B|232:328,1,90
296,320,26174,5,0
336,280,26610,1,0
376,240,27046,1,0
376,168,27918,1,0
336,120,28353,1,0
296,72,28789,1,4
256,192,29661,12,0,32276
88,192,33148,5,0
144,144,33583,1,0
200,192,34019,1,0
256,248,34455,1,0
304,192,34891,1,0
352,136,35545,2,4,B|392:96,1,30
440,40,36198,6,0,B|376:40,1,60
304,40,37070,2,0,B|208:144,1,120
224,208,38378,1,0
128,232,39685,6,0,B|144:248,1,15
160,264,40121,2,0,B|248:176,1,120
304,128,41428,6,4,B|312:96|376:96|384:160|344:192|304:168|304:136,1,150
296,192,43608,6,0,B|248:144,2,60
344,248,44915,2,0,B|296:296,1,60
256,336,45787,1,0
208,288,46658,2,4,B|160:240,1,60
256,192,48402,12,0,49491
328,120,50581,5,0
256,120,51017,1,0
184,120,51453,1,0
112,120,51888,1,0
112,160,52106,2,4,B|112:192,1,30
416,32,54068,5,0
344,80,54503,1,2
256,96,54939,1,0
160,80,55375,1,2
88,32,55811,1,0
40,104,56465,2,6,B|72:136,1,30
120,192,57554,6,6,B|160:144|160:144|200:192|200:192|240:144|240:144|280:192|280:192|336:128,1,330
456,56,61041,5,0
456,144,61477,1,0
456,240,61913,1,0
456,328,62348,1,0
392,328,62784,2,0,B|360:328,1,30
312,328,63438,2,4,B|280:328,1,30
224,64,78474,5,0
176,112,78910,1,0
136,160,79346,1,0
136,224,79782,1,0
136,224,79891,1,0
136,288,80218,2,0,B|224:200,1,120
288,200,81525,1,0
288,200,81634,1,0
360,200,81961,2,4,B|448:288,1,120
448,192,83269,5,0
448,152,83486,1,0
440,96,83704,2,4,B|424:64|392:72|392:104|416:120|448:96,1,90
328,48,85448,6,0,B|328:112,1,60
328,176,86319,2,0,B|256:176,1,60
264,112,87191,1,0
264,48,87627,2,0,B|200:48,1,60
136,48,88499,1,0
136,48,88607,1,0
136,120,88934,2,0,B|136:248,1,120
136,312,90242,2,0,B|280:312,1,135
272,312,91440,1,4
328,32,106477,5,0
328,112,106913,1,0
256,112,107348,1,0
256,192,107784,1,0
256,192,107893,1,0
176,192,108220,2,4,B|80:192,1,90
96,272,109528,5,0
96,272,109636,1,0
160,272,109963,2,4,B|264:272,1,90
320,208,111162,6,4,B|296:168|352:136|376:152|384:232|320:208,1,150
312,160,113450,6,0,B|264:112,1,60
216,64,114322,1,0
168,120,114758,1,0
168,120,114866,1,0
120,176,115193,2,0,B|216:272,1,120
256,312,116392,5,0
256,312,116501,1,0
256,312,116828,2,0,B|256:184,1,120
256,192,118135,12,0,119225
