osu file format v6

[General]
AudioFilename: doctor who mysterious remix.mp3
AudioLeadIn: 0
PreviewTime: -1
Countdown: 0
SampleSet: Soft
StackLeniency: 0.6
Mode: 0
LetterboxInBreaks: 1
SkinPreference:Default

[Editor]
DistanceSpacing: 0.800000011920929
BeatDivisor: 6
GridSize: 32

[Metadata]
Title:Doctor Who Remix
Artist:Powergannon
Creator:Powergannon
Version:Normal
Source:Doctor Who
Tags:doctor who

[Difficulty]
HPDrainRate:4
CircleSize:5
OverallDifficulty:5
SliderMultiplier:1.4
SliderTickRate:1

[Events]
//Background and Video events
0,0,"tardis.JPG"
//Break Periods
2,34868,35417
2,52858,53858
2,66352,66901
//Storyboard Layer 0 (Background)
//Storyboard Layer 1 (Fail)
//Storyboard Layer 2 (Pass)
//Storyboard Layer 3 (Foreground)
//Storyboard Sound Samples
//Background Colour Transformations
3,100,29,16,82

[TimingPoints]
4983.1266217581,899.550224887556,4,2,0,100,1,0

[Colours]
Combo1 : 248,55,7
Combo2 : 37,54,207
Combo3 : 112,118,107
Combo4 : 97,137,61

[HitObjects]
288,320,1534,2,0,B|224:320|352:288|416:224|416:160|384:128|320:64|256:128,1,373.333333333333
256,192,4083,1,0
256,192,4983,1,0
256,192,5882,1,0
256,192,6782,1,0
256,192,7681,1,0
256,192,8581,1,0
256,192,9480,1,0
256,192,10380,1,0
256,192,11279,1,0
256,192,12179,1,0
256,192,13079,1,0
256,192,13978,1,0
256,192,14878,1,0
256,192,15777,1,0
256,192,16677,1,0
352,192,17127,2,0,B|352:128|384:64|224:128,1,186.666666666667
160,192,18776,1,0
160,192,18926,1,0
96,64,20275,2,0,B|64:128|64:224|128:288|192:288,1,280
192,160,22224,1,0
288,288,23124,1,0
288,288,23873,1,0
288,288,24773,1,0
384,288,25223,1,0
384,192,25672,1,0
288,128,26422,2,0,B|128:128,2,140
256,208,29570,12,0,34668
256,256,36617,5,0
256,256,37067,1,0
256,256,37516,1,0
160,256,37966,2,0,B,1,140
224,96,39016,2,0,B|224:256,1,140
320,256,40065,2,0,B|384:192|384:128|352:64,1,256.666666666667
224,32,41864,2,0,B|160:64|128:160|160:256|192:256,1,256.666666666667
256,288,43663,2,0,B|352:288|416:256,1,210
256,192,45612,1,0
256,192,45762,1,0
256,192,45912,1,0
256,192,46062,1,0
160,192,46512,1,0
160,192,46662,1,0
160,192,46812,1,0
160,192,46962,1,0
320,96,47861,2,0,B|192:96|96:96|32:320,1,396.666666666667
128,288,50860,1,0
192,288,51309,1,0
256,288,51759,1,0
320,288,52359,2,0,B|320:256,2,23.3333333333333
192,192,55058,5,0
192,192,55507,1,0
320,192,56107,2,0,B,1,93.3333333333333
320,192,56257,1,0
288,288,57157,1,0
192,256,57756,1,0
192,256,57906,1,0
64,160,58956,1,0
64,160,59106,1,0
64,64,59705,2,0,B|160:64|128:96|192:160,1,163.333333333333
192,64,60905,2,0,B|416:64,1,210
256,208,63453,12,0,66152
288,128,68101,5,0
288,192,68551,1,0
288,256,69001,1,0
192,256,69900,2,0,B|192:96,1,140
96,96,71100,2,0,B|288:320|320:320|320:256|256:128,1,420
224,64,74098,1,0
224,64,74248,1,0
256,208,76947,12,0,79645
256,192,80095,5,0
256,192,80545,1,0
