osu file format v7

[General]
AudioFilename: 04. Over The Rainbow.mp3
AudioLeadIn: 0
PreviewTime: 62499
Countdown: 1
SampleSet: Normal
StackLeniency: 0.4
Mode: 0
LetterboxInBreaks: 1

[Editor]
Bookmarks: 780,25238,37467,49697,63455,87913,100143,112372,126130
DistanceSpacing: 1
BeatDivisor: 4
GridSize: 8

[Metadata]
Title:Over The Rainbow
Artist:Powerful T.
Creator:ykcarrot
Version:Normal+
Source:Initial D
Tags:MoonFragrance Eurobeat Arcade Stage Ver.3 OST

[Difficulty]
HPDrainRate:4
CircleSize:4
OverallDifficulty:5
SliderMultiplier:0.999999999999999
SliderTickRate:2

[Events]
//Background and Video events
0,0,"OTR_BG.jpg"
//Break Periods
2,88128,98958
//Storyboard Layer 0 (Background)
//Storyboard Layer 1 (Fail)
//Storyboard Layer 2 (Pass)
//Storyboard Layer 3 (Foreground)
//Storyboard Sound Samples
//Background Colour Transformations
3,100,163,162,255

[TimingPoints]
795,382.165605095541,4,1,0,70,1,0
21814,-100,4,1,0,0,0,0
23724,-100,4,1,0,60,0,0
25158,-100,4,1,0,80,0,0
63470,-100,4,1,0,80,0,1
87928,-100,4,1,0,80,0,0
126145,-100,4,1,0,80,0,1
150603,-100,4,1,0,80,0,0

[Colours]
Combo1 : 64,0,128
Combo2 : 255,0,0
Combo3 : 255,255,0
Combo4 : 25,255,25
Combo5 : 0,0,255

[HitObjects]
448,192,12259,1,0
448,192,12451,1,0
448,192,12642,1,0
448,192,12833,2,0,B|440:-16|64:-16|64:200,1,549.999999999999
112,280,15317,6,0,B|40:280,2,50
160,280,15890,2,0,B|216:280,1,50
352,280,16463,5,4
368,128,16845,1,4
144,128,17419,1,4
160,280,17801,1,4
160,280,17992,1,4
256,248,18374,5,0
256,248,18565,1,0
256,248,18756,1,0
256,248,18947,2,0,B|320:152|200:152|264:56,1,200
256,192,19903,12,0,21814
216,72,23916,5,2
256,40,24107,1,2
296,72,24298,1,2
256,104,24489,2,0,B|256:168,3,50,2|2|2|2
256,200,25253,5,4
304,216,25444,2,0,B|352:320,3,99.9999999999999
352,360,26782,5,0
304,376,26973,2,0,B|184:376,3,99.9999999999999
160,360,28310,5,0
168,312,28502,2,0,B|216:208,3,99.9999999999999
256,200,29839,5,0
256,152,30030,2,0,B|224:96|288:80|256:0,2,150
256,200,31368,5,4
208,200,31559,2,0,B|160:200|144:152,2,74.9999999999999
256,200,32323,2,0,B|344:112,1,99.9999999999999
360,96,32896,5,0
408,96,33087,2,0,B|456:96|472:144,2,74.9999999999999
360,96,33852,2,0,B|240:96,1,99.9999999999999
208,96,34425,5,0
160,96,34616,2,0,B|160:48|192:24,2,74.9999999999999
160,144,35380,2,0,B|160:248,1,99.9999999999999
160,296,35954,6,0,B|72:296,4,74.9999999999999,4|4|4|4|4
208,296,37291,1,4
256,296,37482,6,0,B|312:296|352:248,1,99.9999999999999,0|0
376,216,38056,1,0
432,128,38438,1,0
376,40,38820,2,0,B|320:64|264:32,1,99.9999999999999
232,40,39393,1,2
136,40,39775,2,2,B|80:40,1,50
88,192,40540,6,0,B|88:256|144:280,1,99.9999999999999,0|0
176,304,41113,1,0
272,344,41495,1,0
368,344,41877,2,0,B|424:344|440:280,1,99.9999999999999
456,240,42451,2,0,B|456:176|520:176,2,99.9999999999999,2|0|2
360,240,43597,6,0,B|360:168,2,50
360,288,44170,2,0,B|336:344|272:344,1,99.9999999999999,0|2
272,240,44935,2,0,B|216:216|216:152,1,99.9999999999999,0|2
128,112,45699,2,0,B|152:56|216:56,1,99.9999999999999,0|2
352,72,46654,5,0
352,72,46845,1,0
352,72,47037,1,8
352,72,47228,2,0,B|232:192,1,150,0|8
240,280,48183,5,0
240,280,48374,1,0
240,280,48565,1,8
240,280,48756,2,0,B|328:192,2,99.9999999999999,0|8|8
200,312,49712,6,0,B|200:376,2,50,4|0|0
160,280,50285,2,0,B|112:304|104:264|48:288,2,99.9999999999999
200,248,51240,2,0,B|200:184,2,50
240,280,51814,2,0,B|408:280,1,150,0|2
392,184,52769,6,0,B|456:184,2,50,0|0|0
360,144,53342,2,0,B|400:104|400:40,2,99.9999999999999
328,184,54298,2,2,B|208:304|184:48|72:152,1,300
56,248,55826,6,0,B|-16:248,2,50,4|0|0
96,280,56400,2,0,B|120:328|80:336|104:392,2,99.9999999999999
136,248,57355,2,0,B|200:248,2,50
96,216,57928,2,0,B|96:48,1,150,0|2
192,56,58884,6,0,B|224:8|296:8|328:72,2,150
256,128,60412,2,0,B|256:248,1,99.9999999999999,4|0
256,228,60986,2,0,B|256:384,1,150,4|4
336,120,62705,5,0
336,120,62896,1,0
336,120,63087,1,0
336,120,63279,2,0,B|296:56|208:56|168:128,2,200,0|0|2
376,216,65189,1,2
376,216,65380,1,2
376,320,65763,6,0,B|432:320,2,50,0|0|0
328,320,66336,2,0,L|232:320|208:272|152:272,1,200
104,272,67291,2,0,B|104:360,2,74.9999999999999,2|2|2
104,224,68056,1,0
104,176,68247,2,0,B|104:144,2,25
200,136,68820,6,0,B|208:80|264:64,1,99.9999999999999
360,64,69584,2,0,B|408:112,1,50,4|0
448,96,69966,2,0,B|472:152,1,50
472,240,70540,2,0,B|400:240,1,50
376,240,70922,2,0,B|376:352,2,99.9999999999999
376,192,71877,6,0,B|432:192,2,50,0|0|0
336,168,72451,2,0,B|312:104|192:104|168:176,2,200,0|0|2
256,232,74361,2,0,B|256:296,2,50,2|2|2
256,184,74935,5,0
256,184,75126,1,0
256,184,75317,1,0
256,184,75508,2,0,B|160:104|56:200,2,200,0|0|2
256,288,77419,1,2
256,288,77610,1,2
160,288,77992,6,0,B|160:352,2,50
128,256,78565,2,0,B|80:216,1,50,0|2
160,152,79138,1,2
136,56,79521,1,2
232,24,79903,2,0,B|296:24,1,50,2|2
376,56,80476,1,2
352,152,80858,1,2
400,152,81049,6,0,B|456:152|472:216,1,99.9999999999999
464,312,81814,2,0,B|392:312,1,50,4|0
392,352,82196,2,0,B|328:328,1,50
256,280,82769,2,0,B|256:224,1,50
224,192,83151,2,0,B|136:264,2,99.9999999999999
264,160,84107,5,0
304,136,84298,1,0
352,128,84489,1,0
400,144,84680,2,0,B|432:160|440:200|440:232|424:264|408:296|368:320,1,200
256,192,85635,12,4,87928
88,200,100158,5,0
88,200,100349,1,0
88,200,100540,1,0
88,200,100731,2,0,B|88:88,2,99.9999999999999
88,248,101686,2,0,B|152:296|152:296|184:264,1,99.9999999999999,0|2
232,200,102451,2,2,B|288:200,1,50
432,200,103215,5,0
432,200,103406,1,0
432,200,103597,1,0
432,200,103788,2,0,B|432:88,2,99.9999999999999
432,248,104744,2,0,B|368:296|368:296|336:264,3,99.9999999999999,0|2|0|2
256,288,106272,6,0,B|256:344,2,50,0|0|0
224,248,106845,2,0,L|256:208|296:256,4,99.9999999999999,0|2|0|2|0
448,136,109330,5,0
448,136,109521,1,0
448,136,109712,1,0
448,136,109903,2,0,B|304:48,1,150,0|0
224,88,110858,5,0
224,88,111049,1,0
224,88,111240,1,0
224,88,111431,2,0,B|328:152,1,99.9999999999999,4|4
256,280,112387,6,0,B|312:280,2,50,4|0|0
216,248,112960,2,0,B|96:248,2,99.9999999999999
256,216,113916,2,0,B|408:216,2,150,0|0|2
256,120,115444,6,0,B|320:120,2,50,0|0|0
216,88,116017,2,0,B|112:88,2,99.9999999999999
256,64,116973,2,2,B|312:-16|392:-16|456:32|456:96|456:152,1,300
456,232,118502,6,0,B|456:304,2,50,4|0|0
408,232,119075,2,0,B|408:352,2,99.9999999999999
360,232,120030,2,0,B|360:392,2,150,0|0|2
360,128,121559,6,0,B|240:128,1,99.9999999999999
260,128,122132,2,0,B|96:128,1,150
32,192,123087,2,0,B|-16:160|-16:88|48:56,2,150,4|4|4
296,328,125380,6,0,B|224:328,2,50
344,328,125954,2,0,B|504:320|504:56|328:56,1,400,0|2
240,56,127865,1,2
240,56,128056,1,2
144,56,128438,5,0
104,88,128629,1,0
144,112,128820,1,0
104,144,129011,2,0,L|176:216|136:248|136:296,1,200
136,344,129966,2,0,B|40:344,2,74.9999999999999,2|2|2
184,344,130731,1,0
232,344,130922,2,0,B|264:344,2,25
184,256,131495,6,0,B|184:192|240:168,1,99.9999999999999
320,128,132259,2,0,B|384:128,3,50,4|0|0|0
440,200,133215,1,0
440,200,133406,1,0
440,200,133597,2,0,B|440:312,2,99.9999999999999
440,152,134552,6,0,B|496:152,2,50,0|0|0
392,152,135126,2,0,B|304:208|288:104|192:152,2,200,0|0|2
440,240,137037,2,0,B|496:240,2,50,2|2|2
392,240,137610,6,0,B|392:296,2,50
392,192,138183,2,0,B|384:32|120:32|120:208,1,400,0|2
120,296,140094,1,2
120,296,140285,1,2
256,296,140667,5,0
256,296,140858,1,0
256,296,141049,1,0
256,296,141240,2,0,B|256:232,1,50,0|2
232,152,141814,2,0,B|160:80,2,99.9999999999999,2|2|2
280,152,142769,2,0,B|360:72,2,99.9999999999999,2|2|2
256,200,143724,6,0,B|256:320,2,99.9999999999999,0|0|4
256,152,144680,2,0,B|256:88,2,50
256,248,145444,2,0,B|256:304,1,50
216,336,145826,2,0,L|256:368|304:328,2,99.9999999999999
176,312,146782,5,0
136,280,146973,1,0
112,232,147164,1,0
96,184,147355,2,0,B|88:136|104:96|128:64|160:40|200:32,1,200
256,192,148310,12,4,150603
