osu file format v7

[General]
AudioFilename: 04. Over The Rainbow.mp3
AudioLeadIn: 0
PreviewTime: 62499
Countdown: 1
SampleSet: Soft
StackLeniency: 0.4
Mode: 0
LetterboxInBreaks: 1

[Editor]
Bookmarks: 780,25238,37467,49697,63455,87913,100143,112372,126130
DistanceSpacing: 1
BeatDivisor: 4
GridSize: 8

[Metadata]
Title:Over The Rainbow
Artist:Powerful T.
Creator:ykcarrot
Version:MoonFRainboW
Source:Initial D
Tags:MoonFragrance Eurobeat Arcade Stage Ver.3 OST

[Difficulty]
HPDrainRate:5
CircleSize:4
OverallDifficulty:7
SliderMultiplier:1.8
SliderTickRate:2

[Events]
//Background and Video events
0,0,"OTR_BG.jpg"
//Break Periods
2,94243,99258
//Storyboard Layer 0 (Background)
//Storyboard Layer 1 (Fail)
//Storyboard Layer 2 (Pass)
//Storyboard Layer 3 (Foreground)
//Storyboard Sound Samples
//Background Colour Transformations
3,100,163,162,255

[TimingPoints]
795,382.165605095541,4,2,0,100,1,0
13024,-100,4,1,0,80,0,0
37387,-100,4,2,0,100,0,0
63470,-100,4,1,0,100,0,1
87737,-100,4,1,0,80,0,0
99966,-100,4,2,0,100,0,0
126145,-100,4,1,0,80,0,1
150603,-100,4,1,0,80,0,0

[Colours]
Combo1 : 64,0,128
Combo2 : 255,0,0
Combo3 : 255,255,0
Combo4 : 25,255,25
Combo5 : 0,0,255

[HitObjects]
256,88,6909,1,2
168,88,7100,1,0
80,88,7291,1,8
224,192,7673,1,0
312,192,7865,1,0
400,192,8056,1,10
256,296,8438,5,2
168,296,8629,1,0
80,296,8820,1,8
224,192,9202,1,0
312,192,9393,1,0
400,192,9584,1,10
400,192,9966,6,0,B|400:80,2,90,0|0|8
336,256,10540,1,2
256,296,10731,2,0,B|160:296,2,90,0|2|8
336,256,11304,1,2
256,192,11495,12,4,13024
256,192,13406,5,8
88,128,13788,2,0,B|112:80|176:80,2,90,0|0|8
152,192,14361,1,0
88,256,14552,2,0,B|112:304|176:304,2,90,0|0|8
152,192,15126,2,0,B|344:192,1,180
332,192,15699,1,8
456,64,16081,5,0
332,192,16463,1,12
456,320,16845,1,12
332,192,17228,5,0
256,240,17419,1,0
176,280,17610,2,0,B|128:280|96:232,2,90
256,240,18183,1,0
332,192,18374,5,0
256,144,18565,1,0
184,96,18756,2,0,B|216:40|296:40|336:96,1,180,0|4
256,144,19330,1,0
184,200,19521,6,0,B|152:248|96:224,2,90,8|0|0
256,144,20094,1,0
328,200,20285,2,0,B|360:248|416:224,2,90,8|0|0
256,144,20858,1,0
256,144,21049,2,0,B|256:328,2,180,8|0|8
176,304,22196,5,0
176,216,22387,2,0,B|176:112,1,90,0|8
256,80,22769,1,0
256,168,22960,2,0,B|256:288,2,90,0|0|8
336,128,23533,2,0,B|336:232,1,90,0|4
256,192,23916,12,4,25253
256,192,25635,5,8
200,120,25826,2,0,B|176:72|120:72,2,90,2|0|2
256,192,26400,1,8
320,256,26591,2,0,B|344:304|400:304,2,90,2|0|0
256,192,27164,1,8
256,192,27355,1,2
256,192,27546,1,0
200,120,27737,1,10
128,72,27928,1,10
88,248,28310,6,0,B|120:328|208:320,1,135,0|2
191,320,28693,1,8
256,264,28884,1,2
320,320,29075,1,0
320,320,29170,2,0,B|391:327|423:247,1,135,2|8
448,160,29648,1,2
376,104,29839,1,0
296,152,30030,2,0,B|256:192|216:152,1,90,2|8
144,96,30412,1,2
96,168,30603,1,0
144,240,30795,2,2,B|200:320|336:320|384:224,1,270,2|4
448,192,31559,5,0
448,176,31654,1,0
448,160,31750,2,0,B|448:56,1,90,8|2
360,104,32132,1,0
320,184,32323,2,0,B|320:240,1,45,10|0
256,341,32610,2,0,B|256:296,1,45,0|10
192,187,32896,2,0,B|192:232,2,45
160,104,33279,1,8
72,80,33470,1,2
72,96,33565,1,0
72,112,33661,2,2,B|72:216,1,90,0|2
136,264,34043,2,2,B|184:328|264:288,1,135,2|0
255,291,34425,6,0,B|326:327|374:263,1,135,6|0
374,264,34807,1,10
256,128,35189,1,2
256,40,35380,1,0
256,128,35572,1,10
80,176,35954,1,2
96,264,36145,1,0
160,328,36336,1,10
192,240,36527,2,8,B|208:296|256:299|304:296|328:240,1,180,2|10
352,328,37100,1,10
416,264,37291,1,0
440,176,37482,5,4
416,88,37673,2,0,B|344:16,2,90,2|8|2
440,176,38247,1,0
416,264,38438,2,0,B|344:336,2,90,2|8|2
440,176,39011,2,2,B|256:176,1,180,0|2
240,176,39489,1,0
224,176,39584,2,2,B|16:176,1,180,2|2
44,176,40158,1,8
184,288,40540,6,0,B|226:337|290:338|344:288,1,180,0|8
342,198,41113,1,2
424,248,41304,1,0
424,160,41495,2,0,B|424:64,1,90,2|8
248,120,42068,6,0,B|200:88|224:40,2,90,0|2|8
248,208,42642,1,2
248,208,42833,1,0
248,296,43024,2,0,B|296:328|272:376,2,90,10|8|2
248,208,43597,5,0
168,256,43788,1,2
96,200,43979,1,8
168,144,44170,2,2,B|224:104|280:104|336:144,1,180
400,200,44744,1,8
328,256,44935,1,2
248,208,45126,6,0,B|248:304,2,90,0|2|8
334,143,45699,2,2,B|280:104|224:104|168:144,1,180
96,200,46272,1,8
256,280,46654,6,0,B|352:232|408:352,2,180,0|8|0
256,280,47801,1,8
256,104,48183,2,0,B|160:144|104:24,2,180,0|8|0
256,104,49330,1,8
256,192,49521,1,4
256,280,49712,5,4
344,280,49903,2,0,B|448:280,1,90,2|8
416,192,50285,1,2
416,192,50476,2,0,B|312:192,2,90,0|2|8
464,112,51049,5,2
360,72,51240,5,4
256,104,51431,5,4
152,64,51623,5,12
56,112,51814,5,4
152,264,52196,5,2
168,272,52291,1,0
184,288,52387,2,2,B|224:336|296:336|344:280,1,180,2|6
280,216,52960,5,2
368,192,53151,1,8
416,272,53342,2,2,B|480:192|416:104,1,180
352,48,53916,1,8
264,72,54107,1,0
176,80,54298,6,2,B|184:184|48:200,1,180,2|8
72,288,54871,1,0
152,328,55062,2,2,B|240:272|320:336,1,180,2|8
392,280,55635,1,0
448,208,55826,5,4
392,136,56017,1,2
344,56,56209,2,0,B|256:128|184:48,1,180,8|0
144,128,56782,1,2
96,208,56973,1,8
256,296,57355,5,4
256,160,57546,5,4
256,296,57737,5,4
256,160,57928,6,0,B|304:80|424:80|488:160,1,270,4|4
368,296,58884,6,0,B|160:296,1,180,4|8
352,216,59648,2,0,B|160:216,1,180,2|8
336,136,60412,6,0,B|152:136,1,180,4|8
320,56,61177,2,0,B|128:56,1,180,2|8
256,192,61941,12,4,63470
256,184,63852,6,0,B|256:80,1,90,10|2
352,152,64234,2,0,B|352:264,1,90,0|2
440,184,64616,1,8
440,184,64807,2,2,B|440:312|352:328,1,180
256,296,65380,2,2,B|56:296,1,180,10|0
144,208,65954,1,2
72,128,66145,1,10
144,48,66336,2,0,B|256:48,1,90,0|0
312,120,66718,5,2
312,120,66814,1,2
312,120,66909,2,10,B|408:120,1,90,8|2
472,200,67291,1,2
400,280,67482,2,0,B|400:328,2,45,2|0|8
296,312,67865,2,2,B|232:232|128:288,1,180
40,232,68438,1,8
112,152,68629,2,2,B|216:144|224:32,1,180,2|10
312,96,69202,1,10
408,48,69393,1,0
456,144,69584,6,0,B|432:192|464:240,2,90,0|2|8
360,192,70158,2,0,B|360:240|320:288,1,90,2|0
256,192,70540,1,2
182,275,70731,2,0,B|152:240|152:192,1,90,10|2
256,192,71113,6,0,B|256:96|376:72,2,180,0|10|0
328,272,72068,1,8
400,192,72259,1,10
400,192,72451,6,2,B|400:96|280:72,1,180
192,128,73024,1,8
112,192,73215,2,0,B|120:248|64:264,2,90,2|0|2
192,128,73788,1,8
256,192,73979,6,4,B|256:288|368:336,1,180
256,192,74552,2,4,B|256:96|144:48,2,180,12|0|8
256,304,75508,1,0
256,304,75699,6,0,B|352:352|424:272,1,180,4|10
360,192,76272,1,2
424,104,76463,2,0,B|356:28|260:76,1,180,2|10
160,120,77037,1,2
80,192,77228,5,0
80,192,77323,1,8
80,192,77419,1,2
160,264,77610,2,2,B|224:344|328:312,1,180,10|0
328,208,78183,1,2
432,248,78374,1,10
256,128,78756,5,2
240,128,78852,1,0
224,128,78947,2,0,B|112:128,1,90,0|10
176,232,79330,1,0
256,304,79521,5,2
272,304,79616,1,0
288,304,79712,2,0,B|400:304,1,90,0|10
352,200,80094,1,6
256,48,80476,5,2
272,48,80572,1,0
288,48,80667,1,2
376,48,80858,2,2,B|488:40|480:160,1,180
480,248,81431,1,8
272,304,81814,6,0,B|224:320|176:304,1,90,4|2
232,208,82196,1,8
272,112,82387,2,0,B|231:98|183:114,1,90,2|0
232,208,82769,1,2
232,208,82960,2,0,B|48:208,2,180,10|0|10
448,216,84107,5,0
384,128,84298,1,2
456,48,84489,1,10
352,56,84680,2,2,B|296:80|296:184|352:208,1,180
256,264,85253,1,8
168,208,85444,2,2,B|224:184|224:80|168:56,1,180
96,136,86017,1,8
96,136,86209,5,4
304,200,86591,1,4
376,280,86782,1,0
448,200,86973,1,0
376,120,87164,2,0,B|376:64,4,45,0|0|0|0|4
168,80,87928,5,6
96,136,88119,2,0,B|48:136,1,45,2|0
72,224,88406,2,0,B|32:264,1,45,0|2
120,296,88693,2,0,B|120:352,1,45,0|2
216,320,88979,1,0
216,320,89075,2,2,B|304:352|304:232|408:280,1,180,2|6
440,200,89648,5,2
440,200,89744,1,0
376,136,89935,1,0
376,136,90030,1,2
296,96,90221,2,2,B|296:48,2,45,2|0|2
216,136,90603,2,0,B|176:96,2,45,2|0|0
168,208,90986,5,6
128,288,91177,2,0,B|80:328,1,45,2|0
176,352,91463,2,2,B|224:320,1,45
304,312,91750,1,2
320,312,91845,1,0
336,312,91941,1,2
328,224,92132,2,0,B|432:224,1,90,2|0
424,136,92514,6,0,B|368:136|368:72,1,90,4|2
288,48,92896,1,8
208,88,93087,2,2,B|136:160|40:144,1,180
48,232,93661,2,2,B|139:216|211:288,1,180,10|4
176,80,100158,6,0,B|248:160|336:80,1,180,4|8
424,72,100731,1,2
392,152,100922,2,0,B|320:232|392:320,1,180,0|8
296,320,101495,1,2
208,336,101686,5,0
120,312,101877,1,2
40,264,102068,2,0,B|104:184|48:96,1,180,8|0
120,48,102642,1,2
208,32,102833,1,8
256,208,103215,5,0
256,208,103406,2,0,B|256:312,1,90,2|8
336,256,103788,1,2
336,256,103979,2,0,B|336:152,2,90,0|2|8
416,208,104552,2,0,B|440:88|336:72,1,180,2|2
256,112,105126,5,8
176,72,105317,1,2
96,112,105508,1,0
176,72,105699,1,2
256,112,105890,2,10,B|256:296,1,180,10|0
336,336,106463,5,2
424,304,106654,2,0,B|368:280|368:224,1,90,8|2
424,80,107037,2,0,B|369:103|370:145,1,90,0|2
296,192,107419,1,8
296,192,107610,2,2,B|112:192,1,180
56,128,108183,1,8
112,56,108374,2,2,B|296:56,1,180
352,120,108947,1,8
272,280,109330,6,0,B|368:312|440:240,2,180,0|8|0
192,248,110285,1,0
120,192,110476,1,8
256,72,110858,2,0,B|160:40|88:112,2,180,0|8|0
328,128,111814,1,0
392,192,112005,1,8
328,256,112196,1,4
256,304,112387,6,0,B|200:280|168:336,1,90,4|2
88,304,112769,1,8
128,224,112960,2,2,B|192:144|136:56,1,180
224,32,113533,1,8
312,192,113916,5,4
408,96,114107,5,4
312,192,114298,5,12
400,296,114489,5,4
152,192,114871,5,2
152,176,114966,1,0
152,160,115062,2,2,B|152:48|256:32,1,180
344,32,115635,5,2
408,96,115826,1,8
408,96,116017,2,2,B|328:176|408:256,1,180,2|2
336,304,116591,1,8
256,256,116782,1,0
184,312,116973,6,2,B|112:232|192:144,1,180,2|10
256,96,117546,1,2
328,144,117737,2,2,B|402:225|330:305,1,180,2|10
256,256,118310,1,0
256,256,118502,6,0,B|256:56,1,180,4|8
168,96,119075,1,2
112,168,119266,2,0,B|80:224|24:192,2,90,0|2|8
168,96,119839,1,2
256,64,120030,5,4
304,192,120221,5,4
256,320,120412,5,12
304,192,120603,6,2,B|200:160|136:264,1,180,6|2
256,320,121177,6,2,B|360:352|424:248,1,180,10|6
472,192,121750,5,0
416,120,121941,2,0,B|362:32|258:64,1,180,8|2
256,152,122514,1,0
256,240,122705,2,0,B|154:208|101:296,1,180,8|4
192,320,123279,5,0
280,336,123470,1,8
352,280,123661,1,0
336,192,123852,1,2
256,240,124043,1,0
256,240,124234,2,0,B|256:136,1,90,8|0
256,192,124616,12,4,126145
256,192,126527,5,8
168,248,126718,2,8,B|120:280|80:248,1,90,2|0
168,136,127100,2,8,B|120:104|80:136,2,90,2|8|2
256,192,127673,5,0
328,272,127865,1,2
328,272,128056,2,2,B|408:192|336:112,1,180,10|0
256,192,128629,1,2
256,192,128820,1,8
256,88,129011,1,2
160,136,129202,5,0
160,240,129393,2,0,B|120:272,1,45,2|0
256,288,129680,2,0,B|256:336,1,45,0|2
352,240,129966,2,0,B|392:272,2,45,0|0|2
256,192,130349,1,2
256,192,130540,6,2,B|312:112|424:152,1,180
352,240,131113,1,8
416,328,131304,2,2,B|311:365|255:285,1,180
152,248,131877,2,0,B|56:248,1,90,8|0
112,152,132259,6,0,B|168:144|176:88,1,90,4|2
256,168,132642,1,8
336,96,132833,2,0,B|342:143|398:151,1,90,2|0
336,240,133215,1,2
256,312,133406,1,8
176,240,133597,1,2
256,168,133788,5,0
256,168,133979,2,0,B|256:64,2,90,2|8|2
360,144,134552,1,0
432,224,134744,1,2
360,304,134935,1,10
256,272,135126,6,2,B|72:272,1,180
152,192,135699,1,8
152,192,135890,2,2,B|336:192,1,180
408,112,136463,1,8
304,80,136654,5,2
288,72,136750,1,0
272,80,136845,2,0,B|224:104|184:80,1,90,0|2
88,128,137228,2,2,B|144:208|80:296,1,180,2|2
168,360,137801,1,0
256,296,137992,1,8
344,360,138183,1,0
432,296,138374,6,0,B|368:209|424:129,1,180,4|8
344,56,138947,1,2
256,120,139138,1,0
168,56,139330,1,2
256,120,139521,1,8
256,136,139616,1,0
256,152,139712,6,2,B|256:344,1,180
363,332,140285,2,2,B|363:148,1,180,10|0
328,48,140858,1,10
256,120,141049,1,10
184,40,141240,1,0
88,96,141431,5,2
88,96,141527,1,0
88,96,141623,2,0,B|152:120|112:184,1,90,0|10
112,272,142005,1,0
216,248,142196,1,2
216,248,142291,1,0
216,248,142387,2,0,B|256:288|296:248,1,90,0|10
400,272,142769,1,2
376,56,143151,5,2
360,48,143247,1,0
344,40,143342,1,0
240,48,143533,2,2,B|64:96,1,180
120,192,144107,1,8
120,192,144489,5,4
216,248,144680,2,0,B|256:280|304:248,1,90,2|8
392,192,145062,1,2
312,120,145253,1,0
312,120,145444,1,2
208,120,145635,1,8
208,120,145826,1,2
120,192,146017,5,0
128,208,146113,1,0
120,224,146209,1,2
176,320,146400,2,10,B|256:256|344:320,1,180,10|2
400,224,146973,1,2
392,208,147068,1,0
400,192,147164,1,8
328,112,147355,6,2,B|296:48|216:48|184:112,1,180
256,192,147928,1,8
326,274,148119,2,2,B|296:336|216:336|184:272,1,180
256,192,148693,1,8
256,192,148884,2,2,B|72:192,1,180
120,96,149457,5,8
216,48,149648,1,0
312,96,149839,1,0
328,96,149935,1,0
344,96,150030,1,0
360,96,150126,1,0
376,96,150221,1,4
256,232,150603,5,4
