osu file format v7

[General]
AudioFilename: 04. Over The Rainbow.mp3
AudioLeadIn: 0
PreviewTime: 62499
Countdown: 1
SampleSet: Normal
StackLeniency: 0.4
Mode: 0
LetterboxInBreaks: 1

[Editor]
Bookmarks: 780,25238,37467,49697,63455,87913,100143,112372,126130
DistanceSpacing: 2
BeatDivisor: 4
GridSize: 8

[Metadata]
Title:Over The Rainbow
Artist:Powerful T.
Creator:ykcarrot
Version:Insane
Source:Initial D
Tags:MoonFragrance Eurobeat Arcade Stage Ver.3 OST

[Difficulty]
HPDrainRate:8
CircleSize:4
OverallDifficulty:8
SliderMultiplier:2
SliderTickRate:2

[Events]
//Background and Video events
0,0,"OTR_BG.jpg"
//Break Periods
2,88128,99408
//Storyboard Layer 0 (Background)
//Storyboard Layer 1 (Fail)
//Storyboard Layer 2 (Pass)
//Storyboard Layer 3 (Foreground)
//Storyboard Sound Samples
//Background Colour Transformations
3,100,163,162,255

[TimingPoints]
795,382.165605095541,4,2,0,100,1,0
11304,-100,4,2,0,0,0,0
12068,-100,4,1,0,70,0,0
21814,-100,4,1,0,0,0,0
22005,-100,4,2,0,30,0,0
22482,-100,4,2,0,45,0,0
22865,-100,4,2,0,60,0,0
23247,-100,4,2,0,80,0,0
23724,-100,4,1,0,60,0,0
25158,-100,4,1,0,80,0,0
61750,-100,4,2,0,0,0,0
62610,-100,4,1,0,80,0,0
63470,-100,4,1,0,80,0,1
87928,-100,4,1,0,80,0,0
116877,-100,4,2,0,50,0,0
118502,-100,4,1,0,80,0,0
124425,-100,4,2,0,0,0,0
125285,-100,4,1,0,80,0,0
126145,-100,4,1,0,80,0,1
150603,-100,4,1,0,80,0,0

[Colours]
Combo1 : 64,0,128
Combo2 : 255,0,0
Combo3 : 255,255,0
Combo4 : 25,255,25
Combo5 : 0,0,255

[HitObjects]
176,64,6909,1,0
336,64,7100,1,0
336,64,7196,1,0
336,64,7291,1,0
256,192,7482,1,0
216,336,7673,2,0,B|232:368|288:368|304:328,2,100
222,44,8438,5,0
108,158,8629,1,0
108,158,8724,1,0
108,158,8820,1,0
256,192,9011,1,0
386,265,9202,2,0,B|397:299|357:339|318:322,2,100
289,44,9966,5,0
403,158,10158,1,0
403,158,10253,1,0
403,158,10349,1,0
256,192,10540,1,0
125,265,10731,2,0,B|114:299|154:339|193:322,2,100
256,32,11495,6,0,L|248:40|264:48|248:56|264:64|248:72|264:80|248:88|264:96|248:104|264:112|248:120|264:128,1,200
256,352,12259,5,0
152,344,12451,1,0
72,288,12642,1,0
64,192,12833,2,0,B|72:96|160:64|256:96|256:200,1,300
448,192,13597,2,0,B|440:96|352:64|256:96|256:200,1,300
160,216,14361,2,0,B|168:312|256:344|352:312|352:208,1,300
256,192,15126,1,0
208,104,15317,6,0,B|96:104,2,100
304,104,15890,2,0,B|432:104,1,100
472,344,16463,5,4
40,40,16845,1,4
472,40,17419,5,4
40,344,17801,1,4
40,344,17992,1,4
256,352,18374,5,0
360,344,18565,1,0
440,288,18756,1,0
448,192,18947,2,0,B|440:96|352:64|256:96|256:200,1,300
64,192,19712,2,0,B|72:96|160:64|256:96|256:200,1,300
256,192,20380,12,0,21814
440,192,22196,5,2
440,192,22291,1,2
440,192,22387,1,2
256,40,22578,5,2
256,40,22673,1,2
256,40,22769,1,2
72,192,22960,5,2
72,192,23056,1,2
72,192,23151,1,2
256,344,23342,5,2
256,344,23438,1,2
256,344,23533,1,2
472,120,23916,5,2
400,48,24107,1,2
328,120,24298,1,2
256,192,24489,1,2
184,120,24680,1,2
112,48,24871,1,2
40,120,25062,1,2
40,216,25253,5,4
40,312,25444,1,0
64,328,25540,1,0
160,352,25731,1,0
184,344,25826,1,0
208,336,25922,1,0
232,328,26017,1,0
256,320,26113,1,0
280,312,26209,1,0
304,304,26304,1,0
400,272,26495,1,0
424,264,26591,1,0
448,256,26686,1,0
448,232,26782,5,0
448,136,26973,1,0
448,112,27068,1,0
384,32,27259,1,0
360,40,27355,1,0
336,48,27451,1,0
312,56,27546,1,0
288,64,27642,1,0
264,72,27737,1,0
240,80,27833,1,0
136,88,28024,1,0
112,88,28119,1,0
88,88,28215,1,0
64,104,28310,5,0
64,208,28502,1,0
88,208,28597,1,0
184,208,28788,1,0
208,200,28884,1,0
232,208,28979,1,0
256,216,29075,1,0
280,208,29170,1,0
304,200,29266,1,0
328,208,29361,1,0
424,208,29552,1,0
448,216,29648,1,0
464,240,29744,1,0
464,264,29839,5,0
432,360,30030,1,0
408,360,30126,1,0
312,360,30317,1,0
296,344,30412,1,0
280,328,30508,1,0
264,312,30603,1,0
240,328,30699,1,0
216,344,30795,1,0
192,360,30890,1,0
176,344,30986,1,0
160,328,31081,1,0
144,312,31177,1,0
128,296,31272,1,0
112,280,31368,5,4
48,200,31559,1,0
48,176,31654,1,0
48,80,31845,1,0
72,72,31941,1,0
96,64,32037,1,0
120,56,32132,1,0
144,64,32228,1,0
168,72,32323,1,0
192,80,32419,1,0
192,176,32610,1,0
216,192,32705,1,0
240,192,32801,1,0
264,176,32896,5,0
264,80,33087,1,0
288,72,33183,1,0
384,40,33374,1,0
392,64,33470,1,0
400,88,33565,1,0
408,112,33661,1,0
416,136,33756,1,0
424,160,33852,1,0
432,184,33947,1,0
456,280,34138,1,0
448,304,34234,1,0
432,320,34330,1,0
408,328,34425,5,0
312,328,34616,1,0
288,328,34712,1,0
192,328,34903,1,0
176,312,34998,1,0
160,296,35094,1,0
144,280,35189,1,0
128,264,35285,1,0
112,248,35380,1,0
96,232,35476,1,0
32,152,35667,1,0
48,128,35763,1,0
72,112,35858,1,0
96,96,35954,6,0,B|208:32,1,100,4|0
216,88,36240,2,0,B|104:152,1,100,4|0
168,176,36527,2,0,B|280:112,1,100,4|0
288,168,36814,2,0,B|176:232,1,100,4|0
240,256,37100,2,0,B|352:192,1,100,4|4
416,160,37482,5,0
360,80,37673,1,0
256,80,37865,1,0
160,80,38056,2,0,B|80:160,1,100
192,152,38438,2,0,B|104:240,1,100
224,224,38820,2,0,B|136:312,2,100
296,152,39393,5,2
368,80,39584,2,0,B|368:16,2,50,0|0|2
440,152,39966,2,2,B|440:272|336:320,1,200,2|0
256,360,40540,5,0
184,288,40731,1,0
256,216,40922,1,0
328,288,41113,2,0,B|264:256|208:352|120:264,2,200
424,304,42068,6,0,B|440:360|504:360,2,100,0|0|2
424,200,42642,1,0
424,192,42737,1,0
424,184,42833,1,0
424,176,42928,1,0
424,168,43024,1,2
424,72,43215,1,0
424,72,43406,1,2
328,96,43597,5,0
256,168,43788,1,0
184,96,43979,1,0
256,24,44170,1,0
504,192,44552,1,2
256,360,44935,1,2
8,192,45317,1,2
256,24,45699,1,2
304,112,45890,2,0,B|256:144|192:104,3,100,0|8|0|8
256,24,46654,5,0
352,48,46845,1,0
392,144,47037,1,0
344,232,47228,2,0,B|304:288|208:288|160:224,1,200,0|8
120,144,47801,1,0
160,48,47992,1,8
256,24,48183,5,0
160,48,48374,1,0
120,144,48565,1,0
168,232,48756,2,0,B|208:288|304:288|352:224,1,200,0|8
392,144,49330,1,8
352,48,49521,1,8
304,64,49616,1,8
256,88,49712,5,4
192,160,49903,1,0
256,240,50094,1,0
192,320,50285,2,0,B|64:320|64:184,2,200
288,320,51240,5,0
352,240,51431,1,0
408,320,51623,1,0
472,240,51814,2,0,B|384:152,1,100
256,64,52196,6,0,B|256:0,2,50,2|2|2
176,248,52769,5,0
256,304,52960,1,0
336,248,53151,1,0
256,184,53342,2,0,B|224:256|296:304|256:384,2,200
320,104,54298,6,2,B|408:104|368:216|496:216,1,200,2|0
192,104,54871,2,2,B|104:104|144:216|16:216,1,200,2|0
256,88,55444,2,2,B|256:200,1,100,2|0
256,88,55826,5,4
320,160,56017,1,0
256,240,56209,1,0
320,320,56400,2,0,B|448:320|448:184,2,200
224,320,57355,5,0
160,240,57546,1,0
104,320,57737,1,0
40,240,57928,2,0,B|128:152,1,100,0|0
256,64,58310,6,0,B|256:0,2,50,2|2|2
408,192,58884,6,0,B|408:336|304:336,1,200
208,336,59457,2,0,B|104:336|104:184,1,200
208,192,60030,2,0,B|256:224|304:192,1,100
352,56,60412,6,0,B|128:56,1,200,4|0
144,208,60986,2,0,B|192:328|328:328|368:200,1,300,4|4
256,40,61941,6,0,B|256:104,6,50
352,56,62705,5,0
448,96,62896,1,0
448,192,63087,1,0
376,272,63279,6,0,B|352:376|144:376|136:240,1,300
144,112,64043,2,0,B|168:8|376:8|384:144,1,300
448,192,64807,5,2
88,360,65189,1,2
32,280,65380,1,2
40,80,65763,5,0
136,56,65954,1,0
88,144,66145,1,0
184,120,66336,1,0
136,208,66527,1,0
232,184,66718,6,2,B|296:184,1,50,2|2
280,336,67005,2,2,B|224:336,1,50,2|2
96,280,67291,1,2
256,120,67578,1,2
416,280,67865,1,2
320,280,68056,1,0
368,192,68247,2,0,B|368:128,2,50
104,72,68820,6,0,B|64:120|112:176,1,100
104,312,69202,2,0,B|64:264|112:208,1,100
200,192,69584,5,4
256,104,69775,1,0
312,192,69966,1,0
256,280,70158,2,0,B|288:320|352:320,1,100
448,320,70540,5,0
448,224,70731,1,0
448,128,70922,2,0,B|416:80|344:80,1,100
280,128,71304,2,0,B|240:72|288:24,2,100
336,208,71877,5,0
256,272,72068,1,0
176,208,72259,1,0
128,120,72451,6,0,B|200:24|320:24|392:136,1,300
384,272,73215,2,0,B|312:368|192:368|120:256,1,300
128,120,73979,5,2
384,272,74361,1,2
256,200,74552,1,2
256,200,74744,1,2
256,296,74935,5,0
168,248,75126,1,0
88,192,75317,1,0
152,120,75508,6,0,B|160:0|360:0|360:136,1,300
360,264,76272,2,0,B|352:384|152:384|152:248,1,300
88,192,77037,5,2
448,16,77419,1,2
472,112,77610,1,2
448,312,77992,5,0
352,280,78183,1,0
256,264,78374,1,0
160,280,78565,1,0
64,312,78756,1,2
448,216,79138,5,2
64,120,79521,1,2
448,24,79903,1,2
448,120,80094,5,2
64,216,80476,1,2
448,312,80858,1,2
352,304,81049,6,0,B|296:288|280:224,1,100
160,304,81431,2,0,B|216:288|232:224,1,100
256,136,81814,5,4
352,96,82005,1,0
256,56,82196,1,0
160,96,82387,2,0,B|96:96|64:152,1,100
72,240,82769,5,0
144,312,82960,1,0
208,240,83151,2,0,B|256:208|320:248,1,100
392,288,83533,2,0,B|368:352|288:336,2,100
304,240,84107,5,0
216,192,84298,1,0
304,144,84489,1,0
392,96,84680,6,0,B|312:24|192:24|112:104,1,300
120,288,85444,2,0,B|200:360|320:360|400:280,1,300
256,192,86209,1,2
368,344,86591,5,2
432,240,86782,1,2
408,120,86973,1,2
320,40,87164,1,2
192,40,87355,1,2
104,120,87546,1,2
80,240,87737,1,2
144,344,87928,1,4
96,312,100158,5,0
96,216,100349,1,0
160,136,100540,1,0
256,96,100731,2,0,B|368:96,1,100
320,192,101113,2,0,B|200:192,1,100
256,288,101495,2,0,B|384:288,2,100
160,288,102068,5,2
80,232,102259,2,0,B|32:256,2,50,0|0|2
176,200,102642,2,2,B|256:152|296:248|392:168,1,200,2|0
368,88,103215,5,0
456,136,103406,1,0
456,232,103597,1,0
368,184,103788,2,0,B|296:240|256:144|144:216,2,200
456,232,104744,5,0
456,136,104935,1,0
368,88,105126,1,2
280,136,105317,1,0
280,232,105508,1,0
280,232,105603,1,0
280,232,105699,2,0,B|384:176,2,100,2|0|2
192,280,106272,6,0,B|152:248|152:184,2,100,0|0|0
256,360,106845,1,0
504,192,107228,1,2
256,24,107610,1,2
8,192,107992,1,2
256,360,108374,1,2
256,264,108565,1,0
256,360,108756,1,8
256,264,108947,1,0
256,360,109138,1,8
152,360,109330,5,0
72,296,109521,1,0
152,232,109712,1,0
168,136,109903,2,0,B|264:48|360:152,1,200,0|8
360,232,110476,1,0
440,296,110667,1,8
360,360,110858,5,0
256,360,111049,1,0
152,360,111240,1,0
48,360,111431,1,4
464,24,111814,1,4
256,240,112387,5,4
168,288,112578,1,0
80,240,112769,1,0
80,144,112960,2,0,B|200:80,1,100
256,144,113342,2,0,B|152:200,2,100
344,96,113916,5,0
432,144,114107,1,0
344,192,114298,1,0
432,240,114489,1,0
344,288,114680,1,0
192,288,114871,6,0,B|120:288,2,50,2|2|2
40,160,115444,5,0
88,72,115635,1,0
184,72,115826,1,0
136,160,116017,2,0,B|288:176|232:80|344:80,2,200
72,232,116973,5,2
80,264,117068,1,2
96,288,117164,1,2
120,312,117259,1,2
144,328,117355,5,2
172,337,117451,1,2
208,344,117546,1,2
240,344,117642,1,2
272,344,117737,5,2
304,344,117833,1,2
340,337,117928,1,2
368,328,118024,1,2
392,312,118119,5,2
416,288,118215,1,2
432,264,118310,1,2
440,232,118406,1,2
440,200,118502,6,0,B|440:80,2,100,4|0|0
344,240,119075,2,0,B|344:128,1,100
256,184,119457,2,0,B|256:312,2,100
256,88,120030,5,0
176,32,120221,1,0
80,64,120412,1,0
40,152,120603,1,0
72,248,120795,1,0
176,352,120986,6,0,B|232:352,2,50,2|2|2
160,56,121559,6,0,B|264:104|368:48,1,200
352,152,122132,2,0,B|248:200|144:144,1,200
208,240,122705,2,0,B|248:256|312:240,1,100
352,96,123087,6,0,B|248:48|144:104,1,200,4|0
144,248,123661,2,0,B|192:368|328:368|368:240,1,300,4|4
256,88,124616,6,0,B|256:24,6,50
160,88,125380,5,0
224,160,125572,1,0
224,256,125763,1,0
160,328,125954,6,0,B|56:280|56:128|176:80,1,300
352,88,126718,2,0,B|456:136|456:288|336:336,1,300
256,368,127482,5,2
32,32,127865,1,2
32,32,128056,1,2
232,32,128438,5,0
328,32,128629,1,0
280,120,128820,1,0
376,120,129011,1,0
336,216,129202,6,0,B|448:216,1,100,0|2
440,264,129489,2,0,B|328:264,1,100,2|2
336,312,129775,2,0,B|464:312,1,100,2|2
256,72,130253,1,2
80,312,130540,1,2
176,312,130731,1,0
256,256,130922,2,0,B|256:192,2,50
432,160,131495,6,0,B|464:112|432:64,1,100,0|0
432,224,131877,2,0,B|464:272|432:320,1,100,0|0
336,320,132259,5,4
304,224,132451,1,0
208,224,132642,1,0
176,320,132833,2,0,B|120:320|88:272,1,100
64,176,133215,5,0
104,80,133406,1,0
192,32,133597,2,0,B|176:88|208:128,1,100
304,126,133979,2,0,B|336:88|320:24,2,100
256,216,134552,5,0
352,192,134744,1,0
440,232,134935,1,0
408,328,135126,6,0,B|280:280|256:376|112:320,1,300,0|0
120,168,135890,2,0,B|240:232|280:120|416:184,1,300,0|0
408,328,136654,5,2
104,328,137037,1,2
256,328,137228,1,2
256,328,137419,1,2
328,256,137610,5,0
328,160,137801,1,0
256,88,137992,1,0
160,56,138183,6,0,B|56:104|56:256|176:304,1,300
352,296,138947,2,0,B|456:248|456:96|336:48,1,300
256,16,139712,5,2
32,352,140094,1,2
32,352,140285,1,2
232,352,140667,5,0
328,320,140858,1,0
408,256,141049,1,0
456,168,141240,1,0
456,72,141431,1,2
56,112,141814,5,2
360,376,142196,1,2
208,8,142578,1,2
304,8,142769,5,2
152,376,143151,1,2
456,112,143533,1,2
368,160,143724,6,0,B|320:152|288:96,1,100
368,224,144107,2,0,B|320:232|288:288,1,100,0|0
256,376,144489,5,4
192,304,144680,1,0
96,304,144871,1,0
32,232,145062,2,0,B|32:168|88:136,1,100
160,96,145444,5,0
256,56,145635,1,0
352,96,145826,1,0
256,136,146017,1,0
256,240,146209,2,0,B|256:352,2,100
256,136,146782,5,0
160,96,146973,1,0
256,56,147164,1,0
352,72,147355,6,0,B|456:120|456:272|336:320,1,300,0|0
160,312,148119,2,0,B|56:264|56:112|176:64,1,300,0|0
256,192,148884,1,2
432,264,149266,5,2
328,352,149457,1,2
184,352,149648,1,2
80,264,149839,1,2
80,120,150030,1,2
184,32,150221,1,2
328,32,150412,1,2
432,120,150603,1,4
