osu file format v7

[General]
AudioFilename: 04. Over The Rainbow.mp3
AudioLeadIn: 0
PreviewTime: 62499
Countdown: 1
SampleSet: Normal
StackLeniency: 0.4
Mode: 0
LetterboxInBreaks: 1

[Editor]
Bookmarks: 780,25238,37467,49697,63455,87913,100143,112372,126130
DistanceSpacing: 1
BeatDivisor: 2
GridSize: 8

[Metadata]
Title:Over The Rainbow
Artist:Powerful T.
Creator:ykcarrot
Version:Easy
Source:Initial D
Tags:MoonFragrance Eurobeat Arcade Stage Ver.3 OST

[Difficulty]
HPDrainRate:3
CircleSize:3
OverallDifficulty:3
SliderMultiplier:0.799999999999999
SliderTickRate:2

[Events]
//Background and Video events
0,0,"OTR_BG.jpg"
//Break Periods
2,88128,98718
//Storyboard Layer 0 (Background)
//Storyboard Layer 1 (Fail)
//Storyboard Layer 2 (Pass)
//Storyboard Layer 3 (Foreground)
//Storyboard Sound Samples
//Background Colour Transformations
3,100,163,162,255

[TimingPoints]
795,382.165605095541,4,1,0,70,1,0
21814,-100,4,1,0,0,0,0
23724,-100,4,1,0,60,0,0
25253,-100,4,1,0,80,0,0
63470,-100,4,1,0,80,0,1
87928,-100,4,1,0,80,0,0
126145,-100,4,1,0,80,0,1
150603,-100,4,1,0,80,0,0

[Colours]
Combo1 : 64,0,128
Combo2 : 255,0,0
Combo3 : 255,255,0
Combo4 : 25,255,25
Combo5 : 0,0,255

[HitObjects]
256,224,12259,1,0
336,224,12642,1,0
384,160,13024,2,0,B|328:48|176:48|120:176,2,320
392,240,16463,5,4
320,280,16845,1,4
192,280,17419,1,4
120,240,17801,2,0,B|64:240,1,40,4|4
256,192,19138,12,0,21814
256,192,23916,6,0,B|256:240,7,40,2|2|2|2|2|2|2|4
384,328,26017,5,0
456,288,26400,1,0
384,248,26782,1,0
304,112,27546,5,0
256,48,27928,1,0
208,112,28310,1,0
128,248,29075,5,0
56,288,29457,1,0
128,328,29839,2,0,B|304:328,2,160,0|0|4
80,176,32132,5,0
136,112,32514,1,0
216,88,32896,2,0,B|312:88,1,79.9999999999999
376,112,33661,5,0
432,176,34043,1,0
432,256,34425,2,0,B|376:320,1,79.9999999999999
296,320,35189,5,0
216,320,35572,1,0
256,248,35954,2,0,B|256:112,2,120,4|4|4
176,248,37482,6,0,B|88:248|56:152,2,160,0|0|0
256,248,39393,1,2
256,168,39775,2,2,B|352:168,1,79.9999999999999,2|0
336,88,40540,6,0,B|424:88|456:184,2,160
256,88,42451,1,2
176,88,42833,2,0,B|80:88,1,79.9999999999999,0|2
96,168,43597,5,0
176,304,44361,1,0
336,304,45126,1,0
416,168,45890,1,0
296,64,46654,6,0,B|208:64,3,79.9999999999999,0|8|0|8
216,144,48183,2,0,B|304:144,3,79.9999999999999,0|8|0|8
368,104,49712,5,4
256,216,50476,1,0
144,104,51240,2,0,B|64:104|40:16,2,120,0|0|2
224,104,52769,5,0
376,152,53533,1,0
424,304,54298,2,2,B|352:264|272:360|192:296,1,240
136,240,55826,5,4
256,136,56591,1,0
376,240,57355,2,0,B|456:240|480:328,2,120,0|0|2
296,216,58884,6,0,B|400:112,2,120
216,216,60412,2,0,B|112:112,2,120,4|4|4
416,344,62705,5,0
408,264,63087,1,0
392,184,63470,2,0,B|384:24|120:24|120:200,1,399.999999999999,4|0
104,264,65763,5,0
96,344,66145,1,0
176,344,66527,2,0,B|368:344,2,160,2|2|2
56,240,68820,6,2,B|168:240,1,79.9999999999999
136,160,69584,2,0,B|280:160,1,120,4|0
256,80,70540,2,0,B|440:80,1,160
416,208,71877,5,0
336,184,72259,1,0
256,160,72642,2,0,B|256:304,2,120
96,344,74935,5,0
104,264,75317,1,0
120,184,75699,2,0,B|128:24|392:24|392:200,1,399.999999999999,4|0
408,264,77992,5,0
416,344,78374,1,0
336,344,78756,1,2
176,344,79521,1,2
32,272,80285,1,2
32,112,81049,6,2,B|56:64|120:88,1,79.9999999999999
104,160,81814,2,0,B|176:160|216:112,1,120,4|0
192,40,82769,2,0,B|248:16|312:72|288:136,1,160
256,240,84107,5,0
216,312,84489,1,0
296,312,84871,2,0,B|376:312|376:216,1,120
256,192,85635,12,4,87928
256,352,100158,5,0
184,312,100540,2,0,B|136:344|64:344,2,120
256,272,102068,1,2
256,192,102451,2,2,B|256:96,1,79.9999999999999,2|0
256,32,103215,5,0
328,72,103597,2,0,B|376:40|448:40,2,120
256,112,105126,1,2
256,192,105508,2,0,B|256:288,1,79.9999999999999,0|2
320,320,106272,6,0,B|288:376|208:376|176:296,3,160
120,176,109330,5,0
176,120,109712,2,0,B|352:120,1,160
392,176,110858,1,0
316,203,111240,2,0,B|172:203,1,120,0|4
184,320,112387,6,0,B|120:320|72:240,2,120,4|0|0
256,280,113916,2,0,B|256:176,3,79.9999999999999,0|0|0|2
328,160,115444,6,0,B|392:160|440:80,2,120
248,160,116973,2,2,B|152:160|152:320|256:320,1,240
328,320,118502,6,0,B|392:320|440:240,2,120,4|0|0
256,280,120030,2,0,B|256:176,3,79.9999999999999,0|0|0|2
216,128,121559,6,0,B|176:104|136:160|80:120,2,120,0|0|0
296,128,123087,2,0,B|336:104|376:160|432:120,2,120,4|4|4
160,328,125380,5,0
240,328,125763,1,0
320,328,126145,2,0,B|480:320|480:56|312:56,1,399.999999999999,4|0
240,56,128438,6,0,B|160:136,1,79.9999999999999
176,192,129202,2,0,B|360:192,2,160,2|2|2
88,328,131495,6,2,B|192:328,1,79.9999999999999
196,253,132259,2,0,B|340:253,1,120,4|0
344,328,133215,2,0,B|448:328,2,79.9999999999999
256,248,134552,6,0,B|256:152,1,79.9999999999999
200,104,135317,2,0,B|264:56|328:120,2,120
440,88,137610,5,0
432,168,137992,1,0
408,248,138374,2,0,B|376:368|256:376|128:368|104:232,1,399.999999999999,4|0
80,168,140667,5,0
72,88,141049,1,0
152,88,141431,1,2
256,208,142196,1,2
360,88,142960,1,2
464,208,143724,6,2,B|464:256|440:288,1,79.9999999999999,2|2
416,360,144489,2,0,B|288:360,1,120,4|0
216,360,145444,2,0,B|120:360,2,79.9999999999999
296,264,146782,5,0
216,264,147164,1,0
256,192,147546,2,0,B|256:64,1,120
256,192,148310,12,4,150603
