osu file format v9

[General]
AudioFilename: Powerpill-PAC-MAN-[05]-PAC-MAN.ogg
AudioLeadIn: 0
PreviewTime: 0
Countdown: 0
SampleSet: Normal
StackLeniency: 0.7
Mode: 0
LetterboxInBreaks: 1
SkinPreference:Pacman

[Editor]
Bookmarks: 3968,40149,47385,54621,61858,69094,72712,76330,77461,79157,80740,81870,83566,85375,86732,88994,91255,112923,120046,127395,139493,140624,141867
DistanceSpacing: 0.7
BeatDivisor: 2
GridSize: 8

[Metadata]
Title:Pacman
Artist:Power-Pill
Creator:Deathrain
Version:Powerpill
Source:Stepmania
Tags:Pac Man Pacman stepmania insane song powerpill hardest song ever Aphex Twin

[Difficulty]
HPDrainRate:4
CircleSize:5
OverallDifficulty:8
ApproachRate:9
SliderMultiplier:1.69999990463257
SliderTickRate:1

[Events]
//Background and Video events
0,0,"pacman zg 1.jpg"
//Break Periods
2,89194,90616
//Storyboard Layer 0 (Background)
//Storyboard Layer 1 (Fail)
//Storyboard Layer 2 (Pass)
//Storyboard Layer 3 (Foreground)
//Storyboard Sound Samples
//Background Colour Transformations
3,100,163,162,255

[TimingPoints]
3968.05761889428,226.133168966297,4,1,0,100,1,0
85375,226.133168966297,4,2,0,100,1,0
86731,226.133168966297,4,1,0,100,1,0
89860,226.133168966297,4,1,0,100,1,0
112923,113.066747069687,4,1,0,100,1,0
120046,226.133168966297,4,1,0,100,1,0
139493,-100,4,2,0,100,0,0
140624,-100,4,1,0,100,0,0

[HitObjects]
256,192,2385,12,0,2837
240,336,3968,5,0
288,288,4081,1,0
232,248,4194,1,0
288,208,4307,1,0
240,160,4420,1,0
240,160,4476,1,0
240,56,4646,1,0
352,56,4872,5,0
400,104,4985,1,0
352,152,5098,1,0
408,192,5211,1,0
360,240,5324,1,0
360,240,5381,1,0
384,336,5550,1,0
160,336,5777,5,0
112,288,5890,1,0
168,248,6003,1,0
120,200,6116,1,0
168,152,6229,1,0
168,152,6285,1,0
168,64,6455,1,0
256,296,6681,5,0
256,296,6738,1,0
256,296,6794,1,0
160,64,6907,5,0
160,64,6964,1,0
160,64,7020,1,0
352,64,7133,5,0
352,64,7190,1,0
352,64,7246,1,0
256,192,7360,5,0
256,128,7586,6,0,B|256:40,1,84.9999952316283
320,192,7812,2,0,B|408:192,1,84.9999952316283
256,248,8038,2,0,B|256:296,1,42.4999976158142
192,192,8321,1,0
320,128,8490,6,0,B|408:128,1,84.9999952316283
192,128,8716,2,0,B|104:128,1,84.9999952316283
256,192,8942,2,0,B|256:144,1,42.4999976158142
256,312,9169,1,0
320,128,9395,6,0,B|392:80,1,84.9999952316283
192,128,9621,2,0,B|128:72,1,84.9999952316283
232,312,9847,2,0,B|280:312,1,42.4999976158142
384,248,10073,1,0
432,88,10299,6,0,B|400:56,2,42.4999976158142
120,304,10525,6,0,B|88:272,2,42.4999976158142
256,208,10752,6,0,B|256:160,2,42.4999976158142
88,96,10978,5,0
128,152,11204,5,0
184,152,11317,1,0
184,208,11430,1,0
128,208,11543,1,0
128,264,11656,1,0
128,264,11713,1,0
208,312,11882,1,0
296,232,12108,5,0
296,144,12221,1,0
352,232,12334,1,0
352,144,12448,1,0
400,232,12561,1,0
400,232,12617,1,0
400,144,12787,1,0
256,64,13013,5,0
208,104,13126,1,0
208,168,13239,1,0
256,192,13352,1,0
312,160,13465,1,0
312,96,13522,1,0
264,128,13691,1,0
64,312,13917,5,0
96,312,13974,1,0
128,312,14030,1,0
424,312,14144,5,0
392,312,14200,1,0
360,312,14257,1,0
248,312,14370,5,0
248,280,14426,1,0
248,248,14483,1,0
248,64,14596,5,0
32,56,14822,5,0
64,56,14935,1,0
96,56,15048,1,0
128,56,15161,1,0
160,56,15274,1,0
192,56,15331,1,0
224,56,15500,1,0
224,120,15726,5,0
192,120,15840,1,0
160,120,15953,1,0
128,120,16066,1,0
96,120,16179,1,0
64,120,16235,1,0
32,120,16405,1,0
32,184,16631,5,0
64,184,16744,1,0
96,184,16857,1,0
128,184,16970,1,0
160,184,17083,1,0
192,184,17140,1,0
224,184,17309,1,0
448,336,17536,5,0
448,304,17592,1,0
448,272,17649,1,0
448,240,17762,5,0
448,208,17818,1,0
448,176,17875,1,0
448,144,17988,5,0
448,112,18044,1,0
448,80,18101,1,0
448,24,18214,5,4
48,328,18440,5,0
88,280,18553,1,0
128,232,18666,1,0
72,224,18779,1,0
72,168,18892,1,0
72,168,18949,1,0
144,112,19118,1,0
392,152,19345,5,0
344,184,19458,1,0
384,224,19571,1,0
336,256,19684,1,0
280,256,19797,1,0
280,256,19853,1,0
280,168,20023,1,0
208,72,20249,5,0
184,128,20362,1,0
128,128,20475,1,0
88,80,20588,1,0
144,72,20701,1,0
144,72,20758,1,0
216,16,20928,1,0
232,88,21154,6,0,B|280:88,1,42.4999976158142
274,88,21267,1,0
272,144,21380,6,0,B|224:144,1,42.4999976158142
229,144,21493,1,0
232,200,21606,6,0,B|280:200,1,42.4999976158142
274,200,21719,1,0
256,256,21832,5,0
200,312,22058,6,0,B|288:312,1,84.9999952316283
280,256,22284,1,0
200,256,22397,1,0
200,200,22510,1,0
200,200,22567,1,0
280,200,22737,1,0
280,64,22963,6,0,B|192:64,1,84.9999952316283
200,128,23189,1,0
280,128,23302,1,0
280,184,23415,1,0
280,184,23472,1,0
200,192,23641,1,0
200,312,23867,6,0,B|288:312,1,84.9999952316283
288,248,24093,1,0
200,248,24206,1,0
200,192,24320,1,0
200,192,24376,1,0
288,192,24546,1,0
200,128,24772,6,0,B|288:128,1,84.9999952316283
288,192,24998,6,0,B|200:192,1,84.9999952316283
288,64,25224,6,0,B|200:64,1,84.9999952316283
288,128,25450,5,0
256,192,25676,5,0
256,192,25789,1,0
256,192,25902,1,0
256,192,26016,1,0
256,192,26129,1,0
256,192,26185,1,0
256,192,26355,1,0
256,192,26581,5,0
256,192,26694,1,0
256,192,26807,1,0
256,192,26920,1,0
256,192,27033,1,0
256,192,27090,1,0
256,192,27259,1,0
256,192,27485,5,0
256,192,27598,1,0
256,192,27712,1,0
256,192,27825,1,0
256,192,27938,1,0
256,192,27994,1,0
256,192,28164,1,0
296,256,28390,6,0,B|336:232|304:216,2,42.4999976158142
184,176,28616,6,0,B|208:128|232:160,2,42.4999976158142
288,112,28842,6,0,B|320:144,2,42.4999976158142
192,272,29068,5,0
328,336,29294,6,0,B|384:272,1,84.9999952316283
168,48,29521,2,0,B|104:104,1,84.9999952316283
368,56,29747,2,0,B|400:88,2,42.4999976158142
256,192,29973,1,0
136,336,30199,6,0,B|64:280,1,84.9999952316283
448,48,30425,2,0,B|448:136,1,84.9999952316283
168,168,30651,2,0,B|200:136,2,42.4999976158142
376,288,30877,1,0
64,136,31104,6,0,B|120:72,1,84.9999952316283
448,248,31330,2,0,B|400:328,1,84.9999952316283
288,72,31556,2,0,B|336:72,2,42.4999976158142
256,192,31782,1,0
280,304,32008,6,0,B|328:304,3,42.4999976158142
224,304,32234,6,0,B|176:304,3,42.4999976158142
256,256,32460,6,0,B|256:208,3,42.4999976158142
256,160,32686,5,0
104,216,32913,6,0,B|80:136|168:120|168:120,1,84.9999952316285
168,192,33139,2,0,B|160:288|112:296|136:240,1,84.9999952316285
208,104,33365,2,0,B|256:80|184:112,2,42.4999976158142
352,184,33591,1,0
296,336,33817,5,0
296,272,33930,1,0
256,224,34043,1,0
216,272,34156,1,0
216,336,34269,1,0
216,336,34326,1,0
256,304,34496,1,0
80,56,34722,5,0
440,56,34948,1,0
256,352,35174,1,0
256,120,35400,1,0
384,200,35626,5,0
408,160,35683,1,0
432,200,35739,1,0
144,200,35852,5,0
120,160,35909,1,0
96,200,35965,1,0
288,200,36078,5,0
232,200,36135,1,0
256,248,36192,1,0
256,32,36305,5,0
256,296,36531,5,0
256,160,36644,1,0
256,296,36757,1,0
320,296,36870,1,0
320,160,36983,1,0
320,160,37040,1,0
408,160,37209,1,0
336,224,37435,5,0
184,224,37548,1,0
336,224,37661,1,0
184,168,37774,1,0
336,160,37888,1,0
336,160,37944,1,0
336,72,38114,1,0
328,288,38340,5,0
184,160,38453,1,0
328,288,38566,1,0
224,112,38679,1,0
368,240,38792,1,0
368,240,38849,1,0
424,168,39018,1,0
384,48,39244,5,0
360,72,39301,1,0
336,96,39357,1,0
312,120,39414,1,0
288,144,39470,5,0
264,168,39527,1,0
240,192,39584,1,0
216,216,39640,1,0
192,232,39697,5,0
168,248,39753,1,0
144,272,39810,1,0
120,288,39866,1,0
96,312,39923,5,0
72,80,40149,5,0
72,80,40375,1,0
72,80,40601,1,0
72,80,40827,1,0
72,80,41053,1,0
96,112,41166,1,0
72,80,41506,1,0
432,80,41958,5,0
432,80,42184,1,0
432,80,42410,1,0
432,80,42636,1,0
432,80,42862,1,0
408,112,42976,1,0
432,80,43315,1,0
256,192,43767,5,0
256,192,43993,1,0
256,192,44219,1,0
256,192,44445,1,0
256,192,44672,1,0
256,152,44785,1,0
256,192,45124,1,0
440,64,45576,5,0
256,64,45689,1,0
88,64,45802,1,0
88,280,46028,5,0
256,280,46141,1,0
440,280,46254,1,0
328,136,46481,5,0
176,136,46594,1,0
256,192,46707,1,0
352,56,46933,5,0
432,40,47385,5,0
56,40,47611,1,0
56,312,47837,1,0
432,312,48064,1,0
256,320,48290,5,0
256,48,48516,1,0
256,320,48742,1,0
256,48,48968,1,0
424,48,49194,5,0
48,280,49420,1,0
56,56,49646,1,0
48,336,49873,1,0
440,336,50099,5,0
56,344,50325,1,0
440,336,50551,1,0
32,24,50777,1,0
440,272,51003,5,0
192,272,51229,1,0
192,32,51456,1,0
440,272,51682,1,0
64,272,51908,5,0
464,24,52134,1,0
256,120,52360,1,0
256,192,52586,1,0
64,192,52812,5,0
480,192,53038,1,0
64,344,53265,1,0
480,344,53491,1,0
64,56,53717,5,0
256,56,53943,1,0
368,56,54169,1,0
472,56,54395,1,0
376,232,54621,5,0
376,232,54734,1,0
160,232,54848,1,0
160,232,54961,1,0
376,232,55074,1,0
376,232,55187,1,0
160,232,55300,1,0
160,232,55413,1,0
48,56,55526,5,0
48,56,55639,1,0
256,56,55752,1,0
256,56,55865,1,0
264,280,55978,1,0
264,280,56091,1,0
48,280,56204,1,0
48,280,56317,1,0
456,40,56430,5,0
456,40,56544,1,0
456,152,56657,1,0
456,152,56770,1,0
352,152,56883,1,0
352,152,56996,1,0
344,48,57109,1,0
344,48,57222,1,0
312,168,57335,5,0
312,168,57448,1,0
264,288,57561,1,0
264,288,57674,1,0
224,168,57787,1,0
224,168,57900,1,0
160,288,58013,1,0
160,288,58126,1,0
40,320,58240,5,0
40,320,58353,1,0
384,320,58466,1,0
384,320,58579,1,0
248,320,58692,1,0
248,288,58805,1,0
248,288,58918,1,0
248,320,59031,1,0
312,320,59144,5,0
312,320,59257,1,0
184,320,59370,1,0
184,320,59483,1,0
312,320,59596,1,0
312,320,59709,1,0
184,320,59822,1,0
184,320,59936,1,0
256,192,60049,5,0
256,192,60162,1,0
256,192,60275,1,0
256,192,60388,1,0
256,192,60501,1,0
256,192,60614,1,0
256,192,60727,1,0
256,192,60840,1,0
32,24,60953,5,0
56,48,61066,1,0
80,72,61179,1,0
104,96,61292,1,0
128,120,61405,1,0
152,144,61518,1,0
176,168,61632,1,0
200,192,61745,1,0
320,64,61858,6,0,B|424:40|384:200,1,169.999990463257
64,192,62310,2,0,B|120:256|72:256|144:280|-8:248,1,169.999990463257
464,224,62762,6,0,B|464:48,1,169.999990463257
464,54,63101,1,0
40,64,63214,2,0,B|40:248,1,169.999990463257
40,233,63554,1,0
192,328,63667,6,0,B|368:328,1,169.999990463257
176,56,64119,2,0,B|352:56,1,169.999990463257
344,312,64571,6,0,B|440:288|408:176,1,169.999990463257
408,179,64910,1,0
176,56,65024,2,0,B|56:48|56:200,1,169.999990463257
56,152,65363,1,0
256,112,65476,6,0,B|256:288,1,169.999990463257
168,112,65928,2,0,B|352:112,1,169.999990463257
408,32,66380,6,0,B|472:88,1,84.9999952316283
432,136,66606,2,0,B|360:72,1,84.9999952316283
40,296,66833,2,0,B|104:360,1,84.9999952316283
144,312,67059,2,0,B|80:256,1,84.9999952316283
336,32,67285,6,0,B|192:128,1,169.999990463257
194,126,67624,1,0
256,280,67737,2,0,B|400:168,1,169.999990463257
390,175,68076,1,0
152,32,68189,6,0,B|240:32,1,84.9999952316283
360,96,68416,2,0,B|272:96,1,84.9999952316283
152,168,68642,2,0,B|248:168,1,84.9999952316283
360,256,68868,2,0,B|272:256,1,84.9999952316283
256,112,69094,5,0
256,256,69320,1,0
256,112,69546,1,0
256,256,69772,1,0
176,256,69998,5,0
336,112,70225,1,0
176,256,70451,1,0
336,112,70677,1,0
432,312,70903,5,0
88,312,71129,1,0
88,48,71355,1,0
440,48,71581,1,0
440,48,71808,5,0
88,48,72034,1,0
88,312,72260,1,0
432,312,72486,1,0
256,48,72712,6,0,B|256:144,1,84.9999952316283
256,336,72938,2,0,B|256:248,1,84.9999952316283
88,184,73164,2,0,B|176:184,1,84.9999952316283
400,192,73390,2,0,B|304:192,1,84.9999952316283
304,112,73617,6,0,B|376:56,1,84.9999952316283
200,128,73843,2,0,B|128:48,1,84.9999952316283
208,224,74069,2,0,B|144:296,1,84.9999952316283
304,232,74295,2,0,B|368:296,1,84.9999952316283
64,280,74521,6,0,B|64:192,1,84.9999952316283
440,80,74747,2,0,B|440:168,1,84.9999952316283
64,80,74973,2,0,B|64:176,1,84.9999952316283
440,272,75200,2,0,B|440:184,1,84.9999952316283
256,192,75426,6,0,B|320:136,1,84.9999952316283
256,192,75652,2,0,B|200:128,1,84.9999952316283
256,192,75878,2,0,B|192:256,1,84.9999952316283
256,192,76104,2,0,B|320:264,1,84.9999952316283
432,40,76443,5,0
368,40,76556,1,0
304,40,76669,1,0
240,40,76782,1,0
168,40,76896,1,0
104,40,77009,1,0
40,40,77122,1,0
40,104,77235,1,0
40,168,77348,1,0
40,232,77461,6,0,B|208:232,1,169.999990463257
40,296,77800,5,0
80,352,77913,1,0
144,352,78026,1,0
208,352,78139,1,0
272,352,78252,1,0
336,352,78365,1,0
400,352,78478,5,0
464,352,78592,1,0
464,288,78705,1,0
464,224,78818,1,0
464,160,78931,1,0
464,96,79044,1,0
464,32,79157,1,0
464,32,79270,6,0,B|336:144,1,169.999990463257
400,32,79609,5,0
336,32,79722,1,0
272,32,79835,1,0
272,96,79948,1,0
208,96,80061,1,0
208,32,80174,1,0
144,96,80288,1,0
144,160,80401,1,0
144,224,80514,1,0
144,288,80627,1,0
216,224,80740,6,0,B|392:224,1,169.999990463257
216,160,81079,5,0
280,160,81192,1,0
344,160,81305,1,0
344,96,81418,1,0
344,32,81531,1,0
280,32,81644,1,0
208,32,81757,1,0
112,96,81870,5,0
112,96,81984,2,0,B|288:96,1,169.999990463257
112,160,82323,5,0
112,224,82436,1,0
256,224,82549,1,0
112,224,82662,1,0
112,288,82775,1,0
112,352,82888,1,0
256,352,83001,5,0
112,352,83114,1,0
184,296,83227,1,0
184,224,83340,1,0
184,160,83453,1,0
184,96,83566,1,0
184,96,83679,1,0
184,96,83793,6,0,B|368:96,1,169.999990463257
48,40,84132,5,0
104,40,84245,1,0
48,40,84358,1,0
104,40,84471,1,0
104,96,84584,1,0
48,96,84697,1,0
104,96,84810,1,0
48,96,84923,1,0
80,152,85036,5,0
80,208,85149,1,0
128,208,85262,1,0
376,88,85375,6,0,B|408:56,3,42.4999976158142
328,136,85602,2,0,B|288:176,3,42.4999976158142
392,152,85828,2,0,B|424:200,3,42.4999976158142
128,288,86054,6,0,B|96:320,3,42.4999976158142
192,288,86280,2,0,B|224:336,3,42.4999976158142
160,232,86506,2,0,B|160:184,3,42.4999976158142
456,328,86732,5,0
456,264,86845,1,0
456,200,86958,1,0
456,144,87071,1,0
456,80,87185,1,0
392,80,87298,1,0
344,128,87411,1,0
296,184,87524,1,0
256,128,87637,5,0
136,128,87750,1,0
256,128,87863,1,0
136,128,87976,1,0
200,128,88089,1,0
200,192,88202,1,0
200,256,88315,1,0
264,256,88428,1,0
360,176,88541,5,0
472,176,88654,1,0
360,280,88767,1,0
424,280,88881,1,0
480,280,88994,1,0
144,224,91216,5,0
208,96,91329,1,0
208,160,91442,1,0
208,224,91555,1,0
272,160,91669,1,0
272,160,91725,1,0
272,224,91895,1,0
416,128,92121,5,0
416,48,92234,1,0
336,48,92347,1,0
336,128,92460,1,0
376,88,92573,1,0
376,88,92630,1,0
376,184,92799,1,0
352,240,93025,5,0
416,240,93138,1,0
416,304,93251,1,0
352,304,93365,1,0
256,192,93478,1,0
256,192,93534,1,0
384,272,93704,1,0
48,240,93930,5,0
48,208,93986,1,0
48,240,94043,1,0
112,208,94156,5,0
112,240,94213,1,0
112,208,94269,1,0
176,240,94382,5,0
176,208,94439,1,0
176,240,94495,1,0
240,224,94608,5,0
224,64,94834,5,0
288,64,94947,1,0
160,64,95061,1,0
352,64,95174,1,0
256,192,95287,1,0
256,192,95343,1,0
256,128,95513,1,0
400,240,95739,5,0
456,240,95852,1,0
400,296,95965,1,0
456,296,96078,1,0
424,128,96191,1,0
424,128,96248,1,0
424,184,96417,1,0
128,240,96643,5,0
64,240,96757,1,0
128,296,96870,1,0
64,296,96983,1,0
96,120,97096,1,0
96,120,97152,1,0
96,184,97322,1,0
224,224,97548,5,0
288,224,97605,1,0
256,168,97661,1,0
224,224,97774,5,0
288,224,97831,1,0
256,168,97887,1,0
224,224,98000,5,0
288,224,98057,1,0
256,168,98113,1,0
256,200,98226,5,0
448,64,98453,6,0,B|360:64,1,84.9999952316283
72,72,98679,2,0,B|160:72,1,84.9999952316283
256,72,98905,2,0,B|256:120,2,42.4999976158142
256,114,99131,1,0
72,320,99357,6,0,B|168:320,1,84.9999952316283
448,320,99583,2,0,B|352:320,1,84.9999952316283
256,320,99809,2,0,B|256:272,2,42.4999976158142
256,277,100035,1,0
256,192,100262,6,0,B|328:144,1,84.9999952316283
256,192,100488,2,0,B|184:136,1,84.9999952316283
256,192,100714,2,0,B|256:240,2,42.4999976158142
256,192,100940,1,0
192,72,101166,5,0
192,72,101223,1,0
192,72,101279,2,0,B|288:72,1,84.9999952316283
277,72,101449,5,0
277,72,101505,2,0,B|184:72,1,84.9999952316283
192,72,101675,5,0
192,72,101731,2,0,B|280:72,1,84.9999952316283
168,296,102071,5,0
304,296,102184,1,0
264,248,102297,1,0
208,248,102410,1,0
240,184,102523,1,0
240,184,102579,1,0
240,120,102749,1,0
168,40,102975,5,0
312,40,103088,1,0
272,96,103201,1,0
208,96,103314,1,0
240,152,103427,1,0
240,152,103484,1,0
240,216,103654,1,0
168,296,103880,5,0
304,296,103993,1,0
264,256,104106,1,0
208,256,104219,1,0
240,208,104332,1,0
240,208,104389,1,0
240,152,104558,1,0
72,160,104784,5,0
112,104,104841,1,0
144,160,104897,1,0
144,160,105010,5,0
176,104,105067,1,0
208,160,105123,1,0
208,160,105237,5,0
240,104,105293,1,0
272,160,105350,1,0
272,160,105463,5,0
480,32,105689,5,0
480,96,105802,1,0
480,160,105915,1,0
480,224,106028,1,0
480,288,106141,1,0
480,352,106198,1,0
416,352,106367,1,0
416,288,106593,5,0
416,224,106706,1,0
416,160,106819,1,0
416,96,106933,1,0
416,32,107046,1,0
352,32,107102,1,0
352,96,107272,1,0
352,160,107498,5,0
352,224,107611,1,0
352,288,107724,1,0
352,352,107837,1,0
288,352,107950,1,0
288,288,108007,1,0
288,224,108176,1,0
288,160,108402,5,0
288,96,108459,1,0
288,32,108515,1,0
224,32,108629,5,0
224,96,108685,1,0
224,160,108742,1,0
224,224,108855,5,0
224,288,108911,1,0
224,352,108968,1,0
160,352,109081,5,0
24,24,109307,5,0
88,24,109420,1,0
152,24,109533,1,0
216,24,109646,1,0
280,24,109759,1,0
344,24,109816,1,0
408,24,109985,1,0
472,24,110211,5,0
472,88,110325,1,0
408,88,110438,1,0
344,88,110551,1,0
280,88,110664,1,0
216,88,110720,1,0
152,88,110890,1,0
88,88,111116,5,0
24,88,111229,1,0
24,152,111342,1,0
88,152,111455,1,0
152,152,111568,1,0
216,152,111625,1,0
280,152,111794,1,0
344,152,112021,5,0
408,152,112077,1,0
472,152,112134,1,0
472,216,112247,5,0
408,216,112303,1,0
344,216,112360,1,0
280,216,112473,5,0
216,216,112529,1,0
152,216,112586,1,0
88,216,112699,5,0
32,336,112923,6,0,B|216:336,1,179.999995231628
212,336,113149,2,0,B|400:336,1,179.999995231628
392,336,113375,2,0,B|392:144,1,179.999995231628
392,156,113601,2,0,B|200:152,1,179.999995231628
212,152,113827,1,0
212,152,113940,1,0
24,184,114166,2,0,B|144:56|304:24|456:80|496:200|456:352|256:368|112:352|80:304,1,849.999952316285
57,269,114845,5,0
57,269,114958,2,0,B|248:272,1,179.999995231628
248,216,115184,2,0,B|64:216,1,179.999995231628
72,160,115410,2,0,B|256:160,1,179.999995231628
312,168,115636,2,0,B|320:352,1,179.999995231628
384,336,115975,6,0,B|472:336,1,89.9999976158142
472,280,116088,2,0,B|384:280,1,89.9999976158142
384,224,116201,2,0,B|472:224,1,89.9999976158142
472,168,116315,2,0,B|384:168,1,89.9999976158142
384,112,116428,2,0,B|472:112,1,89.9999976158142
472,56,116541,6,0,B|288:56,1,179.999995231628
292,56,116767,2,0,B|112:56,1,179.999995231628
112,56,116993,2,0,B|112:248,1,179.999995231628
176,232,117219,2,0,B|176:48,1,179.999995231628
176,52,117445,1,0
176,52,117558,1,0
56,344,117784,5,0
464,344,118011,1,0
256,336,118293,1,0
256,336,118350,1,0
56,344,118576,1,0
464,344,118802,1,0
256,336,119028,1,0
56,344,119254,1,0
464,280,119593,5,0
424,280,119650,1,0
392,280,119707,1,0
360,280,119763,1,0
320,280,119820,1,0
288,280,119933,1,0
24,288,120046,5,0
64,240,120159,1,0
104,192,120272,1,0
144,144,120385,1,0
184,96,120498,1,0
224,48,120611,1,0
272,88,120724,5,0
320,128,120837,1,0
368,160,120950,1,0
416,192,121063,1,0
464,224,121176,1,0
424,264,121289,5,0
376,296,121402,1,0
320,320,121515,1,0
264,344,121628,1,0
264,288,121741,5,0
264,232,121855,1,0
264,176,121968,1,0
264,120,122081,1,0
264,64,122194,1,0
216,96,122307,5,0
168,128,122420,1,0
120,160,122533,1,0
72,192,122646,1,0
24,224,122759,1,0
24,280,122872,5,0
24,336,122985,1,0
80,336,123098,5,0
136,336,123211,1,0
192,336,123324,1,0
248,336,123437,1,0
304,336,123551,1,0
360,336,123664,1,0
416,336,123777,1,0
472,336,123890,1,0
472,280,124003,5,0
472,224,124116,1,0
472,168,124229,1,0
472,112,124342,1,0
472,56,124455,1,0
432,96,124568,5,0
392,136,124681,1,0
352,176,124794,1,0
312,216,124907,1,0
272,256,125020,1,0
232,296,125133,1,0
192,336,125247,1,0
136,336,125360,5,0
80,336,125473,1,0
24,336,125586,1,0
24,280,125699,5,0
24,224,125812,1,0
72,192,125925,5,0
120,160,126038,1,0
168,128,126151,1,0
216,96,126264,1,0
264,64,126377,1,0
312,32,126490,1,0
312,88,126603,5,0
312,144,126716,1,0
312,200,126829,1,0
368,200,126943,5,0
424,200,127056,1,0
480,200,127169,1,0
480,256,127282,1,0
472,344,127395,5,0
432,304,127508,1,0
392,264,127621,1,0
352,224,127734,1,0
376,320,127847,5,0
336,280,127960,1,0
296,240,128073,1,0
256,200,128186,1,0
392,184,128299,5,0
352,144,128412,1,0
312,104,128525,1,0
272,64,128639,1,0
136,144,128752,5,0
176,104,128865,1,0
216,64,128978,1,0
256,24,129091,1,0
232,120,129204,5,0
192,160,129317,1,0
152,200,129430,1,0
112,240,129543,1,0
208,216,129656,5,0
232,264,129769,1,0
192,304,129882,1,0
136,288,129995,1,0
136,144,130108,5,0
80,144,130221,1,0
40,184,130335,1,0
64,232,130448,1,0
248,176,130561,5,0
280,128,130674,1,0
312,176,130787,1,0
344,128,130900,1,0
368,176,131013,5,0
416,208,131126,1,0
376,248,131239,1,0
424,280,131352,1,0
272,64,131465,5,0
328,64,131578,1,0
384,64,131691,1,0
440,64,131804,1,0
272,320,131917,5,0
328,320,132031,1,0
384,320,132144,1,0
440,320,132257,1,0
24,112,132370,5,0
24,168,132483,1,0
24,224,132596,1,0
24,280,132709,1,0
488,112,132822,5,0
488,168,132935,1,0
488,224,133048,1,0
488,280,133161,1,0
96,24,133274,5,0
128,72,133387,1,0
88,112,133500,1,0
48,72,133613,1,0
416,360,133727,5,0
384,312,133840,1,0
424,272,133953,1,0
472,304,134066,1,0
32,352,134179,5,0
72,312,134292,1,0
112,272,134405,1,0
152,232,134518,1,0
480,32,134631,5,0
440,72,134744,1,0
400,112,134857,1,0
360,152,134970,1,0
208,144,135083,5,0
184,96,135196,1,0
136,72,135309,1,0
80,72,135423,1,0
304,240,135536,5,0
336,288,135649,1,0
384,312,135762,1,0
440,312,135875,1,0
24,360,135988,5,0
64,320,136101,1,0
120,320,136214,1,0
160,360,136327,1,0
488,24,136440,5,0
448,64,136553,1,0
392,64,136666,1,0
352,24,136779,1,0
24,160,136892,5,0
72,120,137005,1,0
120,160,137119,1,0
168,120,137232,1,0
488,160,137345,5,0
440,120,137458,1,0
392,160,137571,1,0
344,120,137684,1,0
112,296,137797,5,0
152,256,137910,1,0
112,216,138023,1,0
72,256,138136,1,0
392,296,138249,5,0
352,256,138362,1,0
392,216,138475,1,0
432,256,138588,1,0
112,40,138701,5,0
152,80,138815,1,0
112,120,138928,1,0
72,80,139041,1,0
64,152,139154,5,0
24,192,139267,1,0
64,232,139380,1,0
128,192,139493,6,0,B|120:160,1,28.3333317438762
128,216,139568,2,0,B|112:248,1,28.3333317438762
144,192,139644,2,0,B|160:160,1,28.3333317438762
144,216,139719,2,0,B|152:248,1,28.3333317438762
176,200,139794,2,0,B|168:168,1,28.3333317438762
176,224,139870,2,0,B|168:256,1,28.3333317438762
200,208,139945,2,0,B|200:176,1,28.3333317438762
192,240,140021,2,0,B|192:272,1,28.3333317438762
216,224,140096,2,0,B|256:200,1,28.3333317438762
224,248,140171,2,0,B|200:288,1,28.3333317438762
240,232,140247,2,0,B|248:184,1,28.3333317438762
248,256,140322,2,0,B|240:288,1,28.3333317438762
264,240,140397,2,0,B|280:216,1,28.3333317438762
272,264,140473,2,0,B|248:304,1,28.3333317438762
288,248,140548,2,0,B|312:224,1,28.3333317438762
312,272,140624,5,0
368,272,140737,1,0
424,272,140850,1,0
480,272,140963,1,0
312,168,141076,5,0
368,168,141189,1,0
424,168,141302,1,0
480,168,141415,1,0
96,256,141528,5,0
64,208,141641,1,0
64,152,141754,1,0
104,104,141867,5,0
168,104,142093,1,0
232,104,142320,1,0
296,104,142546,1,0
360,104,142772,1,0
384,104,142885,1,0
448,104,143224,1,0
104,304,143676,5,0
168,304,143902,1,0
232,304,144129,1,0
296,304,144355,1,0
360,304,144581,1,0
384,304,144694,1,0
448,304,145033,1,0
432,192,145485,5,0
368,192,145711,1,0
304,192,145938,1,0
240,192,146164,1,0
176,192,146390,1,0
152,192,146503,1,0
88,192,146842,1,0
336,32,147295,5,0
176,32,147408,1,0
336,32,147521,1,0
336,192,147747,5,0
176,192,147860,1,0
336,192,147973,1,0
336,360,148199,5,0
168,360,148312,1,0
336,360,148425,1,0
256,192,148651,5,0
