osu file format v9

[General]
AudioFilename: 1111 .mp3
AudioLeadIn: 0
PreviewTime: 124729
Countdown: 1
SampleSet: Normal
StackLeniency: 0.7
Mode: 0
LetterboxInBreaks: 1

[Editor]
Bookmarks: 42764,83907,97621,111336,124621,139193,152479,166193
DistanceSpacing: 1.5
BeatDivisor: 4
GridSize: 8

[Metadata]
Title:Chumachechaya Vesna
Artist:Potap & Nastya Kamenskih
Creator:Kuma-san
Version:Collab Hard
Source:
Tags:Leyko Hellzero Saten-san Russian

[Difficulty]
HPDrainRate:6
CircleSize:4
OverallDifficulty:5
ApproachRate:6
SliderMultiplier:1.5
SliderTickRate:2

[Events]
//Background and Video events
0,0,"spring_bg.jpg"
//Break Periods
2,97827,110292
2,152685,165578
//Storyboard Layer 0 (Background)
//Storyboard Layer 1 (Fail)
//Storyboard Layer 2 (Pass)
//Storyboard Layer 3 (Foreground)
Sprite,Foreground,Centre,"SB\SB6.jpg",320,240 M,0,152486,,320,240 S,0,152486,166200,0.8
Sprite,Foreground,Centre,"SB\SB5.jpg",320,240 S,0,125057,152486,0.8
Sprite,Foreground,Centre,"SB\SB4.jpg",320,240 M,0,111343,,320,240 S,0,111343,125057,0.8
Sprite,Foreground,Centre,"SB\SB3.jpg",320,240 F,0,70200,,1 S,0,70200,97628,0.7999998,0.7999997
Sprite,Foreground,Centre,"SB\SB2.jpg",320,240 M,0,56486,,320,240 S,0,56486,70200,0.7999998
Sprite,Foreground,Centre,"SB\SB1.jpg",320,240 M,0,29057,,320,240 S,0,29057,,0.8 F,0,29057,56486,1 F,0,56486,,1
Sprite,Foreground,Centre,"SB\1.png",320,240 M,0,14071,14485,183,390 F,0,14485,14914,0,1 M,0,14485,14920,183,390 F,0,14914,42343,1 F,0,42343,42771,1,0 F,0,42771,83914,0 F,0,83914,84343,0,1 F,0,84343,97200,1 F,0,97200,97628,1,0 F,0,97628,124628,0 F,0,124628,125057,0,1 F,0,125057,138771,1 F,0,138771,139200,1,0 F,0,139200,152486,0 F,0,152486,166200,0 F,0,166200,166628,0,1 F,0,166628,179486,1 F,0,179486,179914,1,0
Sprite,Foreground,Centre,"SB\2.png",320,240 M,0,42771,,459,397 F,0,42771,43200,0,1 F,0,43200,83486,1 F,0,83486,83914,1,0 F,0,83914,111343,0 F,0,111343,111771,0,1 F,0,111771,124200,1 F,0,124200,124628,1,0 F,0,124628,,0 F,0,124628,139200,0 F,0,139200,139628,0,1 F,0,139628,152057,1 F,0,152057,152486,1,0
//Storyboard Sound Samples
//Background Colour Transformations
3,100,163,162,255

[TimingPoints]
1628,428.571428571429,4,1,0,80,1,0
29056,-100,4,1,0,80,0,1
56485,-100,4,1,0,80,0,0
66663,-100,4,1,0,50,0,0
66878,-100,4,1,0,55,0,0
67092,-100,4,1,0,60,0,0
67306,-100,4,1,0,65,0,0
67520,-100,4,1,0,70,0,0
67735,-100,4,1,0,75,0,0
67949,-100,4,1,0,80,0,0
70199,-100,4,1,0,80,0,1
97628,-100,4,1,0,80,0,0
121520,-100,4,1,0,50,0,0
121735,-100,4,1,0,55,0,0
121949,-100,4,1,0,60,0,0
122163,-100,4,1,0,65,0,0
122378,-100,4,1,0,70,0,0
122592,-100,4,1,0,75,0,0
122806,-100,4,1,0,80,0,0
124628,-100,4,1,0,80,0,1
124735,-100,4,1,0,80,0,0
125056,-100,4,1,0,80,0,1
152485,-100,4,1,0,80,0,0
166413,-100,4,1,0,80,0,0
179913,-100,4,1,0,80,0,1
180020,-100,4,1,0,80,0,0

[Colours]
Combo1 : 200,0,200
Combo2 : 251,187,189
Combo3 : 240,248,177

[HitObjects]
120,56,14485,2,0,B|64:144,1,75,8|0
136,168,14913,2,0,B|200:224,1,75,8|0
256,256,15342,1,0
328,272,15556,1,0
400,248,15770,1,8
344,200,15985,1,0
288,152,16199,1,0
336,96,16413,1,0
336,96,16627,2,0,B|392:136|488:136,1,150,8|0
416,232,17270,1,0
344,256,17485,2,0,B|272:296|184:272,2,150,8|0|8
304,192,18556,5,0
248,144,18770,1,0
120,144,18985,1,0
80,208,19199,1,8
152,288,19413,1,0
224,288,19628,1,0
224,288,19842,2,0,B|264:312|304:288,2,75,0|8|0
240,216,20485,1,0
200,152,20699,1,0
128,176,20913,1,8
56,192,21128,2,0,B|32:232|80:288,1,75
104,320,21556,2,0,B|136:352|192:328,1,75,0|8
208,264,21985,5,0
280,240,22199,1,0
352,216,22413,2,0,B|384:192|432:208,2,75,0|8|0
304,160,23056,1,0
304,160,23270,2,0,B|320:112|304:80,2,75,0|8|0
232,160,23913,5,0
160,176,24128,1,0
96,216,24342,1,8
48,272,24556,2,0,B|88:320|136:312,2,75
24,200,25199,2,0,B|16:160|48:128,1,75,8|0
120,112,25628,6,8,B|216:112,1,75,8|0
216,184,26056,2,8,B|128:184,1,75,8|0
152,256,26485,2,8,B|240:256,1,75
304,248,26913,1,8
360,200,27128,1,0
344,128,27342,1,0
288,80,27556,1,0
216,64,27770,2,0,B|168:112|168:152,2,75,8|0|0
248,136,28413,1,0
224,208,28628,1,8
72,200,29056,6,0,B|40:112|104:56,1,150,0|8
160,104,29699,1,0
184,176,29913,1,0
144,240,30128,2,0,B|208:256|240:256,2,75,0|8|0
112,168,30770,1,0
184,144,30985,1,0
256,144,31199,2,0,B|360:160|400:240,1,150,8|0
320,256,31842,1,0
248,256,32056,1,8
184,296,32270,6,0,B|128:256|112:232,2,75
208,224,32913,1,8
280,200,33128,1,0
336,248,33342,2,0,B|424:224|416:216,1,75
440,160,33770,2,0,B|440:72,1,75,8|0
376,56,34199,1,0
296,72,34413,5,0
256,136,34628,1,8
256,208,34842,1,0
216,272,35056,2,0,B|176:296|136:288,1,75
64,288,35485,2,0,B|48:224|72:192,1,75,8|0
120,168,35913,2,4,B|136:120|128:80,1,75,4|0
200,72,36342,5,8
272,104,36556,1,0
216,152,36770,1,0
192,224,36985,2,0,B|248:240|296:232,2,75,0|8|0
152,288,37628,1,0
216,328,37842,2,0,B|272:320|320:296,1,75,0|8
352,272,38270,2,0,B|400:224|392:176,1,75
384,128,38699,6,0,B|352:72|304:72,2,75,0|8|0
320,160,39342,1,0
248,168,39556,2,0,B|208:168|152:192,1,75,0|8
104,208,39985,1,0
96,280,40199,2,0,B|136:304|184:280,1,75
240,288,40628,2,0,B|304:312|328:312|360:296|360:296|384:256,1,150,8|0
376,120,41485,6,0,B|352:88|296:64,2,75,8|0|0
320,168,42128,1,0
264,216,42342,1,8
192,232,42556,1,0
120,232,42770,1,4
104,88,43199,6,0,B|72:72|32:80,2,75,8|0|0
176,120,43842,1,0
216,56,44056,2,0,B|256:40|296:56,1,75,8|0
344,104,44485,2,0,B|424:144,1,75
360,192,44913,2,0,B|384:264,1,75,8|0
312,272,45342,2,0,B|312:352,2,75,0|0|8
256,216,45985,6,0,B|216:192|144:272|104:224,1,150
136,160,46627,1,8
72,128,46842,2,0,B|0:80,1,75
136,88,47270,2,0,B|112:8,1,75,0|8
208,120,47699,2,0,B|232:48,1,75
360,128,48127,6,0,B|280:96,1,75,0|8
184,224,48556,2,0,B|253:196,1,75,0|0
384,288,48985,2,0,B|312:240,1,75,0|8
296,136,49413,1,0
184,128,49627,1,4
48,192,50056,5,8
48,264,50270,1,0
88,328,50485,2,0,B|128:344|168:328,2,75,0|0|8
128,264,51127,2,0,B|128:112,1,150
184,64,51770,1,8
240,112,51985,2,0,B|400:112,1,150
440,168,52627,1,8
440,240,52842,6,0,B|424:288|336:288|320:240,1,150
344,168,53485,1,8
392,104,53699,2,0,B|408:64|392:32,1,75
320,64,54127,2,0,B|280:48|248:64,1,75,0|8
280,136,54556,2,0,B|296:168|280:208,1,75,0|0
208,176,54985,2,0,B|168:192|136:176,1,75,0|8
168,104,55413,2,2,B|152:56|64:56|48:104,1,150,2|0
48,176,56056,1,8
128,304,56270,1,2
256,232,56485,5,4
256,80,56913,1,8
448,192,57556,1,0
376,192,57770,2,0,B|312:168|288:224|224:192,1,150,8|0
80,192,58627,1,8
256,336,59270,5,0
256,264,59485,2,0,B|280:200|224:176|256:112,1,150,8|0
320,88,60127,1,0
320,160,60342,1,8
384,192,60556,2,0,B|384:272,2,75
448,152,61199,2,8,B|464:112|448:80,1,75,8|0
384,48,61627,5,0
320,88,61842,1,0
256,48,62056,1,8
192,88,62270,1,0
128,48,62485,1,0
256,128,62913,1,8
256,200,63127,1,0
192,240,63342,5,4
128,280,63556,2,0,B|104:272|80:296|56:280,2,75,0|8|0
192,320,64199,1,0
256,280,64413,1,0
320,320,64627,1,8
384,280,64842,2,0,B|408:272|432:296|456:280,2,75,0|0|0
320,240,65485,2,0,B|304:200|320:168,1,75,8|0
384,200,65913,2,0,B|432:184|432:96|384:80,1,150,0|8
312,80,66556,1,0
256,136,66770,5,0
208,192,66985,1,0
256,248,67199,1,0
304,192,67413,1,0
256,112,67627,5,0
184,192,67842,1,0
256,272,68056,1,0
328,192,68270,1,0
256,192,68485,12,8,69770
312,128,70199,6,0,B|296:80|208:80|192:128,1,150,4|8
152,192,70842,2,0,B|64:192,2,75
191,255,71485,2,0,B|208:304|296:304|312:256,1,150,8|0
384,256,72127,1,0
344,192,72342,1,8
384,128,72556,2,0,B|432:152|512:96|496:40,1,150
416,56,73199,1,8
344,40,73413,1,0
296,96,73627,6,0,B|320:152|280:184|304:248,1,150,0|8
304,320,74270,2,0,B|376:360,2,75
232,320,74913,1,8
160,320,75127,2,0,B|144:368|56:368|40:320,1,150,0|0
40,248,75770,2,0,B|48:200|32:168,1,75,8|0
144,216,76199,2,0,B|185:191|200:158,1,75
256,288,76627,2,0,B|296:304|336:288,2,75,8|0|4
440,192,77485,5,8
440,120,77699,1,0
400,56,77913,2,0,B|368:40|328:56,1,75
288,120,78342,1,8
288,192,78556,1,0
224,152,78770,2,0,B|136:152,2,75,0|0|8
288,192,79413,2,0,B|336:208|336:296|288:312,1,150,0|0
216,312,80056,1,8
144,312,80270,1,0
88,256,80485,6,0,B|40:112,1,150,0|8
104,72,81127,2,0,B|151:214,1,150
224,184,81770,1,8
256,112,81985,1,0
224,40,82199,1,0
256,192,82627,12,4,83913
144,88,84342,6,0,B|144:144|176:168,1,75,8|0
216,208,84770,1,0
288,200,84985,2,0,B|328:160|328:160|352:192|424:176,2,150
216,208,86056,1,8
144,200,86270,2,0,B|104:160|104:160|80:192|8:176,2,150
184,264,87342,1,0
248,216,87556,5,0
320,200,87770,1,8
392,200,87985,2,0,B|432:160|424:112,1,75
376,80,88413,2,0,B|320:40|232:48,2,150
328,136,89485,2,0,B|272:136|240:168,1,75,8|0
184,184,89913,1,0
184,184,90127,2,0,B|144:240|160:336,1,150
232,312,90770,5,0
304,280,90985,1,0
304,280,91199,2,0,B|360:264|376:232,1,75,8|0
392,168,91627,2,0,B|376:96|352:96,2,75,0|0|8
320,176,92270,2,0,B|288:208|240:184,1,75
176,184,92699,2,0,B|144:208|104:192,1,75,0|8
80,264,93127,2,0,B|112:296|160:296|200:296|240:264,2,150
136,216,94199,1,0
72,184,94413,6,0,B|96:136|88:104|88:104|144:56,2,150
144,200,95485,1,8
216,216,95699,2,0,B|192:264|200:296|200:296|144:344,2,150
280,176,96770,1,0
352,176,96985,1,0
424,184,97199,1,8
480,232,97413,1,0
480,304,97627,1,4
48,64,111342,5,4
120,32,111556,1,0
120,32,111770,1,8
192,64,111985,1,0
192,136,112199,2,0,B|192:216,1,75
192,288,112627,2,0,B|208:336|296:336|312:288,1,150,8|0
384,288,113270,1,0
384,216,113485,2,0,B|400:176|384:144,1,75,8|0
328,88,113913,2,0,B|288:88|288:88|264:56|264:120|232:88|232:88|192:88,1,150,0|8
80,192,114770,5,0
120,256,114985,2,0,B|160:272|192:256,1,75,0|8
256,208,115413,2,0,B|256:128,2,75
319,255,116056,2,0,B|352:272|392:256,1,75,8|0
352,192,116485,5,0
256,96,116699,1,0
160,192,116913,1,8
256,288,117127,1,0
256,288,117342,2,0,B|256:256|256:256|272:240|240:232|256:216|256:216|272:200|240:192|256:176|256:176|256:144,1,150,0|8
160,32,118199,5,4
208,88,118413,1,0
256,32,118627,1,8
304,88,118842,1,0
360,32,119056,1,0
360,32,119270,1,0
416,88,119485,2,0,B|472:144,1,75,8|0
432,208,119913,2,0,B|378:154,1,75
312,192,120342,2,0,B|368:248,2,75,8|0|0
256,328,121199,1,8
120,264,121627,5,0
120,224,121842,1,0
64,96,122056,1,0
64,136,122270,1,0
184,80,122485,5,0
184,40,122699,1,0
256,152,122913,1,0
256,192,123127,1,0
256,192,123342,12,8,124627
136,200,125056,5,0
200,240,125270,1,0
272,264,125485,2,0,B|320:288|376:272,1,75,8|0
344,200,125913,2,0,B|392:184|440:208,1,75
472,144,126342,1,8
416,96,126556,1,0
344,88,126770,1,0
272,112,126985,2,0,B|240:144|256:184,2,75,0|8|0
224,56,127627,5,0
160,96,127842,1,0
152,168,128056,1,8
112,232,128270,1,0
88,304,128485,2,0,B|168:328|248:296,1,150,0|8
304,272,129127,1,0
304,272,129342,1,0
376,288,129556,2,0,B|456:224|456:160,1,150
320,104,130413,5,0
312,176,130627,1,8
248,208,130842,1,0
176,216,131056,1,0
104,232,131270,1,0
104,232,131485,1,8
56,296,131699,1,0
120,336,131913,5,0
192,336,132127,2,0,B|240:336|280:312,1,75,0|8
336,312,132556,2,0,B|376:328|416:312,1,75
440,248,132985,1,0
408,184,133199,1,8
368,120,133413,2,0,B|344:88|288:96,2,75
304,168,134056,1,8
232,160,134270,1,0
160,192,134485,6,0,B|168:248|120:272,1,75
64,264,134913,2,0,B|24:232|40:176,1,75,8|0
72,136,135342,1,0
72,136,135556,1,0
72,136,135770,2,0,B|144:152|176:144,2,75,8|0|0
80,208,136413,1,0
136,256,136627,2,0,B|184:312|296:336,1,150,8|0
320,272,137270,5,0
368,216,137485,1,8
320,152,137699,1,0
248,176,137913,1,0
184,208,138127,2,0,B|128:192|48:120,1,150
120,88,138770,1,4
256,312,139199,6,0,B|240:280|256:240,1,75,8|0
320,280,139627,2,0,B|352:296|392:280,1,75,0|0
352,216,140056,1,8
320,152,140270,2,0,B|352:136|392:152,1,75,0|0
464,152,140699,2,0,B|480:120|464:80,1,75,0|8
392,64,141127,2,0,B|351:80|319:64,1,75,0|0
248,80,141556,2,0,B|232:112|248:152,2,75,0|8|0
176,64,142199,5,0
104,64,142413,2,0,B|40:104,1,75,0|8
64,176,142842,2,0,B|128:136,1,75
152,208,143270,2,0,B|88:248,1,75,0|8
200,352,143699,2,0,B|160:288,1,75,0|0
312,352,144127,2,0,B|352:288,1,75,0|8
200,208,144556,2,0,B|136:166,1,75,0|0
320,208,144985,2,0,B|383:166,1,75,0|8
312,88,145413,1,0
424,88,145628,1,4
200,88,146056,6,0,B|112:88,2,75,8|0|0
256,32,146699,1,0
312,88,146913,1,8
312,160,147128,2,0,B|344:176|384:160,1,75,0|0
448,120,147556,2,0,B|464:160|448:192,1,75,0|8
448,264,147985,2,0,B|431:304|447:336,1,75,0|0
376,360,148413,1,0
304,336,148628,1,8
304,264,148842,6,0,B|376:120,1,150
400,64,149485,1,8
336,32,149699,2,0,B|268:166,1,150
232,232,150342,1,8
160,224,150556,6,0,B|120:200|56:240|8:208,1,150,2|2
56,152,151199,1,8
64,80,151413,2,2,B|80:32|168:32|184:80,1,150,2|2
184,152,152056,1,8
256,264,152270,1,2
336,152,152485,1,4
64,176,166628,5,8
136,176,166842,1,0
136,176,167056,2,0,B|136:256,2,75,0|0|8
208,176,167699,1,0
208,176,167913,2,0,B|208:80,2,75,0|0|8
208,248,168556,2,0,B|264:312|368:264,2,150
208,176,169628,1,0
280,152,169842,6,0,B|328:128|360:168,1,75,0|8
280,152,170270,2,0,B|296:200|272:240,1,75
280,152,170699,2,0,B|232:160|192:128,1,75,0|8
136,128,171128,2,0,B|104:216|136:280,2,150
208,144,172199,1,0
208,144,172413,2,0,B|280:176|384:168,1,150
368,240,173056,1,0
304,280,173270,5,0
232,280,173485,1,8
232,208,173699,1,0
168,248,173913,1,0
168,248,174128,2,0,B|96:216|88:128,2,150
216,184,175199,1,8
288,200,175413,1,0
320,264,175628,2,0,B|304:304|224:296,1,75
184,312,176056,2,0,B|144:320|96:280,1,75,8|0
104,216,176485,6,0,B|128:176|168:176,1,75
232,152,176913,1,8
304,176,177128,2,0,B|344:208|400:160,1,75
424,232,177556,1,0
376,288,177770,1,8
304,320,177985,6,0,B|216:320|136:288,2,150,2|2|2
304,248,179056,1,0
264,104,179270,1,2
384,200,179485,1,8
232,200,179699,1,2
352,104,179913,1,4
