osu file format v14

[General]
AudioFilename: 01 Divinity.mp3
AudioLeadIn: 800
PreviewTime: 19677
Countdown: 0
SampleSet: Soft
StackLeniency: 0.7
Mode: 0
LetterboxInBreaks: 0
EpilepsyWarning: 1
WidescreenStoryboard: 1

[Editor]
Bookmarks: 22339,64339,107672,169005,203672,235672,278339,299672,321005
DistanceSpacing: 1.4
BeatDivisor: 8
GridSize: 4
TimelineZoom: 2.099999

[Metadata]
Title:Divinity (feat. Amy Millan)
TitleUnicode:Divinity (feat. Amy Millan)
Artist:Porter Robinson
ArtistUnicode:Porter Robinson
Creator:VINXIS
Version:We Will Wait
Source:
Tags:Worlds synthwave Electronic Fort Collab Collaboration Marathon
BeatmapID:634479
BeatmapSetID:204453

[Difficulty]
HPDrainRate:6
CircleSize:4.3
OverallDifficulty:8.3
ApproachRate:9
SliderMultiplier:3.59999990463257
SliderTickRate:1

[Events]
//Background and Video events
0,0,"Screenshot-2014-02-10-13.05.59.jpg",0,0
//Break Periods
2,235877,256411
//Storyboard Layer 0 (Background)
//Storyboard Layer 1 (Fail)
//Storyboard Layer 2 (Pass)
//Storyboard Layer 3 (Foreground)
Sprite,Foreground,Centre,"sb/We.png",320,240 M,0,123672,124005,225,202,224,203
Sprite,Foreground,Centre,"sb/Wait.png",320,240 M,0,124672,125339,464,243
Sprite,Foreground,Centre,"sb/Will.png",320,240 M,0,124005,124672,406,135,405,137
Sprite,Foreground,Centre,"sb/For.png",320,240 M,0,125339,125672,320,168,320,167
Sprite,Foreground,Centre,"sb/This.png",320,240 M,0,125672,126339,180,350,177,350
Sprite,Foreground,Centre,"sb/We.png",320,240 M,0,126339,126672,321,187,318,187
Sprite,Foreground,Centre,"sb/Will.png",320,240 M,0,126672,126836,484,241 M,0,126836,,484,241 M,0,126836,127339,484,241,487,238
Sprite,Foreground,Centre,"sb/Wait.png",320,240 M,0,127339,128005,177,319
Sprite,Foreground,Centre,"sb/For.png",320,240 M,0,128005,128339,388,102,390,100
Sprite,Foreground,Centre,"sb/This.png",320,240 M,0,128339,129005,205,377,182,377 F,0,128339,129005,1 F,0,129005,129172,1,0
Sprite,Foreground,Centre,"sb/We.png",320,240 M,0,145005,145339,396,173,399,169
Sprite,Foreground,Centre,"sb/Will.png",320,240 M,0,145339,146005,139,180,143,180
Sprite,Foreground,Centre,"sb/Wait.png",320,240 M,0,146005,146672,302,207
Sprite,Foreground,Centre,"sb/For.png",320,240 M,0,146672,147005,436,282,438,279
Sprite,Foreground,Centre,"sb/This.png",320,240 M,0,147005,147672,371,343,360,352
Sprite,Foreground,Centre,"sb/We.png",320,240 M,0,147672,148005,338,130,343,124
Sprite,Foreground,Centre,"sb/Will.png",320,240 M,0,148005,148672,403,308,400,314
Sprite,Foreground,Centre,"sb/Wait.png",320,240 M,0,148672,149339,223,308
Sprite,Foreground,Centre,"sb/For.png",320,240 M,0,149339,149672,400,145,407,143
Sprite,Foreground,Centre,"sb/This.png",320,240 M,0,149672,150339,342,148,352,160 F,0,150344,150511,1,0
Sprite,Foreground,Centre,"sb/highlight.png",320,240 C,0,22339,,118,163,211 M,0,22339,22505,337,175,348,244 M,0,22505,22672,348,260,340,332
Sprite,Foreground,Centre,"sb/highlight.png",320,240 C,0,25005,,118,163,211 M,0,25005,25172,292,188,200,160
Sprite,Foreground,Centre,"sb/highlight.png",320,240 C,0,25339,,118,163,211 M,0,25339,25505,428,304,517,277
Sprite,Foreground,Centre,"sb/highlight.png",320,240 C,0,27672,,118,163,211 M,0,27672,27839,177,291,164,200
Sprite,Foreground,Centre,"sb/highlight.png",320,240 C,0,28005,,118,163,211 M,0,28005,28172,352,312,364,396
Sprite,Foreground,Centre,"sb/highlight.png",320,240 C,0,30339,,118,163,211 M,0,30339,30505,388,236,376,304
Sprite,Foreground,Centre,"sb/highlight.png",320,240 C,0,30672,,118,163,211 M,0,30672,30839,304,160,292,232
Sprite,Foreground,Centre,"sb/highlight.png",320,240 C,0,33005,,255,149,202 M,0,33005,33172,444,272,452,340
Sprite,Foreground,Centre,"sb/highlight.png",320,240 C,0,33339,,255,149,202 M,0,33339,33505,532,220,520,112
Sprite,Foreground,Centre,"sb/highlight.png",320,240 C,0,35672,,255,149,202 M,0,35672,35839,352,376,440,352
Sprite,Foreground,Centre,"sb/highlight.png",320,240 C,0,36005,,255,149,202 M,0,36005,36172,208,204,296,176
Sprite,Foreground,Centre,"sb/highlight.png",320,240 C,0,38339,,255,149,202 M,0,38339,38505,252,412,160,404
Sprite,Foreground,Centre,"sb/highlight.png",344,288 F,0,38677,38844,1,0 C,0,38677,38844,255,149,202
Sprite,Foreground,Centre,"sb/highlight.png",180,309 F,0,38844,39011,1,0 C,0,38844,39011,255,149,202
Sprite,Foreground,Centre,"sb/highlight.png",320,240 C,0,41005,,255,149,202 M,0,41005,41172,556,284,540,176
Sprite,Foreground,Centre,"sb/highlight.png",320,240 C,0,41339,,255,149,202 M,0,41339,41505,432,408,416,316
Sprite,Foreground,Centre,"sb/highlight.png",320,240 C,0,43672,,255,149,202 M,0,43672,43839,372,300,390,376
Sprite,Foreground,Centre,"sb/highlight.png",320,240 C,0,44005,,255,149,202 M,0,44005,44172,240,180,256,256
Sprite,Foreground,Centre,"sb/highlight.png",320,240 C,0,46339,,255,149,202 M,0,46339,46505,264,392,360,392
Sprite,Foreground,Centre,"sb/highlight.png",320,240 C,0,46672,,255,149,202 M,0,46672,46839,460,264,372,240
Sprite,Foreground,Centre,"sb/highlight.png",320,240 C,0,49005,,255,149,202 M,0,49005,49172,307,164,312,56
Sprite,Foreground,Centre,"sb/highlight.png",320,240 C,0,49339,,255,149,202 M,0,49339,49505,192,252,196,143
Sprite,Foreground,Centre,"sb/highlight.png",320,240 C,0,51672,,255,149,202 M,0,51672,51839,552,320,564,392
Sprite,Foreground,Centre,"sb/highlight.png",320,240 C,0,52005,,255,149,202 M,0,52005,52172,384,288,396,360
Sprite,Foreground,Centre,"sb/highlight.png",320,240 C,0,54339,,177,137,168 M,0,54339,54505,544,232,456,224
Sprite,Foreground,Centre,"sb/highlight.png",320,240 C,0,54672,,177,137,168 M,0,54672,54839,372,168,280,160
Sprite,Foreground,Centre,"sb/highlight.png",320,240 C,0,57005,,177,137,168 M,0,57005,57172,280,352,188,328
Sprite,Foreground,Centre,"sb/highlight.png",320,240 C,0,57339,,177,137,168 M,0,57339,57505,312,216,400,208
Sprite,Foreground,Centre,"sb/highlight.png",320,240 C,0,59672,,177,137,168 M,0,59672,59839,288,295,200,288
Sprite,Foreground,Centre,"sb/highlight.png",320,240 C,0,60005,,177,137,168 M,0,60005,60172,432,200,520,172
Sprite,Foreground,Centre,"sb/highlight.png",320,240 C,0,62339,,177,137,168 M,0,62339,62505,308,336,320,248
Sprite,Foreground,Centre,"sb/highlight.png",320,240 C,0,62672,,177,137,168 M,0,62672,62839,169,227,180,136
Sprite,Foreground,Centre,"sb/highlight.png",320,240 M,0,214005,,300,224 C,0,214005,,149,149,149 M,0,214172,,400,164 C,0,214172,,255,149,202 C,0,214339,,255,255,255
Sprite,Foreground,Centre,"sb/highlight.png",320,240 C,0,165672,166339,103,103,103,149,149,149 M,0,165672,169005,228,84,246,159 C,0,166339,167005,149,149,149,103,103,103 C,0,167005,167672,103,103,103,118,163,211 C,0,167672,168339,118,163,211,177,137,168 F,0,168672,169005,1,0
Sprite,Foreground,Centre,"sb/We.png",320,240 M,0,194672,195005,331,187,334,171
Sprite,Foreground,Centre,"sb/Will.png",320,240 M,0,195005,195672,320,240,328,255
Sprite,Foreground,Centre,"sb/Wait.png",320,240 M,0,195672,196339,320,240
Sprite,Foreground,Centre,"sb/For.png",320,240 M,0,196339,196672,320,240,330,234 M,0,196672,,330,234
Sprite,Foreground,Centre,"sb/This.png",320,240 M,0,196672,197672,320,240,300,250
Sprite,Foreground,Centre,"sb/We.png",320,240 M,0,200005,200339,311,240,305,246
Sprite,Foreground,Centre,"sb/Will.png",320,240 M,0,200339,201005,316,238,324,216
Sprite,Foreground,Centre,"sb/Wait.png",320,240 M,0,201005,201672,320,297
Sprite,Foreground,Centre,"sb/For.png",320,240 M,0,201672,202005,258,225,257,224
Sprite,Foreground,Centre,"sb/This.png",320,240 M,0,202005,203672,165,166,162,164
Sprite,Foreground,Centre,"sb/We.png",320,240 M,0,205339,205672,320,240,306,231
Sprite,Foreground,Centre,"sb/Will.png",320,240 M,0,205672,206339,320,240,328,230
Sprite,Foreground,Centre,"sb/Wait.png",320,240 M,0,206339,207005,440,100
Sprite,Foreground,Centre,"sb/For.png",320,240 M,0,207005,207339,547,307,539,315
Sprite,Foreground,Centre,"sb/This.png",320,240 M,0,207339,208339,258,249,244,251
Sprite,Foreground,Centre,"sb/ring.png",320,240 C,2,21672,,255,149,202 S,0,21672,21755,0.1,0.7207115 F,1,21672,22005,1,0 M,0,21755,,337,159 S,0,21755,21839,0.7207115,0.8286241 S,0,21839,21922,0.8286241,0.9473441 S,0,21922,22005,0.9473441,1
Sprite,Foreground,Centre,"sb/ring.png",320,240 C,2,171005,,255,149,202 S,0,171005,171088,0.1,0.7207115 F,1,171005,171338,1,0 S,0,171088,171172,0.7207115,0.8286241 M,0,171089,,320,248 S,0,171172,171255,0.8286241,0.9473441 S,0,171255,171338,0.9473441,1
Sprite,Foreground,Centre,"sb/ring.png",320,240 C,2,192339,,138,138,138 S,0,192339,192422,0.1,0.7207115 F,1,192339,192672,1,0 M,0,192422,,264,220 S,0,192422,192506,0.7207115,0.8286241 S,0,192506,192589,0.8286241,0.9473441 S,0,192589,192672,0.9473441,1
Sprite,Foreground,Centre,"sb/ring.png",320,240 C,2,192672,,138,138,138 S,0,192672,192755,0.1,0.7207115 F,1,192672,193005,1,0 M,0,192755,,404,276 S,0,192755,192839,0.7207115,0.8286241 S,0,192839,192922,0.8286241,0.9473441 S,0,192922,193005,0.9473441,1
Sprite,Foreground,Centre,"sb/ring.png",320,240 C,2,107672,,226,226,226 S,0,107672,107755,0.1,0.7207115 F,1,107672,108005,1,0 M,0,107755,,156,152 S,0,107755,107839,0.7207115,0.8286241 S,0,107839,107922,0.8286241,0.9473441 S,0,107922,108005,0.9473441,1
Sprite,Foreground,Centre,"sb/ring.png",320,240 C,2,113005,,177,137,168 S,0,113005,113088,0.1,0.7207115 F,1,113005,113338,1,0 S,0,113088,113172,0.7207115,0.8286241 M,0,113089,,376,216 S,0,113172,113255,0.8286241,0.9473441 S,0,113255,113338,0.9473441,1
Sprite,Foreground,Centre,"sb/ring.png",320,240 C,2,113171,,255,149,202 S,0,113171,113254,0.1,0.7207115 F,1,113171,113504,1,0 S,0,113254,113338,0.7207115,0.8286241 M,0,113255,,376,216 S,0,113338,113421,0.8286241,0.9473441 S,0,113421,113504,0.9473441,1
Sprite,Foreground,Centre,"sb/ring.png",320,240 C,2,118339,,255,149,202 S,0,118339,118422,0.1,0.7207115 F,1,118339,118672,1,0 M,0,118422,,468,372 S,0,118422,118506,0.7207115,0.8286241 S,0,118506,118589,0.8286241,0.9473441 S,0,118589,118672,0.9473441,1
Sprite,Foreground,Centre,"sb/ring.png",320,240 C,2,118505,,118,163,211 S,0,118505,118588,0.1,0.7207115 F,1,118505,118838,1,0 M,0,118588,,468,372 S,0,118588,118672,0.7207115,0.8286241 S,0,118672,118755,0.8286241,0.9473441 S,0,118755,118838,0.9473441,1
Sprite,Foreground,Centre,"sb/ring.png",320,240 C,2,129005,,149,149,149 S,0,129005,129088,0.1,0.7207115 F,1,129005,129338,1,0 S,0,129088,129172,0.7207115,0.8286241 M,0,129089,,280,192 S,0,129172,129255,0.8286241,0.9473441 S,0,129255,129338,0.9473441,1
Sprite,Foreground,Centre,"sb/ring.png",320,240 C,2,134339,,118,163,211 S,0,134339,134422,0.1,0.7207115 F,1,134339,134672,1,0 M,0,134422,,168,244 S,0,134422,134506,0.7207115,0.8286241 S,0,134506,134589,0.8286241,0.9473441 S,0,134589,134672,0.9473441,1
Sprite,Foreground,Centre,"sb/ring.png",320,240 C,2,134506,,177,137,168 S,0,134506,134589,0.1,0.7207115 F,1,134506,134839,1,0 M,0,134589,,168,244 S,0,134589,134673,0.7207115,0.8286241 S,0,134673,134756,0.8286241,0.9473441 S,0,134756,134839,0.9473441,1
Sprite,Foreground,Centre,"sb/ring.png",320,240 C,2,139672,,149,149,149 S,0,139672,139755,0.1,0.7207115 F,1,139672,140005,1,0 M,0,139755,,536,144 S,0,139755,139839,0.7207115,0.8286241 S,0,139839,139922,0.8286241,0.9473441 S,0,139922,140005,0.9473441,1
Sprite,Foreground,Centre,"sb/ring.png",320,240 C,2,214005,,149,149,149 S,0,214006,214089,0.1,0.7207115 F,1,214006,214339,1,0 M,0,214089,,300,224 S,0,214089,214173,0.7207115,0.8286241 S,0,214173,214256,0.8286241,0.9473441 S,0,214256,214339,0.9473441,1
Sprite,Foreground,Centre,"sb/ring.png",320,240 C,2,214172,,255,149,202 S,0,214172,214255,0.1,0.7207115 F,1,214172,214505,1,0 M,0,214255,,400,180 S,0,214255,214339,0.7207115,0.8286241 S,0,214339,214422,0.8286241,0.9473441 S,0,214422,214505,0.9473441,1
Sprite,Foreground,Centre,"sb/We.png",320,240 M,0,251672,252005,375,297,373,294
Sprite,Foreground,Centre,"sb/Will.png",320,240 M,0,252005,252672,244,141,237,142
Sprite,Foreground,Centre,"sb/Wait.png",320,240 M,0,252672,253339,267,228
Sprite,Foreground,Centre,"sb/For.png",320,240 M,0,253339,253672,374,270,374,276
Sprite,Foreground,Centre,"sb/This.png",320,240 M,0,253672,254339,278,380,275,382
Sprite,Foreground,Centre,"sb/We.png",320,240 M,0,301339,301672,427,208,422,208
Sprite,Foreground,Centre,"sb/Will.png",320,240 M,0,301672,302339,135,176,142,176
Sprite,Foreground,Centre,"sb/Wait.png",320,240 M,0,302339,303005,428,211
Sprite,Foreground,Centre,"sb/For.png",320,240 M,0,303005,303339,87,224,89,224
Sprite,Foreground,Centre,"sb/This.png",320,240 M,0,303339,304339,296,353,311,353
Sprite,Foreground,Centre,"sb/We.png",320,240 M,0,306672,307005,303,292,310,292 M,0,307005,,310,292
Sprite,Foreground,Centre,"sb/Will.png",320,240 M,0,307005,307672,437,247,437,241
Sprite,Foreground,Centre,"sb/Wait.png",320,240 M,0,307672,308339,177,306
Sprite,Foreground,Centre,"sb/For.png",320,240 M,0,308339,308672,193,205,190,205
Sprite,Foreground,Centre,"sb/This.png",320,240 M,0,308672,309672,441,109,444,120
Sprite,Foreground,Centre,"sb/We.png",320,240 M,0,312005,312339,320,240,314,239
Sprite,Foreground,Centre,"sb/Will.png",320,240 M,0,312339,313005,376,109,380,110
Sprite,Foreground,Centre,"sb/Wait.png",320,240 M,0,313005,313672,243,236
Sprite,Foreground,Centre,"sb/For.png",320,240 M,0,313672,314005,462,314,466,314
Sprite,Foreground,Centre,"sb/This.png",320,240 M,0,314005,315005,267,352,248,358
Sprite,Foreground,Centre,"sb/Lean into my side.png",320,240 M,0,109005,,211,180 S,0,109005,,0.5210324 F,0,109005,109672,0,1 M,0,109005,113172,211,180,316,180 F,0,109672,113005,1 F,0,113005,113172,1,0
Sprite,Foreground,Centre,"sb/Never felt alive.png",320,240 M,0,114339,,211,180 S,0,114339,,0.5210324 F,0,114339,115006,0,1 M,0,114339,118506,211,180,316,180 F,0,115006,118339,1 F,0,118339,118506,1,0
Sprite,Foreground,Centre,"sb/Call the chants inside.png",320,240 M,0,119672,,211,180 S,0,119672,,0.5210324 F,0,119672,120339,0,1 M,0,119672,123839,211,180,316,180 F,0,120339,123505,1 F,0,123505,123672,1,0 F,0,123672,,0
Sprite,Foreground,Centre,"sb/Lean into my side.png",320,240 M,0,130339,,211,180 S,0,130339,,0.5210324 F,0,130339,131006,0,1 M,0,130339,134506,211,180,316,180 F,0,131006,134339,1 F,0,134339,134506,1,0
Sprite,Foreground,Centre,"sb/Never felt alive.png",320,240 M,0,135672,,211,180 S,0,135672,,0.5210324 F,0,135672,136339,0,1 M,0,135672,139839,211,180,316,180 F,0,136339,139672,1 F,0,139672,139839,1,0
Sprite,Foreground,Centre,"sb/Call the chants inside.png",320,240 M,0,141005,,211,180 S,0,141005,,0.5210324 F,0,141005,141672,0,1 M,0,141005,145172,211,180,316,180 F,0,141672,144838,1 F,0,144838,145005,1,0 F,0,145005,,0
Sprite,Foreground,Centre,"sb/Lean into my side.png",320,240 M,0,151672,,211,180 S,0,151672,,0.5210324 F,0,151672,152339,0,1 M,0,151672,155839,211,180,316,180 F,0,152339,155672,1 F,0,155672,155839,1,0
Sprite,Foreground,Centre,"sb/Never felt alive.png",320,240 M,0,157005,,211,180 S,0,157005,,0.5210324 F,0,157005,157672,0,1 M,0,157005,161172,211,180,316,180 F,0,157672,161005,1 F,0,161005,161172,1,0
Sprite,Foreground,Centre,"sb/Call the chants inside.png",320,240 M,0,162339,,211,180 S,0,162339,,0.5210324 F,0,162339,163006,0,1 M,0,162339,166506,211,180,316,180 F,0,163006,,1 F,0,163006,166339,1 F,0,166339,166505,1,0
Sprite,Foreground,Centre,"sb/Lean into my side.png",320,240 M,0,237005,,211,180 S,0,237005,,0.5210324 F,0,237005,237672,0,1 M,0,237005,241172,211,180,316,180 F,0,237672,241005,1 F,0,241005,241172,1,0
Sprite,Foreground,Centre,"sb/Never felt alive.png",320,240 M,0,242339,,211,180 S,0,242339,,0.5210324 F,0,242339,243006,0,1 M,0,242339,246506,211,180,316,180 F,0,243006,246339,1 F,0,246339,246506,1,0
Sprite,Foreground,Centre,"sb/Call the chants inside.png",320,240 M,0,247672,,211,180 S,0,247672,,0.5210324 F,0,247672,248339,0,1 M,0,247672,251839,211,180,316,180 F,0,248339,251505,1 F,0,251505,251672,1,0 F,0,251672,,0
Sprite,Foreground,Centre,"sb/Lean into my side.png",320,240 M,0,258339,,211,180 S,0,258339,,0.5210324 F,0,258339,259006,0,1 M,0,258339,262506,211,180,316,180 F,0,259006,262339,1 F,0,262339,262506,1,0
Sprite,Foreground,Centre,"sb/Never felt alive.png",320,240 M,0,263672,,211,180 S,0,263672,,0.5210324 F,0,263672,264339,0,1 M,0,263672,267839,211,180,316,180 F,0,264339,267005,1 F,0,267005,267839,1,0
Sprite,Foreground,Centre,"sb/Call the chants inside.png",320,240 M,0,269005,,211,180 S,0,269005,,0.5210324 F,0,269005,269672,0,1 M,0,269005,273172,211,180,316,180 F,0,269672,273005,1,0 F,0,271005,273005,1,0
Sprite,Foreground,Centre,"sb/ring.png",320,240 C,2,277672,,255,149,202 S,0,277672,277755,0.1,0.7207115 F,1,277672,278005,1,0 M,0,277755,,320,244 S,0,277755,277839,0.7207115,0.8286241 S,0,277839,277922,0.8286241,0.9473441 S,0,277922,278005,0.9473441,1
Sprite,Foreground,Centre,"sb/ring.png",320,240 C,2,363672,,177,137,168 S,0,363672,363755,0.1,0.7207115 F,1,363672,364005,1,0 M,0,363755,,136,280 S,0,363755,363839,0.7207115,0.8286241 S,0,363839,363922,0.8286241,0.9473441 S,0,363922,364005,0.9473441,1
Sprite,Foreground,Centre,"sb/ring.png",320,240 C,2,363839,,177,137,168 S,0,363839,363922,0.1,0.7207115 F,1,363839,364172,1,0 M,0,363922,,136,280 S,0,363922,364006,0.7207115,0.8286241 S,0,364006,364089,0.8286241,0.9473441 S,0,364089,364172,0.9473441,1
Sprite,Foreground,Centre,"sb/Lean into my side.png",320,240 M,0,322339,,211,180 S,0,322339,,0.5210324 F,0,322339,323006,0,1 M,0,322339,326506,211,180,316,180 F,0,323006,326339,1 F,0,326339,326506,1,0
Sprite,Foreground,Centre,"sb/Never felt alive.png",320,240 M,0,327672,,211,180 S,0,327672,,0.5210324 F,0,327672,328339,0,1 M,0,327672,331839,211,180,316,180 F,0,328339,331672,1 F,0,331672,331839,1,0
Sprite,Foreground,Centre,"sb/Call the chants inside.png",320,240 M,0,333005,,211,180 S,0,333005,,0.5210324 F,0,333005,333672,0,1 M,0,333005,337172,211,180,316,180 F,0,333672,336838,1 F,0,336838,337005,1,0 F,0,337005,,0
Sprite,Foreground,Centre,"sb/Lean into my side.png",320,240 M,0,343672,,211,180 S,0,343672,,0.5210324 F,0,343672,344339,0,1 M,0,343672,347839,211,180,316,180 F,0,344339,347672,1 F,0,347672,347839,1,0
Sprite,Foreground,Centre,"sb/Never felt alive.png",320,240 M,0,349005,,211,180 S,0,349005,,0.5210324 F,0,349005,349672,0,1 M,0,349005,353172,211,180,316,180 F,0,349672,352339,1 F,0,352339,353172,1,0
Sprite,Foreground,Centre,"sb/Call the chants inside.png",320,240 M,0,354339,,211,180 S,0,354339,,0.5210324 F,0,354339,355006,0,1 M,0,354339,357672,211,180,294,180 F,0,355006,,1 F,0,355006,356339,1 F,0,356339,357672,1,0 M,0,357672,,294,180
Sprite,Foreground,Centre,"sb/You see.png",320,240 F,0,358005,359339,0,1 F,0,359339,360339,1 F,0,360339,360672,1,0
Sprite,Foreground,Centre,"sb/Right through me.png",320,240 F,0,360672,361672,0,1 F,0,361672,363672,1 F,0,363672,363839,1,0
Sprite,Foreground,Centre,"sb/We.png",320,240 M,0,254339,254672,229,122,237,124
Sprite,Foreground,Centre,"sb/Will.png",320,240 M,0,254672,255339,353,126,357,128
Sprite,Foreground,Centre,"sb/Wait.png",320,240 M,0,255339,256005,441,292
Sprite,Foreground,Centre,"sb/For.png",320,240 M,0,256005,257005,226,95,236,95 F,0,257011,257177,1,0
Sprite,Foreground,Centre,"sb/This.png",320,240 M,0,256339,257005,351,378,338,378 F,0,257011,257177,1,0
Sprite,Foreground,Centre,"sb/We.png",320,240 F,0,210672,211005,1,0
Sprite,Foreground,Centre,"sb/Will.png",320,240 F,0,211005,211672,1,0.0833548
Sprite,Foreground,Centre,"sb/highlight.png",320,240 F,0,274339,,0.5 M,0,274339,274422,468,252,473,271 M,0,274422,274505,473,271,468,291 M,0,274505,274589,468,291,459,310 M,0,274589,274672,459,310,457,331 M,0,274672,274755,457,331,449,327 M,0,274755,274839,449,327,437,343 M,0,274839,274922,437,343,424,360 M,0,274922,275005,424,360,411,375 C,0,274922,275005,255,255,255,118,163,211 M,0,275005,275089,411,375,395,381 C,0,275005,275255,118,163,211 M,0,275089,275172,395,381,376,377 M,0,275172,275255,376,377,355,376 M,0,275255,275339,355,376,335,377 C,0,275255,275339,118,163,211,177,137,168 M,0,275339,275422,335,377,315,381 M,0,275422,275505,315,381,295,388 M,0,275505,275589,295,388,277,395 M,0,275589,275672,277,395,261,435 M,0,275589,275672,277,395,261,435
Sprite,Foreground,Centre,"sb/Standard.png",320,240 S,0,27672,,0.3228389 M,0,27672,27755,795,401,550,401 M,1,27755,30255,550,401,500,401 M,0,30255,30338,500,401,0,401 F,0,30255,30338,1,0
Sprite,Foreground,Centre,"sb/VINXIS.png",320,240 M,0,1006,,140,110 S,0,1006,,0.7 F,0,1006,1339,0,1 F,0,1339,21672,1 F,2,21672,22339,1,0 F,0,22339,64339,0 F,0,64339,65005,0,1 F,0,65005,107672,1 F,1,107672,107839,1,0 F,0,107839,171672,0,0.0001434257 F,2,171672,171755,0.0001434257,1 F,0,171755,202339,1,0.9319916 F,2,202339,203672,0.9319916,0 F,0,203672,257011,0 F,0,257011,257677,0,0.9984746 F,0,257677,277672,0.9984746,0 F,0,275672,277672,0.9971468,0 F,0,277672,277755,0,1 F,0,277755,278339,1,0 F,0,278339,299672,0,0.001712329 F,0,299672,299755,0.001712329,1 F,0,299755,318339,1,0.9518898 F,2,318339,320339,0.9518898,0.4275027 F,1,320339,321005,0.4275027,0
Sprite,Foreground,Centre,"sb/Fort.png",320,240 M,0,22339,,140,110 S,0,22339,,0.7 F,0,22339,22422,0,1 F,0,22422,63005,1 F,2,63005,64339,1,0 F,0,64339,107672,0 F,2,107672,107839,0,1 F,0,107839,171005,1,0.9880598 F,2,171005,171672,0.9880598,0 F,0,171672,202339,0 F,2,202339,203672,0,1 F,0,203672,234672,1 F,0,234672,234755,1,0.6283872 F,0,234755,235172,0.6283872 F,0,235172,235255,0.6283872,0.3971614 F,0,235255,235589,0.3971614,0.3999473 F,0,235589,235672,0.3999473,0 F,0,235672,278339,0 F,0,278339,278422,0,1 F,0,278422,299005,1,0.9638554 F,0,299005,299172,0.9638554,0.3032102 F,0,299172,299339,0.3032102,1 F,0,299339,299672,1,0 F,0,299672,321005,0,0.006006006 F,1,321005,326339,0.006006006,1 F,0,326339,363672,1,0.9999995 F,0,363672,369339,0.9999995,0.03380592
Sprite,Foreground,Centre,"sb/highlight.png",320,240 C,0,214344,,118,163,211 M,0,214344,214427,532,392,488,384 F,0,214427,214511,1,0.25
Sprite,Foreground,Centre,"sb/highlight.png",320,240 C,0,214511,,118,163,211 M,0,214511,214594,456,308,412,316 F,0,214594,214678,1,0.25
Sprite,Foreground,Centre,"sb/highlight.png",320,240 C,0,214677,,118,163,211 M,0,214677,214760,380,388,336,380 F,0,214760,214844,1,0.25
Sprite,Foreground,Centre,"sb/highlight.png",320,240 C,0,214844,,118,163,211 M,0,214844,214927,296,312,252,320 F,0,214927,215011,1,0.25
Sprite,Foreground,Centre,"sb/highlight.png",320,240 C,0,215011,,118,163,211 M,0,215011,215094,180,376,168,328 F,0,215094,215178,1,0.25
Sprite,Foreground,Centre,"sb/highlight.png",320,240 C,0,215177,,118,163,211 M,0,215177,215260,92,260,100,212 F,0,215260,215344,1,0.25
Sprite,Foreground,Centre,"sb/highlight.png",320,240 C,0,215344,,118,163,211 M,0,215344,215427,184,144,172,100 M,0,215427,215511,172,100,184,144 M,0,215511,215594,184,144,172,100 F,0,215594,215677,1,0.25
Sprite,Foreground,Centre,"sb/highlight.png",168,76 C,0,215677,,168,123,158 F,0,215761,215844,1,0.25
Sprite,Foreground,Centre,"sb/highlight.png",320,232 C,0,215844,,168,123,158 F,0,215928,216011,1,0.25
Sprite,Foreground,Centre,"sb/highlight.png",320,240 C,0,216011,,168,123,158 M,0,216011,216094,372,136,324,124 F,0,216094,216178,1,0.25
Sprite,Foreground,Centre,"sb/highlight.png",320,240 C,0,216177,,168,123,158 M,0,216177,216260,456,228,408,218 F,0,216260,216344,1,0.25
Sprite,Foreground,Centre,"sb/highlight.png",320,240 C,0,216344,,168,123,158 M,0,216344,216511,548,344,460,324 F,0,216511,216677,1,0.25
Sprite,Foreground,Centre,"sb/highlight.png",320,240 C,0,216677,,168,123,158 M,0,216677,216844,372,384,284,364 F,0,216844,217011,1,0.25
Sprite,Foreground,Centre,"sb/highlight.png",320,240 C,0,219677,,255,149,202 M,0,219677,219760,492,112,448,127 F,0,219760,219844,1,0.25
Sprite,Foreground,Centre,"sb/highlight.png",320,240 C,0,219844,,255,149,202 M,0,219844,219927,400,188,357,182 F,0,219927,220011,1,0.25
Sprite,Foreground,Centre,"sb/highlight.png",320,240 C,0,220011,,255,149,202 M,0,220011,220094,312,116,268,130 F,0,220094,220178,1,0.25
Sprite,Foreground,Centre,"sb/highlight.png",320,240 C,0,220177,,255,149,202 M,0,220177,220260,232,200,187,176 F,0,220260,220344,1,0.25
Sprite,Foreground,Centre,"sb/highlight.png",320,240 C,0,220344,,118,163,211 M,0,220344,220427,108,244,102,287 F,0,220427,220511,1,0.25
Sprite,Foreground,Centre,"sb/highlight.png",320,240 C,0,220511,,118,163,211 M,0,220511,220594,192,308,186,352 F,0,220594,220678,1,0.25
Sprite,Foreground,Centre,"sb/highlight.png",320,240 C,0,220677,,118,163,211 M,0,220677,220761,296,276,290,317 M,0,220761,220844,290,317,296,276 M,0,220844,220927,296,276,290,317 F,0,220927,221011,1,0.25
Sprite,Foreground,Centre,"sb/highlight.png",292,352 C,0,221011,,168,123,158 F,0,221094,221177,1,0.25
Sprite,Foreground,Centre,"sb/highlight.png",396,324 C,0,221177,,168,123,158 F,0,221261,221344,1,0.25
Sprite,Foreground,Centre,"sb/highlight.png",320,240 C,0,221344,,168,123,158 M,0,221344,221427,492,372,537,370 F,0,221427,221511,1,0.25
Sprite,Foreground,Centre,"sb/highlight.png",320,240 C,0,221511,,168,123,158 M,0,221511,221594,416,296,464,293 F,0,221594,221678,1,0.25
Sprite,Foreground,Centre,"sb/highlight.png",320,240 C,0,221677,,168,123,158 M,0,221677,221844,352,208,441,203 F,0,221844,222011,1,0.25
Sprite,Foreground,Centre,"sb/highlight.png",320,240 C,0,222011,,168,123,158 M,0,222011,222177,480,100,390,108 F,0,222177,222344,1,0.25
Sprite,Foreground,Centre,"sb/highlight.png",320,240 C,0,225011,,255,149,202 M,0,225011,225094,260,124,256,168 F,0,225094,225178,1,0.25
Sprite,Foreground,Centre,"sb/highlight.png",320,240 C,0,225177,,255,149,202 M,0,225177,225260,296,240,182,256 F,0,225260,225344,1,0.25
Sprite,Foreground,Centre,"sb/highlight.png",320,240 C,0,225344,,255,149,202 M,0,225344,225427,172,236,164,280 F,0,225427,225511,1,0.25
Sprite,Foreground,Centre,"sb/highlight.png",320,240 C,0,225511,,255,149,202 M,0,225511,225594,228,332,208,376 F,0,225594,225678,1,0.25
Sprite,Foreground,Centre,"sb/highlight.png",320,240 C,0,225677,,118,163,211 M,0,225677,225760,292,384,336,392 F,0,225760,225844,1,0.25
Sprite,Foreground,Centre,"sb/highlight.png",320,240 C,0,225844,,118,163,211 M,0,225844,225927,408,312,436,344 F,0,225927,226011,1,0.25
Sprite,Foreground,Centre,"sb/highlight.png",320,240 C,0,226011,,118,163,211 M,0,226011,226094,536,304,544,346 M,0,226094,226177,544,346,536,304 M,0,226177,226261,536,304,544,346 F,0,226261,226344,1,0.25
Sprite,Foreground,Centre,"sb/highlight.png",544,368 C,0,226344,,118,163,211 F,0,226344,226511,1,0.25
Sprite,Foreground,Centre,"sb/highlight.png",480,220 C,0,226511,,118,163,211 F,0,226511,226677,1,0.25
Sprite,Foreground,Centre,"sb/highlight.png",320,240 C,0,226677,,118,163,211 M,0,226677,226761,484,112,528,118 F,0,226761,226844,1,0.25
Sprite,Foreground,Centre,"sb/highlight.png",320,240 C,0,226844,,118,163,211 M,0,226844,226927,368,172,412,166 F,0,226927,227011,1,0.25
Sprite,Foreground,Centre,"sb/highlight.png",320,240 C,0,227011,,118,163,211 M,0,227011,227177,232,88,321,94 F,0,227177,227344,1,0.25
Sprite,Foreground,Centre,"sb/highlight.png",320,240 C,0,227344,,118,163,211 M,0,227344,227511,336,296,426,302 F,0,227511,227677,1,0.25
Sprite,Foreground,Centre,"sb/highlight.png",320,240 C,0,230344,,168,123,158 M,0,230344,230427,460,368,439,326 F,0,230427,230511,1,0.25
Sprite,Foreground,Centre,"sb/highlight.png",320,240 C,0,230511,,168,123,158 M,0,230511,230594,512,288,511,244 F,0,230594,230678,1,0.25
Sprite,Foreground,Centre,"sb/highlight.png",320,240 C,0,230677,,168,123,158 M,0,230677,230760,428,244,417,200 F,0,230760,230844,1,0.25
Sprite,Foreground,Centre,"sb/highlight.png",320,240 C,0,230844,,168,123,158 M,0,230844,230927,488,160,494,115 F,0,230927,231011,1,0.25
Sprite,Foreground,Centre,"sb/highlight.png",320,240 C,0,231011,,168,123,158 M,0,231011,231094,424,80,380,86 F,0,231094,231178,1,0.25
Sprite,Foreground,Centre,"sb/highlight.png",320,240 C,0,231177,,168,123,158 M,0,231177,231260,308,168,264,164 F,0,231260,231344,1,0.25
Sprite,Foreground,Centre,"sb/highlight.png",320,240 C,0,231344,,168,123,158 M,0,231344,231427,168,112,123,117 M,0,231427,231511,123,117,168,112 M,0,231511,231594,168,112,123,117 F,0,231594,231677,1,0.25
Sprite,Foreground,Centre,"sb/highlight.png",112,132 C,0,231677,,255,149,202 F,0,231677,231843,1,0.25
Sprite,Foreground,Centre,"sb/highlight.png",224,252 C,0,231844,,255,149,202 F,0,231844,232010,1,0.25
Sprite,Foreground,Centre,"sb/highlight.png",320,240 C,0,232011,,255,149,202 M,0,232011,232094,120,224,74,228 F,0,232094,232178,1,0.25
Sprite,Foreground,Centre,"sb/highlight.png",320,240 C,0,232177,,255,149,202 M,0,232177,232260,204,336,159,334 F,0,232260,232344,1,0.25
Sprite,Foreground,Centre,"sb/highlight.png",320,240 C,0,232344,,255,149,202 M,0,232344,232510,328,252,240,264 F,0,232510,232677,1,0.25
Sprite,Foreground,Centre,"sb/highlight.png",320,240 C,0,232677,,255,149,202 M,0,232677,232843,312,344,400,334 F,0,232843,233010,1,0.25
//Storyboard Sound Samples

[TimingPoints]
1011,666.666666666667,4,2,1,34,1,0
1011,-133.333333333333,4,2,1,34,0,0
17011,-133.333333333333,4,2,1,40,0,0
22344,-100,4,2,1,100,0,0
43177,-100,4,2,1,56,0,0
43677,-100,4,2,1,100,0,0
47010,-100,4,2,1,86,0,0
52344,-100,4,2,3,45,0,0
53677,-100,4,2,1,100,0,0
53760,-100,4,2,1,56,0,0
54344,-100,4,2,1,100,0,0
64344,-142.857142857143,4,2,1,16,0,0
65011,-142.857142857143,4,2,1,26,0,0
105010,-142.857142857143,4,2,1,31,0,0
106010,-142.857142857143,4,2,1,35,0,0
107010,-142.857142857143,4,2,1,37,0,0
107677,-200,4,2,1,86,0,0
107761,-200,4,2,1,49,0,0
113010,-200,4,2,1,86,0,0
113344,-200,4,2,1,49,0,0
118344,-200,4,2,1,86,0,0
118677,-200,4,2,1,49,0,0
123677,-200,4,2,1,86,0,0
123844,-200,4,2,1,49,0,0
126677,-200,4,2,1,86,0,0
126844,-200,4,2,1,49,0,0
128010,-200,4,2,1,55,0,0
129010,-200,4,2,1,86,0,0
129344,-200,4,2,1,74,0,0
134344,-200,4,2,1,86,0,0
134677,-200,4,2,1,74,0,0
145010,-200,4,2,1,86,0,0
145177,-200,4,2,1,74,0,0
151677,-200,4,2,1,73,0,0
152010,-200,4,2,1,70,0,0
152344,-200,4,2,1,69,0,0
152677,-200,4,2,1,68,0,0
153010,-200,4,2,1,66,0,0
153344,-200,4,2,1,64,0,0
153677,-200,4,2,1,63,0,0
154010,-200,4,2,1,62,0,0
154344,-200,4,2,1,61,0,0
154677,-200,4,2,1,59,0,0
155010,-200,4,2,1,57,0,0
155344,-200,4,2,1,56,0,0
155677,-200,4,2,1,54,0,0
157010,-200,4,2,1,53,0,0
158344,-200,4,2,1,52,0,0
159010,-200,4,2,1,51,0,0
159677,-200,4,2,1,50,0,0
161010,-200,4,2,1,49,0,0
161344,-200,4,2,1,54,0,0
161677,-200,4,2,1,58,0,0
162010,-200,4,2,1,62,0,0
162344,-200,4,2,1,65,0,0
162677,-200,4,2,1,68,0,0
163010,-200,4,2,1,71,0,0
163344,-200,4,2,1,74,0,0
166344,-133.333333333333,4,2,1,77,0,0
166677,-133.333333333333,4,2,1,80,0,0
167010,-133.333333333333,4,2,1,83,0,0
167677,-133.333333333333,4,2,1,86,0,0
167760,-133.333333333333,4,2,1,83,0,0
168010,-133.333333333333,4,2,1,86,0,0
168094,-133.333333333333,4,2,1,83,0,0
168344,-133.333333333333,4,2,1,86,0,0
168427,-133.333333333333,4,2,1,83,0,0
168677,-133.333333333333,4,2,1,86,0,0
169011,-133.333333333333,4,2,1,25,0,0
169677,-133.333333333333,4,2,1,40,0,0
170344,-133.333333333333,4,2,1,85,0,0
171010,-100,4,2,1,100,0,0
171677,-100,4,2,1,70,0,1
171760,-100,4,2,1,100,0,1
190344,-100,4,2,3,22,0,0
192344,-200,4,2,1,22,0,0
193011,-100,4,2,1,100,0,1
211677,-100,4,2,3,100,0,0
214344,-100,4,2,1,100,0,1
214427,-100,4,2,1,5,0,1
214511,-100,4,2,1,100,0,1
214594,-100,4,2,1,5,0,1
214677,-100,4,2,1,100,0,1
214761,-100,4,2,1,5,0,1
214844,-100,4,2,1,100,0,1
214927,-100,4,2,1,5,0,1
215011,-100,4,2,1,100,0,1
215094,-100,4,2,1,5,0,1
215177,-100,4,2,1,100,0,1
215427,-100,4,2,1,5,0,1
215511,-100,4,2,1,100,0,1
215594,-100,4,2,1,5,0,1
215677,-100,4,2,1,100,0,1
216094,-100,4,2,1,5,0,1
216177,-100,4,2,1,100,0,1
216261,-100,4,2,1,5,0,1
216344,-100,4,2,1,100,0,1
219677,-100,4,2,1,100,0,1
219761,-100,4,2,1,5,0,1
219844,-100,4,2,1,100,0,1
219927,-100,4,2,1,5,0,1
220011,-100,4,2,1,100,0,1
220094,-100,4,2,1,5,0,1
220177,-100,4,2,1,100,0,1
220261,-100,4,2,1,5,0,1
220344,-100,4,2,1,100,0,1
220427,-100,4,2,1,5,0,1
220511,-100,4,2,1,100,0,1
220761,-100,4,2,1,5,0,1
220844,-100,4,2,1,100,0,1
220927,-100,4,2,1,5,0,1
221011,-100,4,2,1,100,0,1
221427,-100,4,2,1,5,0,1
221511,-100,4,2,1,100,0,1
221594,-100,4,2,1,5,0,1
221677,-100,4,2,1,100,0,1
225094,-100,4,2,1,5,0,1
225177,-100,4,2,1,100,0,1
225261,-100,4,2,1,5,0,1
225344,-100,4,2,1,100,0,1
225427,-100,4,2,1,5,0,1
225511,-100,4,2,1,100,0,1
225594,-100,4,2,1,5,0,1
225677,-100,4,2,1,100,0,1
225761,-100,4,2,1,5,0,1
225844,-100,4,2,1,100,0,1
226094,-100,4,2,1,5,0,1
226177,-100,4,2,1,100,0,1
226261,-100,4,2,1,5,0,1
226344,-100,4,2,1,100,0,1
226761,-100,4,2,1,5,0,1
226844,-100,4,2,1,100,0,1
226927,-100,4,2,1,5,0,1
227011,-100,4,2,1,100,0,1
230344,-100,4,2,1,100,0,1
230427,-100,4,2,1,5,0,1
230511,-100,4,2,1,100,0,1
230594,-100,4,2,1,5,0,1
230677,-100,4,2,1,100,0,1
230761,-100,4,2,1,5,0,1
230844,-100,4,2,1,100,0,1
230927,-100,4,2,1,5,0,1
231011,-100,4,2,1,100,0,1
231094,-100,4,2,1,5,0,1
231177,-100,4,2,1,100,0,1
231427,-100,4,2,1,5,0,1
231511,-100,4,2,1,100,0,1
231594,-100,4,2,1,5,0,1
231677,-100,4,2,1,100,0,1
232094,-100,4,2,1,5,0,1
232177,-100,4,2,1,100,0,1
232261,-100,4,2,1,5,0,1
232344,-100,4,2,1,100,0,1
233010,-100,4,2,3,97,0,1
233344,-100,4,2,3,94,0,1
233677,-100,4,2,3,91,0,1
234010,-100,4,2,3,86,0,1
234344,-100,4,2,3,83,0,1
234677,-100,4,2,3,79,0,1
235010,-100,4,2,3,77,0,1
235344,-100,4,2,1,75,0,1
235677,-200,4,2,1,43,0,0
257010,-200,4,2,1,86,0,0
261677,-200,4,2,1,92,0,0
262010,-200,4,2,1,97,0,0
262344,-200,4,2,1,100,0,0
263010,-200,4,2,1,97,0,0
263677,-200,4,2,1,92,0,0
264344,-200,4,2,1,86,0,0
267677,-200,4,2,1,89,0,0
273010,-133.333333333333,4,2,1,91,0,0
273344,-133.333333333333,4,2,1,92,0,0
273677,-133.333333333333,4,2,1,93,0,0
274010,-133.333333333333,4,2,1,94,0,0
274344,-100,4,2,1,95,0,0
274677,-100,4,2,1,96,0,0
275010,-100,4,2,1,98,0,0
275344,-100,4,2,1,99,0,0
275677,-100,4,2,1,30,0,0
275844,-100,4,2,1,35,0,0
276011,-100,4,2,1,40,0,0
276177,-100,4,2,1,45,0,0
276344,-100,4,2,1,50,0,0
276511,-100,4,2,1,55,0,0
276677,-100,4,2,1,60,0,0
276844,-100,4,2,1,65,0,0
277011,-100,4,2,1,70,0,0
277177,-100,4,2,1,79,0,0
277344,-100,4,2,1,88,0,0
277511,-100,4,2,1,97,0,0
277677,-100,4,2,1,100,0,0
278344,-100,4,2,1,70,0,1
278427,-100,4,2,1,100,0,1
318344,-83.3333333333333,4,2,3,73,0,1
320344,-200,4,2,1,40,0,0
321010,-200,4,2,1,40,0,0
337010,-200,4,2,1,40,0,0
337344,-200,4,2,1,39,0,0
337677,-200,4,2,1,38,0,0
338010,-200,4,2,1,37,0,0
338344,-200,4,2,1,36,0,0
338677,-200,4,2,1,35,0,0
339010,-200,4,2,1,34,0,0
339344,-200,4,2,1,33,0,0
339677,-200,4,2,1,32,0,0
340010,-200,4,2,1,31,0,0
340344,-200,4,2,1,30,0,0
340677,-200,4,2,1,29,0,0
341010,-200,4,2,1,28,0,0
341344,-200,4,2,1,27,0,0
341677,-200,4,2,1,26,0,0
342010,-200,4,2,1,25,0,0
342344,-200,4,2,1,24,0,0
343677,-200,4,2,1,23,0,0
359344,-200,4,2,1,19,0,0
359510,-200,4,2,1,23,0,0
361677,-200,4,2,1,19,0,0
365011,-200,4,2,1,13,0,0
365844,-200,4,2,1,8,0,0
366677,-200,4,2,1,5,0,0

[Colours]
Combo1 : 111,111,111
Combo2 : 118,163,211
Combo3 : 168,123,158
Combo4 : 255,149,202
Combo5 : 230,230,230
Combo6 : 164,164,164

[HitObjects]
16,172,1011,54,0,P|56:172|92:156,1,67.5000007867814,2|0,0:0|0:0,0:0:0:0:
142,106,1344,1,0,0:0:0:0:
204,220,1677,2,0,P|212:272|204:296,1,67.5000007867813
132,260,2011,2,0,P|136:184|192:132,1,135.000001573563
232,88,2511,5,0,2:0:0:0:
296,136,2677,1,0,0:0:0:0:
364,92,2844,2,0,P|380:140|356:240,1,135.000001573563
324,292,3344,1,0,0:0:0:0:
252,324,3511,1,0,0:0:0:0:
152,264,3677,6,0,P|212:240|256:180,1,135.000001573563,2|0,0:0|0:0,0:0:0:0:
344,60,4344,1,0,0:0:0:0:
344,60,4511,1,0,0:0:0:0:
344,60,4677,2,0,P|376:116|392:196,1,135.000001573563
388,280,5177,1,0,0:0:0:0:
308,228,5344,1,0,0:0:0:0:
228,280,5511,2,0,P|196:224|188:84,1,202.500002360344
208,56,6094,1,0,0:0:0:0:
244,40,6177,1,0,0:0:0:0:
284,40,6261,1,0,0:0:0:0:
324,48,6344,54,0,P|392:88|436:144,1,135.000001573563,2|0,0:0|0:0,0:0:0:0:
292,292,7011,2,0,B|300:348|332:372,1,67.5000007867813
376,300,7344,2,0,P|356:252|276:196,1,135.000001573563
212,212,7844,1,0,0:0:0:0:
160,268,8011,1,0,0:0:0:0:
84,296,8177,2,0,P|44:244|64:156,1,135.000001573563
108,124,8677,1,0,0:0:0:0:
212,208,8844,1,0,0:0:0:0:
256,52,9011,21,2,0:0:0:0:
40,72,9344,1,2,0:0:0:0:
212,204,9677,1,0,0:0:0:0:
304,148,9844,1,0,0:0:0:0:
256,52,10011,2,0,P|192:20|112:36,1,135.000001573563,2|0,0:0|0:0,0:0:0:0:
192,112,10511,2,0,P|244:136|280:136,1,67.5000007867813
336,96,10844,2,0,P|392:156|376:268,1,202.500002360344,2|0,0:0|0:0,0:0:0:0:
344,304,11427,1,0,0:0:0:0:
304,328,11511,1,0,0:0:0:0:
256,332,11594,1,0,0:0:0:0:
212,316,11677,54,0,P|172:272|132:192,1,135.000001573563,2|0,0:0|0:0,0:0:0:0:
288,160,12344,2,0,P|344:176|380:176,1,67.5000007867813
344,68,12677,2,0,P|280:40|192:64,1,135.000001573563
120,92,13177,1,0,0:0:0:0:
56,180,13344,1,0,0:0:0:0:
116,268,13511,2,0,P|180:296|268:272,1,135.000001573563
388,140,14011,1,0,0:0:0:0:
388,140,14177,1,0,0:0:0:0:
388,140,14344,6,0,P|321:131|261:158,1,135.000001573563,2|0,0:0|0:0,0:0:0:0:
104,308,15011,2,0,P|73:323|41:332,1,67.5000007867813
72,228,15344,2,0,P|120:220|212:248,1,135.000001573563
292,300,15844,5,0,0:0:0:0:
360,216,16011,1,0,0:0:0:0:
288,136,16177,2,0,P|246:113|114:177,1,202.500002360344
96,208,16761,1,0,0:0:0:0:
91,250,16844,1,0,0:0:0:0:
116,284,16927,1,0,0:0:0:0:
148,312,17011,54,0,P|220:320|288:308,1,135.000001573563,2|0,0:0|0:0,0:0:0:0:
384,272,17511,1,0,0:0:0:0:
460,204,17677,2,0,P|468:164|468:128,1,67.5000007867813
436,32,18011,2,0,P|364:24|296:36,1,135.000001573563
200,124,18511,1,0,0:0:0:0:
208,260,18677,1,0,0:0:0:0:
324,188,18844,2,0,L|404:188,1,67.5000007867814
488,140,19177,1,0,0:0:0:0:
396,72,19344,1,0,0:0:0:0:
324,188,19511,1,0,0:0:0:0:
288,52,19677,6,0,P|228:32|144:48,1,135.000001573563,2|0,0:0|0:0,0:0:0:0:
60,116,20177,1,0,0:0:0:0:
160,184,20344,1,0,0:0:0:0:
92,284,20511,1,0,0:0:0:0:
212,260,20677,1,0,0:0:0:0:
244,376,20844,1,0,0:0:0:0:
312,276,21011,2,0,P|340:220|344:200,1,67.5000007867813
180,224,21344,2,0,P|162:253|152:285,1,67.5000007867813
273,103,21677,53,0,3:0:0:0:
273,103,22344,54,0,P|288:168|260:320,1,179.999995231628,0|0,1:2|0:0,0:0:0:0:
176,324,22844,1,2,0:0:0:0:
92,256,23011,1,8,0:0:0:0:
184,344,23177,1,0,0:0:0:0:
120,136,23344,1,0,0:0:0:0:
80,232,23511,6,0,P|128:240|180:220,1,89.9999976158142,2|0,0:0|0:0,0:0:0:0:
296,308,23844,1,2,0:0:0:0:
336,152,24011,1,2,0:0:0:0:
324,304,24177,1,2,0:0:0:0:
276,208,24344,5,8,0:0:0:0:
424,52,24511,1,0,0:0:0:0:
432,68,24677,1,0,0:0:0:0:
440,84,24844,1,2,0:0:0:0:
228,116,25011,54,0,L|128:104,1,89.9999976158142,6|0,0:0|0:0,0:0:0:0:
364,232,25344,2,0,L|453:221,1,89.9999976158142,2|0,0:0|0:0,0:0:0:0:
236,220,25677,1,8,0:0:0:0:
308,300,25844,1,0,0:0:0:0:
320,140,26011,1,2,0:0:0:0:
292,284,26177,6,0,L|316:372,1,89.9999976158142,2|0,0:0|0:0,0:0:0:0:
364,216,26511,1,2,0:0:0:0:
204,204,26677,1,2,0:0:0:0:
404,128,26844,1,0,0:0:0:0:
276,272,27011,5,8,0:0:0:0:
200,120,27177,1,0,0:0:0:0:
106,289,27344,1,0,0:0:0:0:
108,275,27427,1,0,0:0:0:0:
110,262,27510,1,0,0:0:0:0:
112,248,27593,1,0,0:0:0:0:
113,235,27677,54,0,L|97:131,1,89.9999976158142,6|0,0:0|0:0,0:0:0:0:
288,256,28011,2,0,L|304:360,1,89.9999976158142,2|0,0:0|0:0,0:0:0:0:
192,360,28344,1,8,0:0:0:0:
300,240,28511,1,0,0:0:0:0:
196,208,28677,1,2,0:0:0:0:
396,288,28844,5,2,0:0:0:0:
308,152,29011,1,0,0:0:0:0:
412,276,29177,1,2,0:0:0:0:
420,168,29344,1,2,0:0:0:0:
400,64,29511,1,0,0:0:0:0:
492,260,29677,5,8,0:0:0:0:
288,64,29844,1,0,0:0:0:0:
272,72,30011,1,0,0:0:0:0:
256,80,30177,1,2,0:0:0:0:
324,164,30344,54,0,L|312:264,1,89.9999976158142,6|0,0:0|0:0,0:0:0:0:
240,88,30677,2,0,L|228:188,1,89.9999976158142,2|0,0:0|0:0,0:0:0:0:
156,260,31011,1,8,0:0:0:0:
56,224,31177,1,0,0:0:0:0:
184,240,31344,1,2,0:0:0:0:
132,144,31511,6,0,B|100:88|100:88|96:44,1,89.9999976158143,2|0,0:0|0:0,0:0:0:0:
268,304,31844,1,2,0:0:0:0:
60,240,32011,1,2,0:0:0:0:
380,200,32344,1,8,0:0:0:0:
380,200,33011,6,0,P|392:268|384:304,1,89.9999976158142,4|0,0:0|0:0,0:0:0:0:
468,148,33344,2,0,P|456:80|464:44,1,89.9999976158142,2|0,0:0|0:0,0:0:0:0:
360,188,33677,1,8,0:0:0:0:
464,164,33844,1,0,0:0:0:0:
248,136,34011,1,2,0:0:0:0:
280,32,34177,54,0,P|320:64|376:72,1,89.9999976158142,2|0,0:0|0:0,0:0:0:0:
272,140,34511,1,2,0:0:0:0:
192,212,34677,1,2,0:0:0:0:
88,184,34844,1,0,0:0:0:0:
280,280,35011,5,8,0:0:0:0:
152,64,35177,1,0,0:0:0:0:
150,86,35344,1,0,0:0:0:0:
148,108,35511,1,2,0:0:0:0:
288,304,35677,6,0,L|392:296,1,89.9999976158142,6|0,0:0|0:0,0:0:0:0:
144,132,36011,2,0,L|248:124,1,89.9999976158142,2|0,0:0|0:0,0:0:0:0:
340,136,36344,1,8,0:0:0:0:
272,284,36511,1,0,0:0:0:0:
296,68,36677,1,2,0:0:0:0:
356,220,36844,53,2,0:0:0:0:
244,144,37011,1,0,0:0:0:0:
460,176,37177,1,2,0:0:0:0:
368,236,37344,1,2,0:0:0:0:
260,240,37511,1,0,0:0:0:0:
400,320,37677,5,8,0:0:0:0:
264,152,37844,1,0,0:0:0:0:
144,332,38011,1,2,0:0:0:0:
155,334,38094,1,2,0:0:0:0:
166,336,38177,1,2,0:0:0:0:
177,338,38261,1,2,0:0:0:0:
188,340,38344,6,0,L|76:352,1,89.9999976158142,6|0,0:0|0:0,0:0:0:0:
280,232,38677,1,2,0:0:0:0:
116,253,38844,1,0,0:0:0:0:
264,308,39011,1,8,0:0:0:0:
156,160,39177,1,0,0:0:0:0:
280,336,39344,1,2,0:0:0:0:
356,192,39511,53,2,0:0:0:0:
196,172,39677,1,0,0:0:0:0:
384,280,39844,1,2,0:0:0:0:
384,172,40011,1,2,0:0:0:0:
300,108,40177,1,0,0:0:0:0:
476,228,40344,5,8,0:0:0:0:
392,40,40511,1,0,0:0:0:0:
388,62,40677,1,0,0:0:0:0:
385,84,40844,1,2,0:0:0:0:
492,212,41011,6,0,L|476:120,1,89.9999976158142,6|0,0:0|0:0,0:0:0:0:
368,352,41344,2,0,L|352:260,1,89.9999976158142,2|0,0:0|0:0,0:0:0:0:
304,60,41677,1,8,0:0:0:0:
412,180,41844,1,0,0:0:0:0:
308,148,42011,1,2,0:0:0:0:
400,92,42177,1,2,0:0:0:0:
332,296,42344,53,0,0:0:0:0:
168,156,42511,1,2,0:0:0:0:
169,144,42677,1,2,0:0:0:0:
170,133,42844,1,2,0:0:0:0:
171,122,43011,5,8,0:0:0:0:
92,196,43177,1,2,0:0:0:0:
132,296,43344,2,0,L|224:292,1,89.9999976158142,2|0,0:0|0:0,0:0:0:0:
308,228,43677,6,0,L|324:320,1,89.9999976158142,6|0,0:0|0:0,0:0:0:0:
176,108,44011,2,0,L|192:200,1,89.9999976158142,2|0,0:0|0:0,0:0:0:0:
276,124,44344,1,8,0:0:0:0:
140,36,44511,1,0,0:0:0:0:
268,136,44677,1,2,0:0:0:0:
160,120,44844,53,2,0:0:0:0:
372,88,45011,1,0,0:0:0:0:
300,232,45177,1,2,0:0:0:0:
292,40,45344,1,2,0:0:0:0:
384,100,45511,1,0,0:0:0:0:
216,64,45677,5,8,0:0:0:0:
388,264,45844,1,0,0:0:0:0:
389,241,46011,1,0,0:0:0:0:
391,219,46177,1,2,0:0:0:0:
200,320,46344,6,0,P|272:320|308:348,1,89.9999976158142,6|0,0:0|0:0,0:0:0:0:
395,192,46677,2,0,P|323:192|287:164,1,89.9999976158142,2|0,0:0|0:0,0:0:0:0:
456,328,47011,1,8,0:0:0:0:
359,118,47177,1,0,0:0:0:0:
476,236,47344,1,2,0:0:0:0:
256,240,47511,53,0,0:0:0:0:
356,280,47677,1,0,0:0:0:0:
240,216,47844,1,2,0:0:0:0:
380,264,48011,2,0,L|368:368,1,89.9999976158142,2|0,0:0|0:0,0:0:0:0:
324,192,48344,5,8,0:0:0:0:
176,256,48511,1,2,0:0:0:0:
264,68,48677,1,2,0:0:0:0:
265,79,48761,1,2,0:0:0:0:
267,90,48844,1,2,0:0:0:0:
269,101,48927,1,2,0:0:0:0:
271,112,49011,6,0,L|276:20,1,89.9999976158142,6|0,0:0|0:0,0:0:0:0:
128,180,49344,2,0,L|132:87,1,89.9999976158142,2|0,0:0|0:0,0:0:0:0:
208,168,49677,1,8,0:0:0:0:
108,204,49844,1,0,0:0:0:0:
324,224,50011,1,2,0:0:0:0:
344,116,50177,53,2,0:0:0:0:
240,240,50344,1,0,0:0:0:0:
400,204,50511,1,2,0:0:0:0:
384,96,50677,1,2,0:0:0:0:
296,36,50844,1,0,0:0:0:0:
480,148,51011,5,8,0:0:0:0:
400,316,51177,1,0,0:0:0:0:
377,312,51344,1,0,0:0:0:0:
355,309,51511,1,2,0:0:0:0:
488,248,51677,6,0,L|504:356,1,89.9999976158142,6|0,0:0|0:0,0:0:0:0:
320,216,52011,2,0,L|336:324,1,89.9999976158142,2|0,0:0|0:0,0:0:0:0:
196,220,52344,1,0,0:0:0:0:
197,211,52427,1,0,0:0:0:0:
199,203,52510,1,0,0:0:0:0:
200,194,52594,1,0,0:0:0:0:
202,186,52677,2,0,L|144:176,3,44.9999988079071
276,104,53011,54,0,L|368:120,3,59.9999984105428
116,76,53511,1,0,0:0:0:0:
288,192,53677,1,8,0:0:0:0:
288,192,54011,2,0,L|280:260,1,44.9999976158143,2|0,0:0|0:0,0:0:0:0:
376,256,54177,2,0,L|368:324,1,44.9999976158143,2|0,0:0|0:0,0:0:0:0:
480,160,54344,6,0,L|384:168,1,89.9999976158142,6|0,0:0|0:0,0:0:0:0:
308,96,54677,2,0,L|212:104,1,89.9999976158142,2|0,0:0|0:0,0:0:0:0:
116,72,55011,1,8,0:0:0:0:
196,212,55177,1,0,0:0:0:0:
336,48,55344,1,2,0:0:0:0:
212,224,55511,5,2,0:0:0:0:
316,192,55677,1,0,0:0:0:0:
128,84,55844,1,2,0:0:0:0:
156,188,56011,1,2,0:0:0:0:
132,292,56177,1,2,0:0:0:0:
64,208,56344,53,8,0:0:0:0:
236,76,56511,1,2,0:0:0:0:
238,98,56677,1,0,0:0:0:0:
241,120,56844,1,2,0:0:0:0:
216,280,57011,6,0,L|104:272,1,89.9999976158142,6|0,0:0|0:0,0:0:0:0:
244,144,57344,2,0,L|333:150,1,89.9999976158142,2|0,0:0|0:0,0:0:0:0:
444,172,57677,1,8,0:0:0:0:
360,240,57844,1,0,0:0:0:0:
392,80,58011,1,2,0:0:0:0:
424,292,58177,5,2,0:0:0:0:
328,240,58344,1,0,0:0:0:0:
460,148,58511,1,2,0:0:0:0:
352,168,58677,1,2,0:0:0:0:
256,120,58844,1,2,0:0:0:0:
360,148,59011,53,8,0:0:0:0:
312,324,59177,1,2,0:0:0:0:
220,268,59344,1,2,0:0:0:0:
221,256,59427,1,2,0:0:0:0:
222,245,59511,1,2,0:0:0:0:
223,234,59594,1,2,0:0:0:0:
224,223,59677,6,0,L|112:236,1,89.9999976158142,6|0,0:0|0:0,0:0:0:0:
368,128,60011,2,0,L|480:115,1,89.9999976158142,2|0,0:0|0:0,0:0:0:0:
416,220,60344,1,8,0:0:0:0:
280,132,60511,1,0,0:0:0:0:
428,200,60677,1,2,0:0:0:0:
360,52,60844,5,2,0:0:0:0:
320,208,61011,1,0,0:0:0:0:
272,52,61177,1,2,0:0:0:0:
444,184,61344,1,2,0:0:0:0:
240,256,61511,1,2,0:0:0:0:
344,288,61677,53,8,0:0:0:0:
172,160,61844,1,2,0:0:0:0:
149,163,62011,1,0,0:0:0:0:
127,166,62177,1,2,0:0:0:0:
244,280,62344,6,0,L|256:180,1,89.9999976158143,6|0,0:0|0:0,0:0:0:0:
105,171,62677,2,0,L|117:71,1,89.9999976158143,2|0,0:0|0:0,0:0:0:0:
256,192,63011,12,0,64344,0:0:0:0:
368,116,65011,22,0,P|364:168|300:232,1,125.999992816925,2|0,0:0|0:0,0:0:0:0:
318,223,65677,1,0,0:0:0:0:
116,208,66011,1,2,0:0:0:0:
116,208,66344,2,0,P|120:156|184:92,1,125.999992816925
165,100,67011,1,2,0:0:0:0:
320,224,67344,1,0,0:0:0:0:
144,320,67677,22,0,P|112:280|120:200,1,125.999992816925,2|0,0:0|0:0,0:0:0:0:
165,100,68344,1,0,0:0:0:0:
276,60,68677,1,2,0:0:0:0:
355,284,69011,1,0,0:0:0:0:
236,324,69344,1,0,0:0:0:0:
194,205,69677,1,2,0:0:0:0:
313,165,70011,1,0,0:0:0:0:
236,72,70344,70,0,P|164:64|92:88,1,125.999992816925,2|0,0:0|0:0,0:0:0:0:
100,204,71011,2,0,P|128:272|176:312,1,125.999992816925,0|2,0:0|0:0,0:0:0:0:
184,180,71677,2,0,P|196:136|240:68,1,125.999992816925
312,172,72344,1,2,0:0:0:0:
256,284,72677,1,0,0:0:0:0:
184,180,73011,69,2,0:0:0:0:
284,104,73344,1,0,0:0:0:0:
184,180,73677,1,0,0:0:0:0:
300,228,74011,1,2,0:0:0:0:
184,180,74344,2,0,P|136:152|128:72,1,125.999992816925,2|0,0:0|0:0,0:0:0:0:
300,228,75011,1,0,0:0:0:0:
324,280,75177,1,2,0:0:0:0:
376,300,75344,2,0,P|432:284|472:220,1,125.999992816925,4|2,0:0|0:0,0:0:0:0:
336,212,76011,6,0,L|192:172,1,125.999992816925
332,76,76677,2,0,P|408:80|460:124,1,125.999992816925,2|0,0:0|0:0,0:0:0:0:
328,204,77344,1,0,0:0:0:0:
196,276,77677,2,0,P|133:277|80:245,1,125.999992816925,2|0,0:0|0:0,0:0:0:0:
236,160,78344,6,0,P|288:124|368:120,1,125.999992816925,2|0,0:0|0:0,0:0:0:0:
349,116,79011,1,0,0:0:0:0:
292,284,79344,2,0,P|240:320|160:324,1,125.999992816925,2|0,0:0|0:0,0:0:0:0:
44,256,80011,1,0,0:0:0:0:
192,236,80344,2,0,L|303:177,1,125.999992816925,2|0,0:0|0:0,0:0:0:0:
172,100,81011,54,0,L|308:28,1,125.999992816925,2|0,0:0|0:0,0:0:0:0:
240,188,81677,2,0,P|228:252|256:320,1,125.999992816925,0|2,0:0|0:0,0:0:0:0:
392,348,82344,1,0,0:0:0:0:
492,236,82677,1,0,0:0:0:0:
420,104,83011,1,2,0:0:0:0:
272,84,83344,1,0,0:0:0:0:
208,220,83677,22,0,P|296:228|340:220,1,125.999992816925,2|0,0:0|0:0,0:0:0:0:
420,104,84344,1,0,0:0:0:0:
296,16,84677,1,2,0:0:0:0:
320,216,85011,1,0,0:0:0:0:
188,64,85344,1,2,0:0:0:0:
96,244,85677,1,0,0:0:0:0:
280,324,86011,1,0,0:0:0:0:
368,144,86344,69,2,0:0:0:0:
484,188,86677,2,0,P|457:232|376:264,1,125.999992816925
272,172,87344,1,2,0:0:0:0:
124,216,87677,2,0,P|104:284|120:348,1,125.999992816925
224,284,88344,1,2,0:0:0:0:
200,128,88677,1,0,0:0:0:0:
200,128,89011,6,0,P|257:105|316:126,1,125.999992816925,2|0,0:0|0:0,0:0:0:0:
420,232,89677,1,0,0:0:0:0:
276,280,90011,1,2,0:0:0:0:
132,232,90344,2,0,P|76:204|46:150,1,125.999992816925
200,128,91011,1,2,0:0:0:0:
380,232,91344,1,0,0:0:0:0:
462,136,91677,54,0,P|487:78|484:16,1,125.999992816925,2|0,0:0|0:0,0:0:0:0:
364,108,92344,1,0,0:0:0:0:
288,236,92677,1,2,0:0:0:0:
164,152,93011,2,0,P|140:88|156:28,1,125.999992816925
164,152,93677,2,0,P|188:216|172:276,1,125.999992816925,2|0,0:0|0:0,0:0:0:0:
88,320,94344,21,2,0:0:0:0:
176,272,94677,1,0,0:0:0:0:
88,320,95011,1,0,0:0:0:0:
180,364,95344,1,2,0:0:0:0:
88,320,95677,2,0,P|68:264|68:188,1,125.999992816925,2|2,0:0|0:0,0:0:0:0:
260,136,96344,1,0,0:0:0:0:
316,148,96511,1,0,0:0:0:0:
360,180,96677,2,0,P|380:236|380:312,1,125.999992816925,4|2,0:0|0:0,0:0:0:0:
200,176,97344,69,0,0:0:0:0:
200,176,97677,1,0,0:0:0:0:
250,304,98011,2,0,P|313:302|372:280,1,125.999992816925,2|0,0:0|0:0,0:0:0:0:
321,200,98677,1,0,0:0:0:0:
321,200,99011,2,0,P|258:198|199:176,1,125.999992816925,2|0,0:0|0:0,0:0:0:0:
136,248,99677,6,0,P|178:294|233:325,1,125.999992816925,2|0,0:0|0:0,0:0:0:0:
364,320,100344,1,0,0:0:0:0:
472,276,100677,2,0,L|472:140,1,125.999992816925,2|0,0:0|0:0,0:0:0:0:
340,108,101344,1,0,0:0:0:0:
276,232,101677,2,0,P|213:225|158:195,1,125.999992816925,2|0,0:0|0:0,0:0:0:0:
340,108,102344,54,0,L|460:172,1,125.999992816925,2|0,0:0|0:0,0:0:0:0:
492,276,103011,1,0,0:0:0:0:
380,292,103344,2,0,L|260:228,1,125.999992816925,2|0,0:0|0:0,0:0:0:0:
204,140,104011,1,0,0:0:0:0:
204,292,104344,1,2,0:0:0:0:
92,188,104677,1,0,0:0:0:0:
196,276,105011,6,0,L|276:276,1,62.9999964084626,2|0,0:0|0:0,0:0:0:0:
324,316,105344,1,2,0:0:0:0:
408,188,105677,1,4,0:0:0:0:
260,184,106011,6,0,L|184:184,1,62.9999964084626,2|0,0:0|0:0,0:0:0:0:
124,204,106344,1,2,0:0:0:0:
200,336,106677,1,4,0:0:0:0:
420,288,107011,2,0,L|288:292,1,125.999992816925,2|0,0:0|0:0,0:0:0:0:
92,96,107677,54,0,L|192:92,1,89.9999976158142,2|0,0:0|0:0,0:0:0:0:
239,39,108177,1,0,0:0:0:0:
239,39,108677,1,0,0:0:0:0:
380,176,109011,6,0,P|384:212|368:272,1,89.9999976158142
260,356,109677,2,0,P|220:336|136:368,1,134.999996423721
139,364,110344,2,0,B|133:322|116:284|116:284|145:244|168:192,1,179.999995231629
156,56,111344,1,0,0:0:0:0:
156,56,111677,6,0,P|120:76|100:132,1,89.9999976158142
172,128,112177,1,0,0:0:0:0:
172,128,112344,1,0,0:0:0:0:
288,44,112677,2,0,L|296:96,1,44.9999988079071
312,160,113011,21,2,0:0:0:0:
312,160,113177,5,2,0:0:0:0:
460,316,113677,5,0,0:0:0:0:
316,308,114011,1,0,0:0:0:0:
176,348,114344,6,0,P|140:352|92:232,1,179.999995231628
36,108,115344,1,0,0:0:0:0:
164,40,115677,2,0,P|176:72|224:100,1,89.9999976158142
288,228,116344,1,0,0:0:0:0:
420,172,116677,2,0,B|428:136|428:136|483:68|483:68|495:14,2,179.999995231629
404,316,118344,53,2,0:0:0:0:
404,316,118511,53,2,0:0:0:0:
192,352,119011,37,0,0:0:0:0:
88,252,119344,1,0,0:0:0:0:
112,108,119677,5,0,0:0:0:0:
208,152,120344,1,0,0:0:0:0:
300,96,121011,2,0,P|336:100|376:232,1,179.999995231628
292,328,122011,2,0,B|248:340|248:340|200:332,2,89.9999976158142,0|0|0,0:0|0:0|0:0,0:0:0:0:
436,340,123011,1,0,0:0:0:0:
476,200,123344,1,0,0:0:0:0:
428,64,123677,5,0,0:0:0:0:
428,64,124011,2,0,P|396:84|276:28,1,179.999995231628
136,52,125011,1,0,0:0:0:0:
196,184,125344,2,0,P|246:197|292:200,2,89.9999976158143
56,148,126344,53,0,0:0:0:0:
52,292,126677,2,0,P|84:320|136:336,1,89.9999976158142
268,300,127344,2,0,P|296:292|396:344,1,134.999996423721
388,331,128011,1,0,0:0:0:0:
463,152,128344,2,0,P|465:108|440:72,1,89.9999976158143
216,136,129011,6,0,B|308:156|312:112|396:132,2,179.999995231628,2|0|0,0:0|0:0|0:0,0:0:0:0:
84,80,130677,1,0,0:0:0:0:
40,216,131011,2,0,P|48:256|68:316,1,89.9999976158142
200,352,131677,2,0,P|280:356|320:272,1,179.999995231629,2|0,0:0|0:0,0:0:0:0:
460,332,132677,2,0,P|448:296|500:168,1,179.999995231629
380,56,133677,1,0,0:0:0:0:
220,100,134011,1,0,0:0:0:0:
104,188,134344,21,2,0:0:0:0:
104,188,134511,5,2,0:0:0:0:
164,320,135011,53,0,0:0:0:0:
308,304,135344,1,0,0:0:0:0:
120,72,135677,54,0,P|160:96|248:64,1,134.999996423721
412,160,136344,2,0,P|372:136|284:168,1,134.999996423721
96,240,137011,2,0,L|196:252,1,89.9999976158142,2|0,0:0|0:0,0:0:0:0:
328,268,137677,1,0,0:0:0:0:
328,268,138011,1,0,0:0:0:0:
472,88,138677,1,0,0:0:0:0:
472,88,139011,1,0,0:0:0:0:
472,88,139677,6,0,B|412:108|360:84|360:84|292:140|332:232,1,269.999992847443,2|0,0:0|0:0,0:0:0:0:
72,72,141011,2,0,L|180:68,1,89.9999976158142
336,244,141677,2,0,L|228:240,1,89.9999976158142
100,236,142344,1,0,0:0:0:0:
316,220,142677,1,0,0:0:0:0:
200,308,143011,1,0,0:0:0:0:
288,112,143344,2,0,P|340:120|396:96,1,89.9999976158143
184,156,144011,2,0,B|136:144|80:152|100:160|108:184,1,89.9999976158143
204,40,144677,1,0,0:0:0:0:
224,344,145011,5,2,0:0:0:0:
308,228,145344,1,0,0:0:0:0:
308,228,146011,2,0,L|328:320,1,89.9999976158142
418,110,146677,2,0,L|437:197,1,89.9999976158142
140,104,147677,53,2,0:0:0:0:
60,224,148011,2,0,P|76:268|80:324,1,89.9999976158142
148,184,148677,2,0,P|132:140|128:84,1,89.9999976158142
264,144,149344,2,0,B|259:187|259:187|233:281|233:281|228:329,1,179.999995231629
348,216,150344,6,0,L|444:208,2,89.9999976158142,0|0|0,0:0|0:0|0:0,0:0:0:0:
204,232,151344,1,0,0:0:0:0:
256,192,151677,12,0,155677,0:0:0:0:
440,120,157011,6,0,P|416:140|288:92,1,179.999995231628
160,160,158011,1,0,0:0:0:0:
212,292,158344,2,0,L|304:280,1,89.9999976158142
432,344,159011,1,0,0:0:0:0:
432,344,159344,1,0,0:0:0:0:
432,344,159677,2,0,P|440:304|432:252,1,89.9999976158142
364,132,160344,2,0,P|336:104|288:96,1,89.9999976158142
160,164,161011,54,0,B|112:180|72:164|72:164|40:184|16:224|32:308|104:288,1,269.999992847443
236,248,162344,2,0,P|296:236|336:340,1,179.999995231628
488,332,163344,1,0,0:0:0:0:
484,188,163677,2,0,B|458:202|437:184|437:184|391:195|391:195|364:164|296:136|228:160,1,269.999992847443
120,248,165011,5,0,0:0:0:0:
52,120,165344,1,0,0:0:0:0:
164,28,165677,5,0,0:0:0:0:
164,31,165844,1,0,0:0:0:0:
165,35,166011,1,0,0:0:0:0:
166,39,166177,1,0,0:0:0:0:
167,43,166344,69,0,0:0:0:0:
168,47,166511,1,0,0:0:0:0:
169,51,166677,1,0,0:0:0:0:
170,55,166844,1,0,0:0:0:0:
171,59,167011,5,0,0:0:0:0:
172,63,167177,1,0,0:0:0:0:
173,67,167344,1,0,0:0:0:0:
174,71,167511,1,0,0:0:0:0:
175,75,167677,5,0,0:0:0:0:
176,79,167844,1,0,0:0:0:0:
177,83,168011,1,0,0:0:0:0:
178,87,168177,1,0,0:0:0:0:
179,91,168344,5,0,0:0:0:0:
180,95,168511,1,0,0:0:0:0:
181,99,168677,1,0,0:0:0:0:
182,103,168844,1,0,0:0:0:0:
256,192,169011,12,0,171011,3:0:0:0:
192,196,171677,70,0,L|176:88,1,89.9999976158142,0|0,3:2|0:0,0:0:0:0:
252,56,172011,1,0,0:0:0:0:
300,208,172177,1,2,0:0:0:0:
160,300,172344,1,8,0:0:0:0:
224,132,172511,1,0,0:0:0:0:
160,300,172677,1,2,0:0:0:0:
332,276,172844,1,0,0:0:0:0:
160,300,173011,6,0,L|44:300,1,89.9999976158142,0|2,3:0|0:0,0:0:0:0:
30,192,173344,2,0,L|120:192,1,89.9999976158142,2|0,0:0|0:0,0:0:0:0:
141,64,173677,2,0,L|96:64,2,44.9999988079071,8|0|2,0:0|0:0|0:0,0:0:0:0:
224,132,174011,2,0,L|280:132,2,44.9999988079071,0|0|2,0:0|0:0|0:0,0:0:0:0:
124,288,174344,6,0,B|112:276|112:276|60:280|36:240,1,89.9999976158143,0|0,3:2|0:0,0:0:0:0:
224,132,174677,2,0,B|236:144|236:144|288:140|312:180,1,89.9999976158143,0|2,0:2|0:0,0:0:0:0:
208,312,175011,1,8,0:0:0:0:
224,132,175177,1,0,0:0:0:0:
312,320,175344,1,2,0:0:0:0:
224,132,175511,1,0,0:0:0:0:
224,132,175677,54,0,P|248:80|256:36,1,89.9999976158142,0|2,3:0|0:0,0:0:0:0:
376,108,176011,2,0,P|386:151|407:192,1,89.9999976158142,2|0,0:0|0:0,0:0:0:0:
208,312,176344,2,0,L|152:344,2,44.9999988079071,8|0|2,0:0|0:0|0:0,0:0:0:0:
96,224,176677,2,0,L|40:256,2,44.9999988079071,0|0|2,0:0|0:0|0:0,0:0:0:0:
224,132,177011,6,0,B|244:176|284:200,1,89.9999976158143,0|0,3:0|0:0,0:0:0:0:
376,108,177344,2,0,B|356:64|316:40,1,89.9999976158143,0|2,0:0|0:0,0:0:0:0:
280,200,177677,1,8,0:0:0:0:
368,196,177844,1,0,0:0:0:0:
248,44,178011,1,2,0:0:0:0:
224,132,178177,1,0,0:0:0:0:
224,132,178344,6,0,L|128:192,1,89.9999976158142,0|2,3:0|0:0,0:0:0:0:
320,268,178677,2,0,L|416:208,1,89.9999976158142,2|0,0:0|0:0,0:0:0:0:
268,152,179011,2,0,L|208:124,2,44.9999988079071,8|0|2,0:0|0:0|0:0,0:0:0:0:
51,160,179344,2,0,L|92:180,2,44.9999988079071,0|0|2,0:0|0:0|0:0,0:0:0:0:
128,268,179677,54,0,B|84:285|84:285|44:269,1,89.9999976158142,0|0,3:2|0:0,0:0:0:0:
224,132,180011,2,0,B|267:114|267:114|307:130,1,89.9999976158142,0|2,0:0|0:0,0:0:0:0:
320,268,180344,1,8,0:0:0:0:
228,228,180511,1,2,0:0:0:0:
384,140,180677,1,0,0:0:0:0:
472,188,180844,1,0,0:0:0:0:
472,188,181011,6,0,P|488:256|476:312,1,89.9999976158142,0|2,3:0|0:0,0:0:0:0:
320,268,181344,2,0,P|304:200|316:144,1,89.9999976158142
396,208,181677,1,8,0:0:0:0:
280,100,181844,1,2,0:0:0:0:
320,268,182011,1,8,0:0:0:0:
340,304,182094,1,0,0:0:0:0:
372,324,182177,1,8,0:0:0:0:
412,328,182261,1,0,0:0:0:0:
448,312,182344,6,0,P|476:260|464:172,1,89.9999976158142,0|0,3:2|0:0,0:0:0:0:
396,80,182677,2,0,P|368:132|376:196,1,89.9999976158142,0|2,0:0|0:0,0:0:0:0:
304,324,183011,1,8,0:0:0:0:
152,252,183177,1,0,0:0:0:0:
304,180,183344,1,2,0:0:0:0:
220,320,183511,1,0,0:0:0:0:
52,288,183677,54,0,P|24:236|35:148,1,89.9999976158142,0|2,3:0|0:0,0:0:0:0:
140,80,184011,2,0,P|167:132|160:196,1,89.9999976158142,0|2,0:0|0:0,0:0:0:0:
304,268,184344,2,0,L|320:318,2,44.9999988079071,8|0|0,0:0|0:0|0:0,0:0:0:0:
328,64,184677,2,0,L|311:13,2,44.9999988079071,0|0|2,0:0|0:0|0:0,0:0:0:0:
440,187,185011,6,0,P|462:149|468:104,1,89.9999976158142,0|0,3:2|0:0,0:0:0:0:
304,268,185344,2,0,P|256:276|192:256,1,89.9999976158143,0|2,0:0|0:0,0:0:0:0:
104,108,185677,1,8,0:0:0:0:
240,128,185844,1,0,0:0:0:0:
204,216,186011,1,2,0:0:0:0:
104,108,186177,1,0,0:0:0:0:
252,48,186344,5,0,3:0:0:0:
368,148,186511,1,2,0:0:0:0:
304,268,186677,1,0,0:0:0:0:
268,136,186844,1,2,0:0:0:0:
384,160,187011,2,0,L|432:136,2,44.9999988079071,8|0|2,0:0|0:0|0:0,0:0:0:0:
328,264,187344,2,0,L|376:288,2,44.9999988079071,0|0|2,0:0|0:0|0:0,0:0:0:0:
272,204,187677,69,0,3:2:0:0:
192,160,187844,1,0,0:0:0:0:
116,220,188011,1,0,0:0:0:0:
52,136,188177,1,2,0:0:0:0:
172,196,188344,1,8,0:0:0:0:
84,308,188510,1,0,0:0:0:0:
40,160,188677,1,2,0:0:0:0:
192,216,188843,1,0,0:0:0:0:
232,84,189011,5,0,3:0:0:0:
324,236,189177,1,2,0:0:0:0:
220,348,189344,1,0,0:0:0:0:
252,92,189511,1,2,0:0:0:0:
240,344,189677,2,0,L|280:376,2,44.9999988079071,8|0|2,0:0|0:0|0:0,0:0:0:0:
336,216,190011,2,0,L|376:248,2,44.9999988079071,0|0|2,0:0|0:0|0:0,0:0:0:0:
196,116,190344,38,0,L|168:96,22,22.4999988079071
176,148,191344,2,0,L|157:134,22,22.4999988079071
200,164,192344,69,2,0:0:0:0:
340,220,192677,1,2,0:0:0:0:
172,276,193011,38,0,P|116:240|100:208,1,89.9999976158142,0|0,3:2|0:0,0:0:0:0:
208,68,193344,1,0,0:0:0:0:
340,108,193511,2,0,P|396:144|412:176,1,89.9999976158142,2|8,0:0|0:0,0:0:0:0:
268,288,193844,1,0,0:0:0:0:
200,164,194011,1,2,0:0:0:0:
368,236,194177,1,0,0:0:0:0:
172,276,194344,6,0,L|80:300,1,89.9999976158142,0|2,3:0|0:0,0:0:0:0:
132,208,194677,1,0,0:0:0:0:
268,288,194844,1,2,0:0:0:0:
360,60,195011,2,0,L|392:48,4,22.4999994039536,8|0|0|0|0,0:0|0:0|0:0|0:0|0:0,0:0:0:0:
436,188,195344,2,0,L|476:172,4,22.4999994039536
344,336,195677,54,0,P|304:320|260:276,1,89.9999976158143,0|0,3:2|0:0,0:0:0:0:
268,60,196011,2,0,P|308:76|352:120,1,89.9999976158143,0|2,0:2|0:0,0:0:0:0:
256,300,196344,1,8,0:0:0:0:
204,192,196511,1,0,0:0:0:0:
436,188,196677,1,2,0:0:0:0:
396,300,196844,1,0,0:0:0:0:
396,300,197011,6,0,P|391:265|351:213,1,89.9999976158142,0|2,3:0|0:0,0:0:0:0:
120,176,197344,2,0,P|128:219|155:256,1,89.9999976158142,0|2,0:0|0:0,0:0:0:0:
256,300,197677,2,0,L|288:316,4,22.4999994039536,8|0|0|0|0,0:0|0:0|0:0|0:0|0:0,0:0:0:0:
356,204,198011,2,0,L|388:216,4,22.4999994039536
309,115,198344,6,0,P|265:91|213:75,1,89.9999976158142,0|0,3:2|0:0,0:0:0:0:
120,216,198677,2,0,P|164:240|216:256,1,89.9999976158142,0|2,0:0|0:0,0:0:0:0:
308,192,199011,1,8,0:0:0:0:
80,152,199177,1,0,0:0:0:0:
156,332,199344,1,2,0:0:0:0:
216,140,199511,1,0,0:0:0:0:
216,140,199677,70,0,L|312:176,1,89.9999976158142,0|2,3:0|0:0,0:0:0:0:
288,308,200011,1,2,0:0:0:0:
156,332,200177,1,0,0:0:0:0:
24,208,200344,2,0,L|4:188,4,22.4999994039536,8|0|0|0|0,0:0|0:0|0:0|0:0|0:0,0:0:0:0:
108,48,200677,2,0,L|84:24,4,22.4999994039536
200,212,201011,6,0,P|244:260|280:272,1,89.9999976158142,0|0,3:2|0:0,0:0:0:0:
408,192,201344,1,0,0:0:0:0:
244,112,201511,1,2,0:0:0:0:
376,84,201677,1,8,0:0:0:0:
408,192,201844,1,2,0:0:0:0:
268,272,202011,1,0,0:0:0:0:
244,112,202177,1,0,0:0:0:0:
244,112,202344,70,0,L|144:112,1,89.9999976158142,0|2,3:0|0:0,0:0:0:0:
110,224,202677,1,2,0:0:0:0:
268,272,202844,1,2,0:0:0:0:
352,28,203011,1,8,0:0:0:0:
244,112,203177,1,2,0:0:0:0:
100,56,203344,1,8,0:0:0:0:
100,56,203427,1,0,0:0:0:0:
100,56,203511,1,8,0:0:0:0:
100,56,203594,1,0,0:0:0:0:
100,56,203677,70,0,B|76:96|76:144|76:144|108:184|112:240,1,179.999995231628,4|0,0:0|0:0,0:0:0:0:
88,328,204177,1,2,0:0:0:0:
196,308,204344,2,0,P|244:328|308:328,1,89.9999976158142,8|0,0:0|0:0,0:0:0:0:
468,224,204677,1,2,0:0:0:0:
436,328,204844,1,2,0:0:0:0:
412,112,205011,6,0,B|420:72|412:40|412:40|432:44,1,89.9999976158142,2|0,0:0|0:0,0:0:0:0:
324,76,205344,2,0,B|216:64,1,89.9999976158143
288,176,205677,2,0,L|308:196,4,22.4999994039536,8|0|0|0|0,0:0|0:0|0:0|0:0|0:0,0:0:0:0:
152,144,206011,2,0,L|132:124,4,22.4999994039536,2|0|0|0|0,0:0|0:0|0:0|0:0|0:0,0:0:0:0:
312,336,206344,6,0,L|424:324,1,89.9999976158142,2|0,0:0|0:0,0:0:0:0:
184,308,206677,1,0,0:0:0:0:
292,324,206844,1,2,0:0:0:0:
276,216,207011,2,0,P|208:216|164:192,1,89.9999976158142,8|0,0:0|0:0,0:0:0:0:
404,240,207344,2,0,P|472:240|516:264,1,89.9999976158142,2|0,0:0|0:0,0:0:0:0:
380,64,207677,54,0,P|384:124|368:168,1,89.9999976158142,2|0,0:0|0:0,0:0:0:0:
296,228,208011,1,0,0:0:0:0:
400,260,208177,1,2,0:0:0:0:
292,104,208344,2,0,L|256:96,4,22.4999994039536,8|0|0|0|0,0:0|0:0|0:0|0:0|0:0,0:0:0:0:
468,176,208677,2,0,L|500:184,4,22.4999994039536
352,344,209011,6,0,B|308:340|264:356|264:356|208:360|152:316,1,179.999995231628,6|0,0:0|0:0,0:0:0:0:
72,348,209511,1,2,0:0:0:0:
240,264,209677,1,8,0:0:0:0:
24,272,209844,1,0,0:0:0:0:
132,260,210011,1,2,0:0:0:0:
180,164,210177,1,2,0:0:0:0:
164,56,210344,6,0,P|120:36|52:52,1,89.9999976158142,2|0,0:0|0:0,0:0:0:0:
272,120,210677,2,0,P|316:140|384:124,1,89.9999976158142,0|2,0:0|0:0,0:0:0:0:
444,72,211011,2,0,L|456:40,4,22.4999994039536,8|0|0|0|0,0:0|0:0|0:0|0:0|0:0,0:0:0:0:
448,196,211344,2,0,L|456:228,4,22.4999994039536
368,284,211677,5,0,0:0:0:0:
364,306,211761,1,0,0:0:0:0:
361,328,211844,1,0,0:0:0:0:
280,224,212011,5,0,0:0:0:0:
276,246,212094,1,0,0:0:0:0:
273,268,212177,1,0,0:0:0:0:
184,256,212344,5,0,0:0:0:0:
180,278,212427,1,0,0:0:0:0:
177,300,212511,1,0,0:0:0:0:
104,192,212677,53,0,0:0:0:0:
100,214,212761,1,0,0:0:0:0:
97,236,212844,1,0,0:0:0:0:
60,112,213011,6,0,L|64:80,8,22.4999994039536
164,84,213511,2,0,L|168:48,8,22.4999994039536
236,168,214011,5,2,0:0:0:0:
336,124,214177,37,2,0:0:0:0:
468,336,214344,54,0,P|428:328|392:336,1,44.9999976158143,6|0,0:0|0:0,0:0:0:0:
392,252,214511,2,0,P|352:260|316:252,1,44.9999976158143,2|0,0:0|0:0,0:0:0:0:
316,332,214677,2,0,P|276:324|240:332,1,44.9999976158143,2|0,0:0|0:0,0:0:0:0:
232,256,214844,2,0,P|192:264|156:256,1,44.9999976158143,2|0,0:0|0:0,0:0:0:0:
116,320,215011,2,0,L|104:260,1,44.9999976158143,8|0,0:0|0:0,0:0:0:0:
28,204,215177,2,0,L|44:136,1,44.9999976158143,2|2,0:0|0:0,0:0:0:0:
120,88,215344,2,0,L|104:20,3,44.9999976158143,2|0|2|0,0:0|0:0|0:0|0:0,0:0:0:0:
104,20,215677,5,2,0:0:0:0:
256,176,215844,1,2,0:0:0:0:
308,80,216011,2,0,L|236:64,1,44.9999976158143,2|0,0:0|0:0,0:0:0:0:
392,172,216177,2,0,L|320:156,1,44.9999976158143,2|0,0:0|0:0,0:0:0:0:
484,288,216344,2,0,L|396:268,1,89.9999976158142,8|0,0:0|0:0,0:0:0:0:
308,328,216677,2,0,L|220:308,1,89.9999976158142,2|0,0:0|0:0,0:0:0:0:
116,332,217011,5,2,0:0:0:0:
60,240,217177,1,2,0:0:0:0:
68,132,217344,1,2,0:0:0:0:
136,48,217511,1,2,0:0:0:0:
48,112,217677,53,8,0:0:0:0:
148,240,217844,1,2,0:0:0:0:
184,140,218011,1,2,0:0:0:0:
80,164,218177,1,2,0:0:0:0:
232,216,218344,5,2,0:0:0:0:
176,64,218511,1,2,0:0:0:0:
200,332,218677,2,0,L|296:328,1,89.9999976158142,2|2,0:0|0:0,0:0:0:0:
360,244,219011,2,0,L|393:247,4,22.4999994039536,8|0|0|0|2,0:0|0:0|0:0|0:0|0:0,0:0:0:0:
444,152,219344,2,0,L|477:155,4,22.4999994039536,2|0|0|0|2,0:0|0:0|0:0|0:0|0:0,0:0:0:0:
428,56,219677,6,0,P|400:68|368:64,1,44.9999976158143,6|0,0:0|0:0,0:0:0:0:
336,132,219844,2,0,P|304:124|272:132,1,44.9999976158143,2|0,0:0|0:0,0:0:0:0:
248,60,220011,2,0,P|208:72|168:68,1,44.9999976158143,2|0,0:0|0:0,0:0:0:0:
168,144,220177,2,0,P|140:140|116:140,1,44.9999976158143,2|0,0:0|0:0,0:0:0:0:
44,188,220344,54,0,L|36:256,1,44.9999976158143,8|0,0:0|0:0,0:0:0:0:
128,252,220511,2,0,L|120:320,1,44.9999976158143,2|2,0:0|0:0,0:0:0:0:
232,220,220677,2,0,L|224:288,3,44.9999976158143,2|0|2|0,0:0|0:0|0:0|0:0,0:0:0:0:
228,296,221011,5,2,0:0:0:0:
332,268,221177,1,2,0:0:0:0:
428,316,221344,2,0,L|492:312,1,44.9999976158143,2|0,0:0|0:0,0:0:0:0:
352,240,221511,2,0,L|416:236,1,44.9999976158143,2|0,0:0|0:0,0:0:0:0:
288,152,221677,2,0,L|392:144,1,89.9999976158142,8|2,0:0|0:0,0:0:0:0:
416,44,222011,2,0,L|312:52,1,89.9999976158142,2|2,0:0|0:0,0:0:0:0:
216,44,222344,5,6,0:0:0:0:
116,88,222511,1,2,0:0:0:0:
68,184,222677,1,2,0:0:0:0:
84,292,222844,1,2,0:0:0:0:
136,140,223011,53,8,0:0:0:0:
8,316,223177,1,2,0:0:0:0:
156,252,223344,1,2,0:0:0:0:
24,128,223511,1,2,0:0:0:0:
76,280,223677,5,2,0:0:0:0:
224,344,223844,1,2,0:0:0:0:
340,224,224011,2,0,P|356:280|356:320,1,89.9999976158142,2|2,0:0|0:0,0:0:0:0:
460,120,224344,2,0,L|424:128,4,22.4999994039536,8|0|0|0|2,0:0|0:0|0:0|0:0|0:0,0:0:0:0:
332,80,224677,2,0,L|296:80,4,22.4999994039536,2|0|0|0|2,0:0|0:0|0:0|0:0|0:0,0:0:0:0:
196,68,225011,6,0,P|192:112|180:144,1,44.9999976158143,6|0,0:0|0:0,0:0:0:0:
232,184,225177,2,0,P|176:204|156:224,1,44.9999976158143,2|0,0:0|0:0,0:0:0:0:
108,180,225344,2,0,P|100:232|92:256,1,44.9999976158143,2|0,0:0|0:0,0:0:0:0:
164,276,225511,2,0,P|144:324|144:356,1,44.9999976158143,2|0,0:0|0:0,0:0:0:0:
228,328,225677,54,0,L|272:336,1,44.9999976158143,8|0,0:0|0:0,0:0:0:0:
344,256,225844,2,0,L|380:296,1,44.9999976158143,2|2,0:0|0:0,0:0:0:0:
472,248,226011,2,0,L|484:304,3,44.9999976158143,2|0|2|0,0:0|0:0|0:0|0:0,0:0:0:0:
480,312,226344,1,2,0:0:0:0:
416,164,226511,1,2,0:0:0:0:
420,56,226677,2,0,L|480:64,1,44.9999976158143,2|0,0:0|0:0,0:0:0:0:
304,116,226844,2,0,L|364:108,1,44.9999976158143,2|0,0:0|0:0,0:0:0:0:
168,32,227011,2,0,L|276:40,1,89.9999976158142,8|2,0:0|0:0,0:0:0:0:
272,240,227344,2,0,L|380:248,1,89.9999976158142,2|2,0:0|0:0,0:0:0:0:
256,220,227677,5,6,0:0:0:0:
412,172,227844,1,2,0:0:0:0:
260,328,228011,1,2,0:0:0:0:
220,144,228177,1,2,0:0:0:0:
336,288,228344,5,8,0:0:0:0:
144,188,228511,1,2,0:0:0:0:
304,152,228677,1,2,0:0:0:0:
120,268,228844,1,2,0:0:0:0:
140,108,229011,53,2,0:0:0:0:
296,180,229177,1,2,0:0:0:0:
44,220,229344,2,0,B|40:184|40:184|32:148|32:148|32:112,1,89.9999976158142,2|2,0:0|0:0,0:0:0:0:
224,96,229677,2,0,L|220:124,4,22.4999994039536,8|0|0|0|2,0:0|0:0|0:0|0:0|0:0,0:0:0:0:
256,296,230011,2,0,L|252:324,4,22.4999994039536,2|0|0|0|2,0:0|0:0|0:0|0:0|0:0,0:0:0:0:
396,312,230344,6,0,P|388:288|364:264,1,44.9999976158143,4|0,0:0|0:0,0:0:0:0:
448,232,230511,2,0,P|448:184|456:152,1,44.9999976158143,2|0,0:0|0:0,0:0:0:0:
364,188,230677,2,0,P|348:136|332:120,1,44.9999976158143,2|0,0:0|0:0,0:0:0:0:
424,104,230844,2,0,P|428:68|440:48,1,44.9999976158143,2|0,0:0|0:0,0:0:0:0:
360,24,231011,2,0,L|312:32,1,44.9999976158143,8|0,0:0|0:0,0:0:0:0:
244,112,231177,2,0,L|196:108,1,44.9999976158143,2|2,0:0|0:0,0:0:0:0:
104,56,231344,2,0,L|40:64,3,44.9999976158143,2|0|2|0,0:0|0:0|0:0|0:0,0:0:0:0:
48,76,231677,5,2,0:0:0:0:
160,196,231844,1,2,0:0:0:0:
56,168,232011,2,0,L|0:172,1,44.9999976158143,2|0,0:0|0:0,0:0:0:0:
140,280,232177,2,0,L|84:276,1,44.9999976158143,2|0,0:0|0:0,0:0:0:0:
264,196,232344,2,0,L|168:208,1,89.9999976158142,8|2,0:0|0:0,0:0:0:0:
248,288,232677,2,0,L|344:276,1,89.9999976158142,2|2,0:0|0:0,0:0:0:0:
399,188,233011,6,0,L|404:165,6,22.4999994039536
328,152,233344,6,0,L|332:129,6,22.4999994039536
256,112,233677,6,0,L|260:89,6,22.4999994039536
180,84,234011,54,0,L|184:61,6,22.4999994039536
112,128,234344,6,0,L|118:167,10,22.4999994039536
99,192,234844,6,0,L|135:210,10,22.4999994039536
151,214,235344,69,4,2:0:0:0:
281,250,235511,1,0,0:0:0:0:
184,332,235677,1,4,1:0:0:0:
152,60,257011,5,4,0:0:0:0:
24,152,257344,1,0,0:0:0:0:
60,64,257677,2,0,P|84:104|120:140,1,89.9999976158142
184,180,258344,69,2,0:0:0:0:
248,232,258677,2,0,L|300:264,2,44.9999988079071,0|0|2,0:0|0:0|0:0,0:0:0:0:
260,152,259344,1,0,0:0:0:0:
184,180,259677,70,0,L|132:148,2,44.9999988079071,2|0|0,0:0|0:0|0:0,0:0:0:0:
248,232,260344,1,0,0:0:0:0:
312,184,260677,1,2,0:0:0:0:
312,104,261011,1,0,0:0:0:0:
248,56,261344,6,0,L|188:52,1,44.9999988079071
148,48,261677,1,0,0:0:0:0:
96,56,261844,1,0,0:0:0:0:
60,96,262011,1,0,0:0:0:0:
52,148,262177,1,0,0:0:0:0:
136,132,262344,6,0,P|184:168|204:200,1,89.9999976158143,4|0,0:0|0:0,0:0:0:0:
260,324,263011,2,0,P|324:324|364:308,1,89.9999976158142,2|0,0:0|0:0,0:0:0:0:
396,292,263511,1,0,0:0:0:0:
428,268,263677,1,0,0:0:0:0:
436,188,264011,1,0,0:0:0:0:
420,108,264344,1,2,0:0:0:0:
352,64,264677,1,0,0:0:0:0:
240,169,265011,54,0,P|261:164|284:160,2,44.9999988079071,2|0|0,0:0|0:0|0:0,0:0:0:0:
120,144,265677,1,0,0:0:0:0:
232,92,266011,1,2,0:0:0:0:
176,204,266344,1,0,0:0:0:0:
232,92,266677,1,0,0:0:0:0:
300,200,267011,1,0,0:0:0:0:
324,232,267177,1,0,0:0:0:0:
356,260,267344,1,2,0:0:0:0:
392,280,267511,1,0,0:0:0:0:
432,284,267677,6,0,P|480:232|484:204,1,89.9999976158142,4|0,0:0|0:0,0:0:0:0:
456,140,268344,2,0,P|408:192|404:220,1,89.9999976158142
432,284,269011,1,0,0:0:0:0:
356,312,269344,1,0,0:0:0:0:
316,316,269511,1,0,0:0:0:0:
276,308,269677,2,0,P|224:280|200:248,1,89.9999976158142,2|0,0:0|0:0,0:0:0:0:
144,108,270344,5,2,0:0:0:0:
292,172,270677,1,0,0:0:0:0:
272,12,271011,1,0,0:0:0:0:
272,12,271344,2,0,P|336:16|372:36,1,89.9999976158142
392,184,272011,2,0,P|408:208|420:240,1,44.9999988079071
404,304,272344,1,0,0:0:0:0:
332,340,272511,1,0,0:0:0:0:
252,344,272677,1,0,0:0:0:0:
184,300,272844,1,0,0:0:0:0:
140,232,273011,53,0,0:0:0:0:
140,232,273177,1,0,0:0:0:0:
180,160,273344,1,0,0:0:0:0:
180,160,273511,1,0,0:0:0:0:
252,196,273677,5,0,0:0:0:0:
252,196,273844,1,0,0:0:0:0:
312,144,274011,1,0,0:0:0:0:
312,144,274177,1,0,0:0:0:0:
372,200,274344,5,0,0:0:0:0:
365,217,274427,1,0,0:0:0:0:
357,235,274510,1,0,0:0:0:0:
348,252,274593,1,0,0:0:0:0:
338,268,274677,53,0,0:0:0:0:
327,284,274760,1,0,0:0:0:0:
316,299,274843,1,0,0:0:0:0:
304,314,274927,1,0,0:0:0:0:
291,328,275010,37,0,0:0:0:0:
274,328,275093,1,0,0:0:0:0:
255,325,275177,1,0,0:0:0:0:
236,325,275260,1,0,0:0:0:0:
217,327,275344,5,0,0:0:0:0:
198,331,275427,1,0,0:0:0:0:
180,337,275510,1,0,0:0:0:0:
162,345,275593,1,0,0:0:0:0:
256,192,275677,12,0,277677,3:0:0:0:
420,132,278344,70,0,P|376:140|328:132,1,89.9999976158142,6|0,0:0|0:0,0:0:0:0:
228,100,278677,2,0,B|176:136|168:184|168:184|176:232|200:280,1,179.999995231628,2|8,0:0|0:0,0:0:0:0:
236,352,279177,1,2,0:0:0:0:
344,336,279344,2,0,L|436:320,1,89.9999976158142,2|0,0:0|0:0,0:0:0:0:
256,188,279677,5,0,0:0:0:0:
152,328,279844,1,2,0:0:0:0:
276,276,280011,1,2,0:0:0:0:
176,240,280177,1,2,0:0:0:0:
352,224,280344,2,0,L|360:252,4,22.4999994039536,8|0|0|0|0,0:0|0:0|0:0|0:0|0:0,0:0:0:0:
71,261,280677,2,0,L|64:236,4,22.4999994039536,2|0|0|0|0,0:0|0:0|0:0|0:0|0:0,0:0:0:0:
52,120,281011,6,0,L|164:108,1,89.9999976158143,2|0,0:0|0:0,0:0:0:0:
272,100,281344,2,0,B|256:132|248:164|248:164|252:216|264:252,1,134.999996423721,2|0,0:0|0:0,0:0:0:0:
258,229,281677,1,8,0:0:0:0:
152,92,281844,1,2,0:0:0:0:
368,40,282011,2,0,P|384:100|376:136,1,89.9999976158142,2|0,0:0|0:0,0:0:0:0:
460,200,282344,53,0,0:0:0:0:
276,312,282511,1,2,0:0:0:0:
436,328,282677,1,2,0:0:0:0:
360,252,282844,1,2,0:0:0:0:
360,252,283011,2,0,L|356:288,4,22.4999994039536,8|0|0|0|0,0:0|0:0|0:0|0:0|0:0,0:0:0:0:
181,317,283344,2,0,L|184:292,4,22.4999994039536,2|0|0|0|0,0:0|0:0|0:0|0:0|0:0,0:0:0:0:
88,172,283677,6,0,P|148:184|204:168,1,89.9999976158142,6|0,0:0|0:0,0:0:0:0:
392,172,284011,2,0,B|344:164|308:184|308:184|276:148|292:92,1,179.999995231628,2|8,0:0|0:0,0:0:0:0:
368,20,284511,1,0,0:0:0:0:
468,212,284677,2,0,P|432:248|396:256,1,89.9999976158142,2|0,0:0|0:0,0:0:0:0:
336,348,285011,5,0,0:0:0:0:
232,316,285177,1,2,0:0:0:0:
132,356,285344,1,2,0:0:0:0:
56,280,285511,1,2,0:0:0:0:
164,160,285677,2,0,L|160:200,4,22.4999994039536,8|0|0|0|0,0:0|0:0|0:0|0:0|0:0,0:0:0:0:
56,64,286011,2,0,L|52:104,4,22.4999994039536,2|0|0|0|0,0:0|0:0|0:0|0:0|0:0,0:0:0:0:
284,168,286344,54,0,L|392:160,1,89.9999976158142,2|0,0:0|0:0,0:0:0:0:
308,48,286677,2,0,B|280:72|244:76|244:76|212:60|152:60,1,134.999996423721,2|0,0:0|0:0,0:0:0:0:
182,61,287011,1,8,0:0:0:0:
280,256,287177,1,0,0:0:0:0:
180,216,287344,2,0,P|176:280|188:312,1,89.9999976158142,2|0,0:0|0:0,0:0:0:0:
284,344,287677,5,0,0:0:0:0:
88,252,287844,1,2,0:0:0:0:
356,292,288011,2,0,L|364:328,4,22.4999994039536,2|0|0|0|0,0:0|0:0|0:0|0:0|0:0,0:0:0:0:
276,184,288344,2,0,L|264:80,1,89.9999976158143,10|0,0:0|0:0,0:0:0:0:
456,51,288677,1,2,0:0:0:0:
458,62,288761,1,2,0:0:0:0:
460,73,288844,1,2,0:0:0:0:
462,84,288927,1,2,0:0:0:0:
464,96,289011,6,0,L|352:88,1,89.9999976158142,6|0,0:0|0:0,0:0:0:0:
356,292,289344,2,0,B|408:308|444:272|444:272|432:216|476:172,1,179.999995231628,2|8,0:0|0:0,0:0:0:0:
352,172,289844,1,2,0:0:0:0:
152,252,290011,2,0,L|164:352,1,89.9999976158142,2|0,0:0|0:0,0:0:0:0:
108,132,290344,53,0,0:0:0:0:
320,176,290511,1,2,0:0:0:0:
168,232,290677,1,2,0:0:0:0:
264,100,290844,1,2,0:0:0:0:
420,140,291011,2,0,L|416:180,4,22.4999994039536,8|0|0|0|0,0:0|0:0|0:0|0:0|0:0,0:0:0:0:
249,89,291344,2,0,L|252:60,4,22.4999994039536,2|0|0|0|0,0:0|0:0|0:0|0:0|0:0,0:0:0:0:
292,300,291677,6,0,P|348:312|404:292,1,89.9999976158142,2|0,0:0|0:0,0:0:0:0:
200,344,292011,2,0,B|168:324|136:316|136:316|92:316|52:336,1,134.999996423721,2|0,0:0|0:0,0:0:0:0:
72,327,292344,1,8,0:0:0:0:
124,116,292511,1,2,0:0:0:0:
228,152,292677,2,0,L|220:248,1,89.9999976158142,2|0,0:0|0:0,0:0:0:0:
68,184,293011,5,0,0:0:0:0:
220,128,293177,1,2,0:0:0:0:
112,112,293344,1,2,0:0:0:0:
36,36,293511,1,2,0:0:0:0:
118,212,293677,2,0,L|78:208,4,22.4999994039536,8|0|0|0|0,0:0|0:0|0:0|0:0|0:0,0:0:0:0:
232,48,294011,2,0,L|209:45,4,22.4999994039536,2|0|0|0|0,0:0|0:0|0:0|0:0|0:0,0:0:0:0:
228,316,294344,54,0,L|317:305,1,89.9999976158142,6|0,0:0|0:0,0:0:0:0:
420,344,294677,2,0,B|435:297|416:256|416:256|396:212|420:152,1,179.999995231629,2|8,0:0|0:0,0:0:0:0:
476,80,295177,1,2,0:0:0:0:
286,28,295344,2,0,L|376:36,1,89.9999976158142,2|0,0:0|0:0,0:0:0:0:
96,132,295677,5,0,0:0:0:0:
188,76,295844,1,2,0:0:0:0:
284,120,296011,1,2,0:0:0:0:
68,144,296177,1,2,0:0:0:0:
196,44,296344,1,8,0:0:0:0:
132,248,296511,1,2,0:0:0:0:
116,140,296677,1,2,0:0:0:0:
100,32,296844,1,2,0:0:0:0:
212,216,297011,6,0,P|216:272|196:308,1,89.9999976158142,2|0,0:0|0:0,0:0:0:0:
96,324,297344,1,2,0:0:0:0:
256,192,297427,12,0,299011,0:0:0:0:
256,192,299177,5,0,0:0:0:0:
400,76,299677,38,0,L|300:76,1,89.9999976158142,0|0,3:0|0:0,3:0:0:0:
212,124,300011,2,0,L|116:124,1,89.9999976158142
68,216,300344,2,0,P|100:296|132:320,1,89.9999976158142,8|0,0:0|0:0,0:0:0:0:
208,300,300677,2,0,P|176:220|144:196,1,89.9999976158142,2|2,0:0|0:0,0:0:0:0:
124,124,301011,5,0,3:0:0:0:
320,32,301177,1,0,0:0:0:0:
464,192,301344,2,0,P|484:252|472:312,1,89.9999976158142
348,328,301677,1,8,0:0:0:0:
236,164,301844,1,2,0:0:0:0:
208,300,302011,1,0,0:0:0:0:
368,236,302177,1,2,0:0:0:0:
368,236,302344,6,0,B|440:208|432:128|432:128|464:88,1,179.999995231629,0|0,3:0|0:0,0:0:0:0:
336,144,302844,1,0,0:0:0:0:
276,4,303011,2,0,B|289:56|289:56|233:88|236:164,1,179.999995231629,8|2,0:0|0:0,0:0:0:0:
336,144,303511,1,2,0:0:0:0:
204,312,303677,54,0,B|104:368|24:312,1,179.999995231629,0|0,3:0|0:0,0:0:0:0:
64,104,304177,1,0,0:0:0:0:
216,184,304344,1,8,0:0:0:0:
28,224,304511,1,0,0:0:0:0:
212,88,304677,1,2,0:0:0:0:
244,88,304761,1,0,0:0:0:0:
272,96,304844,1,2,0:0:0:0:
300,108,304927,1,0,0:0:0:0:
324,128,305011,6,0,P|352:172|364:216,1,89.9999976158142,0|0,3:0|0:0,0:0:0:0:
192,264,305344,2,0,P|164:220|152:176,1,89.9999976158142
280,96,305677,1,8,0:0:0:0:
288,264,305844,1,0,0:0:0:0:
288,264,306011,2,0,P|344:308|400:324,1,89.9999976158142,2|2,0:0|0:0,0:0:0:0:
244,348,306344,6,0,L|152:348,1,89.9999976158142,0|0,3:0|0:0,0:0:0:0:
96,200,306677,2,0,L|186:200,1,89.9999976158142
256,64,307011,1,8,0:0:0:0:
412,128,307177,2,0,L|322:128,1,89.9999976158142,0|2,0:0|0:0,0:0:0:0:
292,236,307511,1,2,0:0:0:0:
208,164,307677,54,0,P|176:100|168:44,1,89.9999976158142,0|0,3:0|0:0,0:0:0:0:
164,264,308011,2,0,P|132:200|124:144,1,89.9999976158142
256,64,308344,2,0,P|288:128|296:184,1,89.9999976158142,8|0,0:0|0:0,0:0:0:0:
124,360,308677,2,0,P|92:296|84:240,1,89.9999976158142,2|2,0:0|0:0,0:0:0:0:
68,104,309011,5,0,3:0:0:0:
236,200,309177,2,0,P|292:232|352:236,1,89.9999976158142
460,232,309511,1,0,0:0:0:0:
364,340,309677,1,8,0:0:0:0:
340,168,309844,1,0,0:0:0:0:
256,284,310011,1,2,0:0:0:0:
188,128,310177,1,10,0:0:0:0:
188,128,310261,1,8,0:0:0:0:
188,128,310344,6,0,B|200:80|232:44,1,89.9999976158143,0|0,3:0|0:0,0:0:0:0:
340,168,310677,2,0,B|328:216|296:252,1,89.9999976158143,2|0,0:0|0:0,0:0:0:0:
140,144,311011,1,8,0:0:0:0:
272,128,311177,1,2,0:0:0:0:
272,324,311344,1,0,0:0:0:0:
144,292,311511,1,0,0:0:0:0:
144,292,311677,54,0,P|92:252|68:200,1,89.9999976158142,0|0,3:0|0:0,0:0:0:0:
140,144,312011,2,0,P|192:184|216:236,1,89.9999976158142
216,332,312344,1,8,0:0:0:0:
344,168,312511,1,0,0:0:0:0:
144,224,312677,1,2,0:0:0:0:
416,272,312844,1,2,0:0:0:0:
416,272,313011,6,0,P|464:208|464:168,1,89.9999976158142,0|0,3:0|0:0,0:0:0:0:
444,20,313344,2,0,P|396:84|396:124,1,89.9999976158142
256,192,313677,1,8,0:0:0:0:
117,91,313844,2,0,P|101:49|68:20,1,89.9999976158142,0|2,0:0|0:0,0:0:0:0:
88,200,314177,1,2,0:0:0:0:
224,320,314344,6,0,P|304:328|340:320,1,89.9999976158142,0|0,3:0|0:0,0:0:0:0:
416,272,314677,1,0,0:0:0:0:
436,128,314844,1,0,0:0:0:0:
288,224,315011,1,8,0:0:0:0:
408,200,315177,1,0,0:0:0:0:
248,116,315344,1,2,0:0:0:0:
216,112,315427,1,0,0:0:0:0:
184,116,315511,1,0,0:0:0:0:
156,132,315594,1,2,0:0:0:0:
132,152,315677,54,0,P|108:200|116:256,1,89.9999976158142,0|0,3:0|0:0,0:0:0:0:
332,256,316011,2,0,P|356:208|348:152,1,89.9999976158142
188,216,316344,1,8,0:0:0:0:
272,308,316511,2,0,P|320:332|376:324,1,89.9999976158142,0|2,0:0|0:0,0:0:0:0:
372,104,316844,1,2,0:0:0:0:
264,184,317011,5,0,3:0:0:0:
440,268,317177,1,0,0:0:0:0:
424,160,317344,1,0,0:0:0:0:
240,264,317511,2,0,P|188:212|168:160,1,89.9999976158142,0|8,0:0|0:0,0:0:0:0:
120,48,317844,1,2,0:0:0:0:
276,80,318011,1,0,0:0:0:0:
84,244,318177,1,2,0:0:0:0:
280,314,318344,6,0,L|301:348,6,26.9999984607697
316,264,318677,54,0,L|302:241,6,26.9999984607697
352,312,319011,6,0,L|373:346,6,26.9999984607697
368,256,319344,70,0,L|354:233,6,26.9999984607697
412,300,319677,22,0,L|427:323,14,26.9999984607697
428,244,320344,6,0,P|448:200|416:64,1,179.999995231629,4|0,1:0|0:0,0:0:0:0:
256,192,321094,12,0,326344,0:0:0:0:
428,116,327677,6,0,P|396:132|280:64,1,179.999995231628
212,116,329011,1,2,0:0:0:0:
76,284,329677,2,0,L|180:280,1,89.9999976158142
264,328,330344,5,0,0:0:0:0:
372,344,330677,1,0,0:0:0:0:
444,264,331011,1,0,0:0:0:0:
436,156,331344,1,0,0:0:0:0:
436,156,331677,53,2,0:0:0:0:
424,264,332344,1,0,0:0:0:0:
336,328,333011,2,0,B|280:296|216:328|216:328|140:368|64:328,1,269.999992847443
24,240,334344,2,0,P|16:204|172:200,1,269.999992847443
272,240,335677,2,0,P|312:244|396:64,1,269.999992847443
300,40,337011,6,0,B|280:52|256:32|256:32|216:60|156:60|112:40|112:40|64:40|48:88|48:148|92:160|143:140|143:140|160:164|200:160|200:160|212:188|212:188|188:232|200:268|200:268|216:296|208:332,1,629.9999833107,2|0,0:0|0:0,0:0:0:0:
332,308,339677,2,0,B|396:260|464:320|464:320|476:268|452:216|452:216|436:160|454:119|454:119|464:88|444:52|400:36|352:64|359:113|359:113|368:140|372:188|332:220,1,629.999983310699,2|0,0:0|0:0,0:0:0:0:
232,216,342344,5,6,0:0:0:0:
217,194,342677,1,0,0:0:0:0:
206,171,343011,1,0,0:0:0:0:
198,147,343344,1,0,0:0:0:0:
194,121,343677,1,0,0:0:0:0:
194,95,344011,1,0,0:0:0:0:
198,70,344344,1,0,0:0:0:0:
205,45,344677,1,0,0:0:0:0:
116,180,345011,53,2,0:0:0:0:
130,201,345344,1,0,0:0:0:0:
141,224,345677,1,0,0:0:0:0:
149,248,346011,1,0,0:0:0:0:
153,274,346344,1,0,0:0:0:0:
153,300,346677,1,0,0:0:0:0:
149,325,347011,1,0,0:0:0:0:
142,350,347344,1,0,0:0:0:0:
64,276,347677,5,2,0:0:0:0:
88,172,348011,1,0,0:0:0:0:
180,116,348344,1,0,0:0:0:0:
284,148,348677,1,0,0:0:0:0:
388,128,349011,5,0,0:0:0:0:
316,48,349344,1,0,0:0:0:0:
208,68,349677,1,0,0:0:0:0:
176,172,350011,1,0,0:0:0:0:
220,272,350344,53,2,0:0:0:0:
164,180,350677,1,0,0:0:0:0:
228,92,351011,1,0,0:0:0:0:
336,108,351344,1,0,0:0:0:0:
376,208,351677,5,0,0:0:0:0:
352,104,352011,1,0,0:0:0:0:
408,12,352344,1,0,0:0:0:0:
480,92,352677,1,0,0:0:0:0:
460,200,353011,5,2,0:0:0:0:
372,188,353344,1,0,0:0:0:0:
296,236,353677,1,0,0:0:0:0:
272,324,354011,1,0,0:0:0:0:
272,232,354344,53,0,0:0:0:0:
228,156,354677,1,0,0:0:0:0:
140,140,355011,1,0,0:0:0:0:
76,200,355344,1,0,0:0:0:0:
140,164,355677,5,2,0:0:0:0:
168,96,356011,1,0,0:0:0:0:
152,24,356344,1,0,0:0:0:0:
80,8,356677,1,0,0:0:0:0:
132,60,357011,5,0,0:0:0:0:
200,84,357344,1,0,0:0:0:0:
268,64,357677,1,0,0:0:0:0:
320,16,358011,1,0,0:0:0:0:
312,52,358344,53,2,0:0:0:0:
304,96,358677,1,0,0:0:0:0:
316,140,359011,1,0,0:0:0:0:
352,168,359344,1,0,0:0:0:0:
380,204,359677,5,0,0:0:0:0:
380,248,360011,1,0,0:0:0:0:
364,292,360344,1,0,0:0:0:0:
328,320,360677,1,0,0:0:0:0:
284,316,361011,5,2,0:0:0:0:
256,308,361344,1,0,0:0:0:0:
228,316,361677,1,0,0:0:0:0:
208,336,362011,1,0,0:0:0:0:
208,336,362677,1,0,0:0:0:0:
192,316,363011,1,0,0:0:0:0:
192,288,363344,1,0,0:0:0:0:
72,224,363677,21,2,0:0:0:0:
72,224,363844,1,2,0:0:0:0:
204,264,364011,21,0,0:0:0:0:
211,236,364344,1,0,0:0:0:0:
204,208,364677,1,0,0:0:0:0:
256,192,365011,12,0,366677,0:0:0:0:
