osu file format v14

[General]
AudioFilename: Porter Robinson-Divinity (feat. Amy Millan).mp3
AudioLeadIn: 0
PreviewTime: 277345
Countdown: 0
SampleSet: Soft
StackLeniency: 0.7
Mode: 0
LetterboxInBreaks: 1
WidescreenStoryboard: 1

[Editor]
Bookmarks: 21345,42678,64012,85345,106678,128012,149345,170678,192012,210678,213345,234678,256012,277345,298678,317345,320012,341345,362678
DistanceSpacing: 1.3
BeatDivisor: 4
GridSize: 4
TimelineZoom: 1.7

[Metadata]
Title:Divinity (feat. Amy Millan)
TitleUnicode:Divinity (feat. Amy Millan)
Artist:Porter Robinson
ArtistUnicode:Porter Robinson
Creator:Maeglwn
Version:Radiance
Source:
Tags:synthpop dream pop dance static noise bird tess hootowlstar
BeatmapID:648533
BeatmapSetID:269633

[Difficulty]
HPDrainRate:6
CircleSize:4
OverallDifficulty:8
ApproachRate:8
SliderMultiplier:3.29999990463257
SliderTickRate:2

[Events]
//Background and Video events
0,0,"46641707_p0.jpg",0,0
//Break Periods
2,64072,84655
2,210938,212655
2,319605,320655
//Storyboard Layer 0 (Background)
//Storyboard Layer 1 (Fail)
//Storyboard Layer 2 (Pass)
//Storyboard Layer 3 (Foreground)
//Storyboard Sound Samples

[TimingPoints]
72,666.666666666667,4,2,0,70,1,0
72,-133.333333333333,4,2,0,70,0,0
5405,-117.647058823529,4,2,0,70,0,0
10405,-111.111111111111,4,2,0,70,0,0
16072,-105.263157894737,4,2,0,70,0,0
21405,-200,4,2,0,70,0,0
22072,-100,4,2,0,70,0,0
22572,-200,4,2,0,70,0,0
23072,-100,4,2,0,70,0,0
24072,-200,4,2,0,70,0,0
24738,-100,4,2,0,70,0,0
25238,-200,4,2,0,70,0,0
25905,-100,4,2,0,70,0,0
26738,-200,4,2,0,70,0,0
27405,-100,4,2,0,70,0,0
27905,-200,4,2,0,70,0,0
28572,-100,4,2,0,70,0,0
32072,-200,4,2,0,70,0,0
32738,-100,4,2,0,70,0,0
33238,-200,4,2,0,70,0,0
33905,-100,4,2,0,70,0,0
34738,-200,4,2,0,70,0,0
35405,-100,4,2,0,70,0,0
35905,-200,4,2,0,70,0,0
36572,-100,4,2,0,70,0,0
37405,-200,4,2,0,70,0,0
38072,-100,4,2,0,70,0,0
38572,-200,4,2,0,70,0,0
39238,-100,4,2,0,70,0,0
42738,-200,4,2,0,70,0,0
43405,-100,4,2,0,70,0,0
43905,-200,4,2,0,70,0,0
44405,-100,4,2,0,70,0,0
45405,-200,4,2,0,70,0,0
46071,-100,4,2,0,70,0,0
46571,-200,4,2,0,70,0,0
47238,-100,4,2,0,70,0,0
48071,-200,4,2,0,70,0,0
48738,-100,4,2,0,70,0,0
49238,-200,4,2,0,70,0,0
49905,-100,4,2,0,70,0,0
53405,-200,4,2,0,70,0,0
54071,-100,4,2,0,70,0,0
54571,-200,4,2,0,70,0,0
55238,-100,4,2,0,70,0,0
56071,-200,4,2,0,70,0,0
56738,-100,4,2,0,70,0,0
57238,-200,4,2,0,70,0,0
57905,-100,4,2,0,70,0,0
58738,-200,4,2,0,70,0,0
59405,-100,4,2,0,70,0,0
59905,-200,4,2,0,70,0,0
60571,-100,4,2,0,70,0,0
85405,-105.263157894737,4,2,0,40,0,0
106738,-105.263157894737,4,2,0,55,0,0
128072,-200,4,2,0,70,0,0
168072,-200,4,2,0,5,0,0
170738,-100,4,2,0,80,0,1
172738,-133.333333333333,4,2,0,80,0,1
173405,-100,4,2,0,80,0,1
175405,-133.333333333333,4,2,0,80,0,1
176072,-100,4,2,0,80,0,1
178072,-133.333333333333,4,2,0,80,0,1
178738,-100,4,2,0,80,0,1
183405,-133.333333333333,4,2,0,80,0,1
184072,-100,4,2,0,80,0,1
186072,-133.333333333333,4,2,0,80,0,1
186738,-100,4,2,0,80,0,1
188738,-133.333333333333,4,2,0,80,0,1
191405,-100,4,2,0,80,0,0
192072,-100,4,2,0,80,0,1
192072,-100,4,2,0,80,0,1
210738,-100,4,2,0,80,0,0
210738,-100,4,2,0,80,0,0
234738,-200,4,2,0,60,0,0
256072,-133.333333333333,4,2,0,70,0,0
277405,-100,4,2,0,80,0,1
298072,-100,4,2,0,80,0,0
298738,-100,4,2,0,80,0,1
317405,-100,4,2,0,80,0,0
320072,-200,4,2,0,40,0,0
365738,-100,4,2,0,5,0,0

[Colours]
Combo1 : 192,192,192
Combo2 : 128,255,255
Combo3 : 23,128,255

[HitObjects]
64,192,72,6,0,P|116:112|188:100,1,123.750001144409,2|0,0:0|0:0,0:0:0:0:
120,260,738,2,0,P|147:290|188:304,1,61.8750005722046
192,224,1072,1,2,0:0:0:0:
284,88,1405,1,0,0:0:0:0:
348,36,1572,1,0,0:0:0:0:
408,92,1738,1,0,0:0:0:0:
440,168,1905,2,0,P|440:212|424:248,1,61.8750005722046,2|0,0:0|0:0,0:0:0:0:
368,188,2238,2,0,L|280:164,2,61.8750005722046
464,312,2738,6,0,B|424:360|424:360|352:360,1,123.750001144409,2|0,0:0|0:0,0:0:0:0:
200,355,3405,2,0,P|168:348|132:356,1,61.8750005722046
72,312,3738,1,2,0:0:0:0:
228,84,4072,2,0,L|264:144,1,61.8750005722046
324,200,4405,1,0,0:0:0:0:
364,120,4572,2,0,L|396:56,1,61.8750005722046,2|0,0:0|0:0,0:0:0:0:
436,336,5072,1,0,0:0:0:0:
400,348,5155,1,0,0:0:0:0:
360,356,5238,1,0,0:0:0:0:
320,360,5322,1,0,0:0:0:0:
280,356,5405,6,0,B|244:312|244:312|172:324|152:272,1,140.249998621941,2|0,0:0|0:0,0:0:0:0:
124,116,6072,1,0,0:0:0:0:
124,116,6238,1,0,0:0:0:0:
124,116,6405,1,2,0:0:0:0:
296,52,6738,2,0,P|332:72|352:108,1,70.1249993109703
324,184,7072,2,0,P|288:164|268:128,1,70.1249993109703,0|2,0:0|0:0,0:0:0:0:
216,244,7405,1,0,0:0:0:0:
124,186,7572,2,0,L|124:116,2,70.1249993109703
196,348,8072,6,0,B|248:360|248:360|276:324|336:340,1,140.249998621941,2|0,0:0|0:0,0:0:0:0:
396,72,8905,2,0,L|280:72,1,70.1249993109703,0|2,0:0|0:0,0:0:0:0:
396,72,9572,2,0,L|296:72,2,70.1249993109703,0|0|2,0:0|0:0|0:0,0:0:0:0:
28,328,10405,1,0,0:0:0:0:
56,296,10488,1,0,0:0:0:0:
88,264,10572,1,0,0:0:0:0:
124,292,10655,1,0,0:0:0:0:
160,260,10738,6,0,B|204:236|204:236|260:264|300:240,1,148.499991176606,2|0,0:0|0:0,0:0:0:0:
264,76,11405,2,0,P|252:120|260:164,1,74.2499955883028
340,124,11738,1,2,0:0:0:0:
464,252,12072,5,0,0:0:0:0:
412,324,12238,2,0,P|384:356|320:360,1,74.2499955883028
276,324,12572,2,0,P|304:292|368:288,1,74.2499955883028,2|0,0:0|0:0,0:0:0:0:
380,208,12905,1,0,0:0:0:0:
444,116,13072,1,0,0:0:0:0:
348,60,13238,1,0,0:0:0:0:
148,72,13405,6,0,P|108:100|88:136,1,74.2499955883028,2|0,0:0|0:0,0:0:0:0:
124,204,13738,2,0,P|164:176|184:140,1,74.2499955883028
455,208,14238,2,0,L|380:208,1,74.2499955883028,0|2,0:0|0:0,0:0:0:0:
248,328,14738,1,0,0:0:0:0:
200,252,14905,2,0,L|244:168,1,74.2499955883028
324,180,15238,2,0,L|280:264,1,74.2499955883028,2|0,0:0|0:0,0:0:0:0:
20,352,15738,1,0,0:0:0:0:
12,308,15822,1,0,0:0:0:0:
24,264,15905,1,0,0:0:0:0:
44,224,15988,1,0,0:0:0:0:
76,188,16072,6,0,B|120:152|120:152|96:96|156:52,1,156.749991284371,2|0,0:0|0:0,0:0:0:0:
304,160,16738,2,0,P|264:156|212:120,1,78.3749956421854
292,64,17072,1,2,0:0:0:0:
456,156,17405,1,0,0:0:0:0:
456,156,17572,1,0,0:0:0:0:
456,156,17738,1,0,0:0:0:0:
252,212,17905,1,2,0:0:0:0:
328,280,18072,1,0,0:0:0:0:
248,340,18238,2,0,L|132:340,2,78.3749956421854,2|0|2,0:0|0:0|0:0,0:0:0:0:
452,304,18738,6,0,P|476:260|472:224,1,78.3749956421854,2|0,0:0|0:0,0:0:0:0:
420,156,19072,2,0,P|396:200|400:236,1,78.3749956421854,2|0,0:0|0:0,0:0:0:0:
276,116,19405,2,0,L|168:116,1,78.3749956421854,2|0,0:0|0:0,0:0:0:0:
236,268,19738,2,0,L|344:268,1,78.3749956421854,2|0,0:0|0:0,0:0:0:0:
420,156,20072,2,0,P|432:108|412:60,1,78.3749956421854,2|0,0:0|0:0,0:0:0:0:
92,228,20405,2,0,P|80:276|100:324,1,78.3749956421854,2|0,0:0|0:0,0:0:0:0:
256,192,20738,5,8,0:0:0:0:
256,192,21405,6,0,B|224:124|224:124|168:124,1,123.749996423721,4|0,1:0|0:0,0:0:0:0:
148,228,22072,2,0,L|84:292,1,82.4999976158143,8|0,1:0|0:0,0:0:0:0:
148,376,22405,1,0,0:0:0:0:
256,192,22572,2,0,P|296:136|340:120,1,82.4999976158143,0|0,1:0|0:0,0:0:0:0:
392,64,23072,1,0,0:0:0:0:
404,172,23238,1,0,0:0:0:0:
306,130,23405,2,0,L|236:77,1,82.4999976158143,8|0,1:0|0:0,0:0:0:0:
199,298,23738,2,0,L|269:351,1,82.4999976158143
256,192,24072,6,0,P|224:124|244:76,1,123.749996423721,0|0,1:0|0:0,0:0:0:0:
392,24,24738,1,8,1:0:0:0:
472,104,24905,1,0,0:0:0:0:
392,184,25072,1,0,0:0:0:0:
472,256,25238,2,0,P|460:320|412:360,1,123.749996423721,0|0,1:0|0:0,0:0:0:0:
356,252,25905,1,0,0:0:0:0:
160,184,26072,2,0,L|232:272,1,82.4999976158143,8|0,1:0|0:0,0:0:0:0:
228,140,26405,2,0,L|156:52,1,82.4999976158143,0|0,0:0|0:0,0:0:0:0:
336,140,26738,6,0,P|384:140|440:200,1,123.749996423721,0|0,1:0|0:0,0:0:0:0:
316,304,27405,2,0,L|356:224,1,82.4999976158143,8|0,1:0|0:0,0:0:0:0:
424,56,27738,1,0,0:0:0:0:
353,230,27905,2,0,P|305:230|249:170,1,123.749996423721,0|0,1:0|0:0,0:0:0:0:
344,124,28572,1,0,0:0:0:0:
244,300,28738,2,0,P|216:344|172:368,1,82.4999976158143,8|0,1:0|0:0,0:0:0:0:
92,320,29072,2,0,P|120:276|164:252,1,82.4999976158143
353,230,29405,6,0,P|420:184|453:82,1,164.999995231629,0|0,1:0|1:0,0:0:0:0:
240,68,30072,1,8,1:0:0:0:
64,192,30405,1,0,1:0:0:0:
256,320,30572,1,0,1:0:0:0:
256,320,30905,1,0,1:0:0:0:
240,68,31072,1,0,1:0:0:0:
256,320,31405,2,0,B|304:272|304:272|248:184|320:108,1,247.499992847443,8|0,1:0|0:0,0:0:0:0:
432,196,32072,6,0,P|456:260|504:296,1,123.749996423721,0|0,1:0|0:0,0:0:0:0:
396,328,32738,1,8,1:0:0:0:
340,236,32905,1,0,0:0:0:0:
276,320,33072,1,0,0:0:0:0:
216,240,33238,2,0,P|164:192|172:116,1,123.749996423721,0|0,1:0|0:0,0:0:0:0:
268,140,33905,1,0,0:0:0:0:
112,276,34072,2,0,L|40:344,1,82.4999976158143,8|0,1:0|0:0,0:0:0:0:
152,376,34405,2,0,L|224:308,1,82.4999976158143
376,184,34738,6,0,P|376:240|324:296,1,123.749996423721,0|0,1:0|0:0,0:0:0:0:
232,176,35405,2,0,L|308:220,1,82.4999976158143,8|0,1:0|0:0,0:0:0:0:
304,108,35738,1,0,0:0:0:0:
408,84,35905,2,0,P|468:124|476:192,1,123.749996423721,0|0,1:0|0:0,0:0:0:0:
440,272,36572,1,0,0:0:0:0:
372,356,36738,2,0,L|264:356,1,82.4999976158143,8|0,1:0|0:0,0:0:0:0:
224,272,37072,2,0,L|332:272,1,82.4999976158143
408,84,37405,6,0,P|352:48|276:56,1,123.749996423721,0|0,1:0|0:0,0:0:0:0:
256,148,38072,1,8,1:0:0:0:
408,84,38238,1,0,0:0:0:0:
256,148,38405,1,0,0:0:0:0:
360,176,38572,2,0,P|412:216|436:292,1,123.749996423721,0|0,1:0|0:0,0:0:0:0:
252,344,39238,1,0,0:0:0:0:
160,292,39405,1,8,1:0:0:0:
208,36,39572,1,0,0:0:0:0:
108,196,39738,1,0,0:0:0:0:
292,196,39905,1,0,0:0:0:0:
328,96,40072,6,0,P|384:144|388:240,1,164.999995231629,0|0,1:0|0:0,0:0:0:0:
212,364,40738,1,8,1:0:0:0:
212,364,40905,1,0,0:0:0:0:
116,312,41072,1,0,0:0:0:0:
208,248,41238,2,0,P|288:176|376:192,1,164.999995231629,0|0,1:0|0:0,0:0:0:0:
316,284,41738,1,0,0:0:0:0:
176,76,41905,1,0,0:0:0:0:
436,76,42072,1,8,1:0:0:0:
256,192,42738,6,0,B|288:260|288:260|344:260,1,123.749996423721,4|0,1:0|0:0,0:0:0:0:
364,156,43405,2,0,L|428:92,1,82.4999976158143,8|0,1:0|0:0,0:0:0:0:
364,8,43738,1,0,0:0:0:0:
256,192,43905,2,0,P|216:248|172:264,1,82.4999976158143,0|0,1:0|0:0,0:0:0:0:
120,320,44405,1,0,0:0:0:0:
108,212,44571,1,0,0:0:0:0:
206,254,44738,2,0,L|276:307,1,82.4999976158143,8|0,1:0|0:0,0:0:0:0:
313,86,45071,2,0,L|243:33,1,82.4999976158143
256,192,45405,6,0,P|288:260|268:308,1,123.749996423721,0|0,1:0|0:0,0:0:0:0:
116,352,46071,1,8,1:0:0:0:
48,268,46238,1,0,0:0:0:0:
132,200,46405,1,0,0:0:0:0:
64,120,46572,2,0,P|76:56|124:16,1,123.749996423721,0|0,1:0|0:0,0:0:0:0:
176,112,47238,1,0,0:0:0:0:
352,200,47405,2,0,L|280:112,1,82.4999976158143,8|0,1:0|0:0,0:0:0:0:
284,244,47738,2,0,L|356:332,1,82.4999976158143,0|0,0:0|0:0,0:0:0:0:
176,244,48072,6,0,P|128:244|72:188,1,123.749996423721,0|0,1:0|0:0,0:0:0:0:
196,80,48738,2,0,L|156:160,1,82.4999976158143,8|0,1:0|0:0,0:0:0:0:
88,328,49071,1,0,0:0:0:0:
159,154,49238,2,0,P|207:154|263:214,1,123.749996423721,0|0,1:0|0:0,0:0:0:0:
168,260,49905,1,0,0:0:0:0:
268,84,50071,2,0,P|296:40|340:16,1,82.4999976158143,8|0,1:0|0:0,0:0:0:0:
420,64,50405,2,0,P|392:108|348:132,1,82.4999976158143
159,154,50738,6,0,P|83:214|59:302,1,164.999995231629,0|0,1:0|1:0,0:0:0:0:
384,196,51405,2,0,L|312:196,7,41.2499988079071,0|0|0|0|0|0|0|0,3:0|3:0|3:0|3:0|3:0|3:0|3:0|3:0,0:0:0:0:
392,292,52072,1,0,3:0:0:0:
368,324,52183,1,0,3:0:0:0:
340,348,52294,1,0,3:0:0:0:
304,360,52405,1,0,3:0:0:0:
104,192,52572,1,0,3:0:0:0:
256,64,52738,2,0,B|208:116|208:116|256:212|184:296,1,247.499992847443,0|0,1:0|0:0,0:0:0:0:
104,192,53405,6,0,P|80:128|32:92,1,123.749996423721,0|0,1:0|0:0,0:0:0:0:
116,20,54071,1,8,1:0:0:0:
188,100,54238,1,0,0:0:0:0:
256,16,54405,1,0,0:0:0:0:
328,96,54571,2,0,P|380:144|372:220,1,123.749996423721,0|0,1:0|0:0,0:0:0:0:
256,196,55238,1,0,0:0:0:0:
432,68,55405,2,0,L|504:0,1,82.4999976158143,8|0,1:0|0:0,0:0:0:0:
348,36,55738,2,0,L|276:104,1,82.4999976158143
136,200,56071,6,0,P|136:144|184:88,1,123.749996423721,0|0,1:0|0:0,0:0:0:0:
280,208,56738,2,0,L|204:164,1,82.4999976158143,8|0,1:0|0:0,0:0:0:0:
208,276,57071,1,0,0:0:0:0:
104,300,57238,2,0,P|44:260|36:192,1,123.749996423721,0|0,1:0|0:0,0:0:0:0:
72,112,57905,1,0,0:0:0:0:
140,28,58071,2,0,L|248:28,1,82.4999976158143,8|0,1:0|0:0,0:0:0:0:
288,112,58405,2,0,L|180:112,1,82.4999976158143
104,300,58738,6,0,P|160:336|236:328,1,123.749996423721,0|0,1:0|0:0,0:0:0:0:
256,236,59405,1,8,1:0:0:0:
104,300,59571,1,0,0:0:0:0:
256,236,59738,1,0,0:0:0:0:
152,208,59905,2,0,P|100:168|76:92,1,123.749996423721,0|0,1:0|0:0,0:0:0:0:
260,40,60571,1,0,0:0:0:0:
312,132,60738,1,8,1:0:0:0:
204,132,60905,1,0,0:0:0:0:
256,236,61072,1,0,0:0:0:0:
204,132,61238,1,0,0:0:0:0:
60,80,61405,6,0,P|32:124|40:160,1,82.4999976158143,2|0,1:2|0:0,0:0:0:0:
92,228,61739,2,0,P|116:192|112:148,1,82.4999976158143,2|0,0:0|0:0,0:0:0:0:
236,268,62072,2,0,L|352:268,1,82.4999976158143,2|0,0:0|0:0,0:0:0:0:
276,116,62405,2,0,L|176:116,1,82.4999976158143,2|0,0:0|0:0,0:0:0:0:
92,228,62739,2,0,P|80:272|100:324,1,82.4999976158143,2|0,0:0|0:0,0:0:0:0:
420,156,63072,2,0,P|432:108|416:60,1,82.4999976158143,2|0,0:0|0:0,0:0:0:0:
256,192,63405,5,0,0:0:0:0:
132,264,85405,5,2,0:0:0:0:
316,224,85738,2,0,B|392:200|392:200|444:136,1,156.749991284371
284,32,86405,1,2,0:0:0:0:
220,208,86738,2,0,P|244:292|316:324,1,156.749991284371
488,288,87405,1,2,0:0:0:0:
360,148,87738,1,0,0:0:0:0:
88,92,88072,6,0,B|80:200|80:200|104:248,1,156.749991284371,2|0,0:0|0:0,0:0:0:0:
256,348,88738,1,0,0:0:0:0:
410,243,89072,2,0,B|432:200|432:200|424:92,1,156.749991284371,2|0,0:0|0:0,0:0:0:0:
256,12,89738,1,0,0:0:0:0:
160,176,90072,1,2,0:0:0:0:
296,308,90405,1,0,0:0:0:0:
488,144,90738,5,2,0:0:0:0:
312,80,91072,2,0,B|256:108|208:80|208:80|144:88,1,156.749991284371
36,228,91738,1,2,0:0:0:0:
208,300,92072,2,0,B|320:328|320:328|364:312,1,156.749991284371
392,56,92738,2,0,P|336:116|328:204,1,156.749991284371,2|0,0:0|0:0,0:0:0:0:
480,372,93405,6,0,P|494:291|453:213,1,156.749991284371,2|0,0:0|0:0,0:0:0:0:
392,56,94072,1,0,0:0:0:0:
204,80,94405,1,2,0:0:0:0:
64,296,94738,5,2,0:0:0:0:
248,336,95072,1,0,0:0:0:0:
468,128,95405,1,2,0:0:0:0:
484,92,95572,1,0,0:0:0:0:
488,52,95738,1,2,0:0:0:0:
304,188,96072,5,2,0:0:0:0:
144,284,96405,2,0,P|64:304|0:264,1,156.749991284371
196,56,97072,1,2,0:0:0:0:
304,188,97405,2,0,P|340:264|312:352,1,156.749991284371
80,208,98072,2,0,B|48:92|48:92|68:44,1,156.749991284371,2|0,0:0|0:0,0:0:0:0:
304,36,98738,5,2,0:0:0:0:
420,184,99072,2,0,P|456:252|432:336,1,156.749991284371
132,300,99738,1,2,0:0:0:0:
268,168,100072,2,0,P|348:112|424:100,1,156.749991284371
405,323,100738,2,0,P|329:303|268:255,1,156.749991284371,2|0,0:0|0:0,0:0:0:0:
92,36,101405,6,0,P|124:112|88:192,1,156.749991284371,2|0,0:0|0:0,0:0:0:0:
20,348,102072,1,0,0:0:0:0:
192,268,102405,2,0,P|268:240|344:264,1,156.749991284371,2|0,0:0|0:0,0:0:0:0:
496,368,103072,1,0,0:0:0:0:
436,80,103405,1,2,0:0:0:0:
360,364,103738,1,0,0:0:0:0:
508,148,104072,6,0,P|432:176|348:124,1,156.749991284371,2|0,0:0|0:0,0:0:0:0:
256,16,104738,1,0,0:0:0:0:
145,147,105072,2,0,P|75:176|4:148,1,156.749991284371,2|0,0:0|0:0,0:0:0:0:
196,76,105738,2,0,P|232:132|188:224,1,156.749991284371,0|2,0:0|0:0,0:0:0:0:
68,344,106405,1,0,0:0:0:0:
248,280,106738,6,0,B|305:230|459:235|483:316|408:411|292:374|268:293|393:203|468:212,1,470.249973853112,2|0,0:0|0:0,0:0:0:0:
468,212,108072,1,2,0:0:0:0:
388,172,108405,1,0,0:0:0:0:
16,84,108738,1,2,0:0:0:0:
64,160,109072,1,0,0:0:0:0:
400,352,109405,6,0,B|364:296|352:244|352:244|372:196,1,156.749991284371,2|0,0:0|0:0,0:0:0:0:
456,44,110072,1,0,0:0:0:0:
292,132,110405,2,0,P|224:160|128:124,1,156.749991284371,2|0,0:0|0:0,0:0:0:0:
0,20,111072,1,0,0:0:0:0:
80,192,111405,1,0,0:0:0:0:
0,364,111738,1,0,0:0:0:0:
212,236,112072,6,0,B|236:201|399:196|472:278|360:435|191:343|220:238|369:170|406:191,1,470.249973853112,2|0,0:0|0:0,0:0:0:0:
484,216,113405,1,2,0:0:0:0:
408,264,113738,1,0,0:0:0:0:
56,320,114072,1,2,0:0:0:0:
140,288,114405,1,0,0:0:0:0:
432,96,114738,6,0,P|360:132|256:112,1,156.749991284371,2|0,0:0|0:0,0:0:0:0:
108,64,115405,1,0,0:0:0:0:
196,232,115738,1,2,0:0:0:0:
80,380,116072,2,0,B|24:320|24:320|16:232,1,156.749991284371
192,40,116738,2,0,B|248:100|248:100|256:188,1,156.749991284371
236,348,117405,6,0,P|268:204|416:176,1,313.499982568741,2|0,0:0|0:0,0:0:0:0:
388,328,118405,1,0,0:0:0:0:
156,364,118738,2,0,B|112:300|112:300|100:220,1,156.749991284371,2|0,0:0|0:0,0:0:0:0:
124,56,119405,1,2,0:0:0:0:
388,328,119738,1,0,0:0:0:0:
272,180,120072,5,2,0:0:0:0:
88,136,120405,2,0,B|100:212|100:212|148:240|140:312,1,156.749991284371
256,376,121072,1,2,0:0:0:0:
371,277,121405,2,0,B|364:240|412:212|412:212|424:136,1,156.749991284371
476,320,122072,1,0,0:0:0:0:
272,280,122405,1,0,0:0:0:0:
132,124,122738,5,2,0:0:0:0:
316,80,123072,2,0,P|384:120|424:344,1,313.499982568741,2|0,0:0|0:0,0:0:0:0:
268,256,124072,1,0,0:0:0:0:
116,148,124405,2,0,B|32:100|32:100|0:132|-32:128,2,156.749991284371,2|0|0,0:0|0:0|0:0,0:0:0:0:
268,256,125405,5,2,0:0:0:0:
428,334,125738,2,0,P|428:182|316:80,1,313.499982568741,2|0,0:0|0:0,0:0:0:0:
132,116,126738,1,0,0:0:0:0:
76,296,127072,2,0,B|112:244|180:264|208:216,1,156.749991284371,2|0,0:0|0:0,0:0:0:0:
272,156,127738,1,0,0:0:0:0:
464,296,128072,6,0,P|420:360|356:228,1,288.74999165535
420,176,129405,2,0,L|396:48,1,123.749996423721,2|0,0:0|0:0,0:0:0:0:
320,12,130072,2,0,L|297:133,1,123.749996423721,2|0,0:0|0:0,0:0:0:0:
240,212,130738,6,0,P|220:172|224:88,1,123.749996423721,2|0,0:0|0:0,0:0:0:0:
324,248,131405,2,0,P|329:309|305:365,1,123.749996423721,2|0,0:0|0:0,0:0:0:0:
216,340,132072,2,0,P|140:340|52:360,3,164.999995231629
408,372,134738,6,0,P|424:320|392:232,1,123.749996423721,2|0,0:0|0:0,0:0:0:0:
364,184,135405,2,0,P|347:125|363:65,1,123.749996423721,2|0,0:0|0:0,0:0:0:0:
436,44,136072,2,0,L|288:28,1,123.749996423721,2|0,0:0|0:0,0:0:0:0:
192,108,136738,2,0,L|248:100,1,41.2499988079071,2|0,0:0|0:0,0:0:0:0:
288,180,137072,2,0,P|411:131|372:258,1,329.999990463257,2|0,0:0|0:0,0:0:0:0:
192,360,138738,6,0,L|16:348,2,164.999995231629,0|0|2,0:0|0:0|0:0,0:0:0:0:
280,324,140405,2,0,L|372:312,2,82.4999976158143,0|2|0,0:0|0:0|0:0,0:0:0:0:
184,260,141405,2,0,P|168:212|200:132,1,123.749996423721,2|0,0:0|0:0,0:0:0:0:
280,100,142072,2,0,L|220:88,1,41.2499988079071,2|0,0:0|0:0,0:0:0:0:
280,192,142405,2,0,P|344:164|208:40,1,329.999990463257,2|0,0:0|0:0,0:0:0:0:
144,68,144072,5,2,0:0:0:0:
144,68,144405,1,2,0:0:0:0:
380,144,145072,1,0,0:0:0:0:
96,216,145738,1,2,0:0:0:0:
284,296,146405,1,0,0:0:0:0:
216,384,146738,5,2,0:0:0:0:
104,372,147072,2,0,P|80:320|104:204,3,164.999995231629,2|2|2|0,0:0|0:0|0:0|0:0,0:0:0:0:
172,152,149405,6,0,B|268:140|224:180|336:156,1,164.999995231629
408,120,150405,1,0,0:0:0:0:
432,200,150738,2,0,P|440:236|444:352,1,123.749996423721,2|0,0:0|0:0,0:0:0:0:
316,368,151405,2,0,P|318:306|330:245,1,123.749996423721,2|0,0:0|0:0,0:0:0:0:
404,204,152072,2,0,L|268:188,1,123.749996423721,2|0,0:0|0:0,0:0:0:0:
176,128,152738,2,0,L|236:116,1,41.2499988079071,2|0,0:0|0:0,0:0:0:0:
140,224,153072,2,0,P|104:196|256:56,1,329.999990463257,2|0,0:0|0:0,0:0:0:0:
312,104,154738,6,0,P|372:104|468:48,2,164.999995231629,0|0|2,0:0|0:0|0:0,0:0:0:0:
172,124,156405,2,0,P|124:124|80:136,2,82.4999976158143,0|2|0,0:0|0:0|0:0,0:0:0:0:
280,200,157405,6,0,P|340:200|436:144,1,164.999995231629,2|2,0:0|0:0,0:0:0:0:
204,148,158405,2,0,P|192:192|192:236,1,82.4999976158143
340,360,159072,2,0,P|338:318|327:279,1,82.4999976158143
256,64,159738,1,0,0:0:0:0:
256,192,160072,12,0,168072,0:0:0:0:
120,371,170072,5,0,1:0:0:0:
120,371,170738,6,0,B|146:275|90:305|124:188,1,164.999995231629,4|0,1:0|0:0,0:0:0:0:
163,121,171238,1,0,0:0:0:0:
230,195,171405,2,0,P|281:190|329:174,1,82.4999976158143,8|0,1:2|0:0,0:0:0:0:
376,43,171738,2,0,P|325:48|277:64,1,82.4999976158143
63,155,172072,2,0,B|53:115|53:115|65:62,1,82.4999976158143,0|0,1:0|0:0,0:0:0:0:
230,195,172405,2,0,B|240:235|240:235|228:288,1,82.4999976158143
70,352,172738,6,0,B|49:375|49:375|39:346,1,61.8750005722046,8|0,1:2|0:0,0:0:0:0:
111,270,173072,2,0,B|121:241|121:241|141:264,1,61.8750005722046
221,340,173405,6,0,P|292:334|388:352,1,164.999995231629,0|0,1:0|0:0,0:0:0:0:
490,370,173905,1,0,0:0:0:0:
414,262,174072,2,0,P|403:220|394:158,1,82.4999976158143,8|0,1:2|0:0,0:0:0:0:
512,47,174405,2,0,P|504:87|494:127,1,82.4999976158143
289,366,174738,2,0,L|257:195,1,164.999995231629,0|0,1:0|0:0,0:0:0:0:
241,85,175238,1,0,0:0:0:0:
154,235,175405,6,0,B|137:260|137:260|123:221,1,61.8750005722046,8|0,1:2|0:0,0:0:0:0:
334,96,175738,2,0,B|351:71|351:71|365:110,1,61.8750005722046
66,350,176072,6,0,L|39:183,1,164.999995231629,0|0,1:0|0:0,0:0:0:0:
39,187,176572,1,0,0:0:0:0:
159,209,176738,2,0,P|241:214|319:161,1,164.999995231629,8|0,1:2|0:0,0:0:0:0:
452,63,177238,1,0,0:0:0:0:
417,145,177405,2,0,P|404:188|397:239,1,82.4999976158143,0|0,1:0|0:0,0:0:0:0:
512,366,177738,2,0,P|505:325|493:285,1,82.4999976158143
319,89,178072,6,0,L|252:82,1,61.8750005722046,8|0,1:2|0:0,0:0:0:0:
63,190,178405,2,0,L|130:183,1,61.8750005722046
440,338,178738,6,0,P|472:277|417:182,1,164.999995231629,0|0,1:0|0:0,0:0:0:0:
327,137,179238,1,0,0:0:0:0:
304,277,179405,2,0,P|350:266|416:263,1,82.4999976158143,8|0,1:2|0:0,0:0:0:0:
491,124,179738,2,0,P|445:113|379:110,1,82.4999976158143
157,116,180072,5,0,1:0:0:0:
229,195,180238,1,0,0:0:0:0:
98,371,180405,2,0,P|85:324|85:286,1,82.4999976158143
263,112,180738,5,8,1:2:0:0:
334,202,180905,1,0,0:0:0:0:
184,352,181072,2,0,P|196:305|215:271,1,82.4999976158143
357,305,181405,6,0,P|412:309|500:225,1,164.999995231629,0|0,1:0|0:0,0:0:0:0:
493,243,181905,1,0,0:0:0:0:
268,369,182072,2,0,L|237:197,1,164.999995231629,8|0,1:2|0:0,0:0:0:0:
219,87,182572,1,0,0:0:0:0:
333,134,182738,2,0,B|344:177|344:177|337:227,1,82.4999976158143,0|0,1:0|0:0,0:0:0:0:
144,360,183072,2,0,B|133:317|133:317|140:267,1,82.4999976158143
294,63,183405,6,0,B|309:37|309:37|337:56,1,61.8750005722046,8|0,1:2|0:0,0:0:0:0:
179,172,183738,2,0,B|152:189|152:189|137:163,1,61.8750005722046
320,363,184072,6,0,P|328:287|260:222,1,164.999995231629,0|0,1:0|0:0,0:0:0:0:
180,174,184572,1,0,0:0:0:0:
142,335,184738,2,0,P|207:315|246:313,1,82.4999976158143,8|0,1:2|0:0,0:0:0:0:
479,252,185072,2,0,P|440:237|399:230,1,82.4999976158143
84,143,185405,2,0,B|71:185|71:185|84:241,1,82.4999976158143,0|0,1:0|0:0,0:0:0:0:
320,363,185738,2,0,B|328:325|328:325|315:283,1,82.4999976158143
228,82,186072,6,0,L|213:23,1,61.8750005722046,8|0,1:2|0:0,0:0:0:0:
322,175,186405,2,0,L|337:116,1,61.8750005722046
148,361,186738,6,0,P|114:290|141:213,1,164.999995231629,0|0,1:0|0:0,0:0:0:0:
266,223,187238,1,0,0:0:0:0:
200,283,187405,2,0,L|16:297,1,164.999995231629,8|0,1:2|0:0,0:0:0:0:
224,141,187905,1,0,0:0:0:0:
266,222,188072,2,0,P|282:268|290:313,1,82.4999976158143,0|0,1:0|0:0,0:0:0:0:
133,156,188405,2,0,P|141:115|155:76,1,82.4999976158143
259,23,188738,6,0,B|284:3|284:3|303:32,1,61.8750005722046,8|0,1:2|0:0,0:0:0:0:
73,235,189072,2,0,B|56:259|56:259|31:239,1,61.8750005722046
196,292,189405,5,0,1:0:0:0:
256,192,189572,12,0,191405,0:0:0:0:
216,164,191738,5,0,0:0:0:0:
216,164,192072,6,0,P|296:160|360:96,1,164.999995231629,4|0,1:0|0:0,0:0:0:0:
192,36,192572,1,0,0:0:0:0:
136,104,192738,2,0,P|120:144|116:192,1,82.4999976158143,8|0,1:2|0:0,0:0:0:0:
336,340,193072,2,0,P|331:299|315:261,1,82.4999976158143
216,164,193405,1,0,1:0:0:0:
168,248,193572,1,0,0:0:0:0:
424,376,193738,2,0,P|436:332|392:208,1,164.999995231629,0|8,0:0|1:2,0:0:0:0:
236,72,194238,2,0,P|184:64|148:64,2,82.4999976158143
104,308,194738,6,0,P|84:252|164:160,1,164.999995231629,0|0,1:0|0:0,0:0:0:0:
260,112,195238,1,0,0:0:0:0:
257,253,195405,2,0,P|217:247|176:248,1,82.4999976158143,8|0,1:2|0:0,0:0:0:0:
336,344,195738,2,0,P|377:344|417:338,1,82.4999976158143
484,192,196072,2,0,B|384:172|424:216|316:192,1,164.999995231629,0|0,1:0|0:0,0:0:0:0:
216,116,196572,1,0,0:0:0:0:
152,256,196738,2,0,L|140:212,2,41.2499988079071,8|0|0,1:2|0:0|0:0,0:0:0:0:
264,332,197072,2,0,L|276:288,2,41.2499988079071
68,364,197405,6,0,P|40:312|60:200,1,164.999995231629,0|0,1:0|0:0,0:0:0:0:
53,210,197905,1,0,0:0:0:0:
152,140,198072,2,0,B|252:120|204:164|324:144,1,164.999995231629,8|0,1:2|0:0,0:0:0:0:
404,72,198572,1,0,0:0:0:0:
416,184,198738,2,0,P|400:232|392:292,1,82.4999976158143,0|0,1:0|0:0,0:0:0:0:
292,368,199072,2,0,P|283:327|270:288,1,82.4999976158143
200,184,199405,1,8,1:2:0:0:
108,256,199572,2,0,P|64:256|20:264,2,82.4999976158143
396,368,200072,6,0,L|360:200,1,164.999995231629,0|0,1:0|0:0,0:0:0:0:
361,206,200572,1,0,0:0:0:0:
452,100,200738,2,0,B|464:140|464:140|456:184,1,82.4999976158143,8|0,1:2|0:0,0:0:0:0:
244,316,201072,2,0,B|236:275|236:275|248:235,1,82.4999976158143
300,120,201405,2,0,B|204:104|248:148|132:120,1,164.999995231629,0|0,1:0|0:0,0:0:0:0:
137,121,201905,1,0,0:0:0:0:
364,184,202072,2,0,P|384:128|320:40,1,164.999995231629,8|0,1:2|0:0,0:0:0:0:
300,120,202572,1,0,0:0:0:0:
64,364,202738,6,0,B|36:328|24:288|24:288|32:252|72:204,1,164.999995231629,0|0,1:0|0:0,0:0:0:0:
164,156,203238,1,0,0:0:0:0:
204,296,203405,2,0,P|148:288|104:288,1,82.4999976158143,8|0,1:2|0:0,0:0:0:0:
288,352,203738,2,0,P|344:344|388:344,1,82.4999976158143
456,372,204072,2,0,P|452:316|364:260,1,164.999995231629,0|0,1:0|0:0,0:0:0:0:
196,304,204572,1,0,0:0:0:0:
284,368,204738,2,0,L|292:328,2,41.2499988079071,8|0|0,1:2|0:0|0:0,0:0:0:0:
232,232,205072,2,0,L|224:192,2,41.2499988079071
284,124,205405,6,0,P|216:108|136:156,1,164.999995231629,0|0,1:0|0:0,0:0:0:0:
72,260,205905,1,0,0:0:0:0:
176,332,206072,2,0,P|244:348|324:300,1,164.999995231629,8|0,1:2|0:0,0:0:0:0:
384,204,206572,1,0,0:0:0:0:
424,288,206738,2,0,P|436:328|444:376,1,82.4999976158143,0|0,1:0|0:0,0:0:0:0:
284,168,207072,2,0,P|291:127|303:87,1,82.4999976158143
400,48,207405,2,0,L|440:36,2,41.2499988079071,8|0|0,1:2|0:0|0:0,0:0:0:0:
464,140,207738,2,0,L|504:128,2,41.2499988079071
172,288,208072,6,0,P|148:244|160:128,1,164.999995231629,0|0,1:0|0:0,0:0:0:0:
256,40,208572,1,0,0:0:0:0:
354,132,208738,2,0,P|370:212|340:288,1,164.999995231629,8|0,1:2|0:0,0:0:0:0:
256,360,209238,1,0,0:0:0:0:
172,288,209405,2,0,P|136:288|76:300,1,82.4999976158143,0|0,1:0|0:0,0:0:0:0:
328,236,209738,2,0,P|364:236|424:248,1,82.4999976158143
168,152,210072,2,0,P|132:152|72:164,1,82.4999976158143,8|0,1:2|0:0,0:0:0:0:
324,100,210405,2,0,P|360:100|420:112,1,82.4999976158143
504,176,210738,5,2,2:0:0:0:
92,124,213405,5,4,0:0:0:0:
188,156,213572,1,0,0:0:0:0:
420,260,213738,1,0,0:0:0:0:
324,228,213905,1,0,0:0:0:0:
188,156,214072,2,0,B|180:112|180:112|192:72,1,82.4999976158143,8|0,0:0|0:0,0:0:0:0:
324,8,214405,2,0,B|332:52|332:52|320:92,1,82.4999976158143
232,236,214738,5,2,0:0:0:0:
164,308,214905,1,0,0:0:0:0:
68,288,215072,1,0,0:0:0:0:
52,192,215238,1,0,0:0:0:0:
120,120,215405,2,0,B|166:66|218:100|264:47,1,164.999995231629,8|0,0:0|0:0,0:0:0:0:
464,48,216072,6,0,P|504:112|452:200,1,164.999995231629,2|0,0:0|0:0,0:0:0:0:
372,204,216572,1,0,0:0:0:0:
284,172,216738,2,0,P|340:115|420:124,1,164.999995231629,8|0,0:0|0:0,0:0:0:0:
464,316,217405,5,2,0:0:0:0:
368,340,217572,1,0,0:0:0:0:
268,332,217738,2,0,B|224:324|224:324|184:296,1,82.4999976158143
88,192,218072,1,8,0:0:0:0:
184,172,218238,1,0,0:0:0:0:
284,172,218405,2,0,P|340:184|380:208,1,82.4999976158143
368,340,218738,6,0,P|336:296|320:260,1,82.4999976158143,2|0,0:0|0:0,0:0:0:0:
239,102,219072,2,0,P|265:135|284:172,1,82.4999976158143
224,280,219405,1,8,0:0:0:0:
132,316,219572,1,0,0:0:0:0:
0,256,219738,1,0,0:0:0:0:
68,184,219905,1,0,0:0:0:0:
239,102,220072,5,2,0:0:0:0:
336,88,220238,1,0,0:0:0:0:
472,164,220405,1,8,0:0:0:0:
380,200,220572,1,0,0:0:0:0:
280,248,220738,2,0,B|236:272|168:216|120:244,1,164.999995231629,8|0,0:0|0:0,0:0:0:0:
368,316,221405,6,0,P|392:244|352:164,1,164.999995231629,2|0,0:0|0:0,0:0:0:0:
272,116,221905,1,0,0:0:0:0:
176,92,222072,1,8,0:0:0:0:
368,316,222405,1,0,0:0:0:0:
80,172,222738,5,2,0:0:0:0:
172,212,222905,1,0,0:0:0:0:
264,180,223072,2,0,L|344:160,1,82.4999976158143
480,64,223405,1,8,0:0:0:0:
388,24,223572,1,0,0:0:0:0:
296,56,223738,2,0,L|216:76,1,82.4999976158143
172,212,224072,6,0,L|120:288,1,82.4999976158143,2|0,0:0|0:0,0:0:0:0:
160,372,224405,1,0,0:0:0:0:
256,344,224572,1,0,0:0:0:0:
372,240,224738,2,0,P|380:184|368:140,1,82.4999976158143,8|0,0:0|0:0,0:0:0:0:
300,96,225072,1,0,0:0:0:0:
280,192,225238,1,0,0:0:0:0:
372,332,225405,5,2,0:0:0:0:
464,292,225572,1,0,0:0:0:0:
460,192,225738,1,0,0:0:0:0:
396,116,225905,1,0,0:0:0:0:
300,96,226072,2,0,B|248:64|192:124|140:96,1,164.999995231629,8|0,0:0|0:0,0:0:0:0:
319,258,226738,6,0,P|369:193|396:116,1,164.999995231629,2|0,0:0|0:0,0:0:0:0:
364,20,227238,1,0,0:0:0:0:
300,96,227405,2,0,B|248:124|192:68|140:96,1,164.999995231629,8|0,0:0|0:0,0:0:0:0:
4,296,228072,5,2,0:0:0:0:
96,336,228238,1,0,0:0:0:0:
196,336,228405,2,0,B|240:324|240:324|272:300,1,82.4999976158143
320,160,228738,1,8,0:0:0:0:
228,120,228904,1,0,0:0:0:0:
128,120,229071,2,0,B|84:132|84:132|52:156,1,82.4999976158143
96,336,229405,6,0,P|124:308|132:248,1,82.4999976158143,2|0,0:0|0:0,0:0:0:0:
166,51,229738,2,0,P|138:80|128:120,1,82.4999976158143
196,336,230072,2,0,P|240:348|304:336,1,82.4999976158143,8|0,0:0|0:0,0:0:0:0:
500,264,230405,2,0,P|456:252|392:264,1,82.4999976158143
196,336,230738,5,2,0:0:0:0:
96,336,230905,1,0,0:0:0:0:
16,276,231072,1,0,0:0:0:0:
0,180,231238,1,0,0:0:0:0:
100,60,231405,2,0,B|144:16|216:56|256:16,1,164.999995231629,8|0,0:0|0:0,0:0:0:0:
256,192,232072,1,4,0:0:0:0:
256,192,232238,12,2,234738,0:0:0:0:
60,72,235072,6,0,P|100:80|164:64,1,82.4999976158143,0|0,0:0|3:0,0:0:0:0:
204,20,235738,1,0,0:0:0:0:
280,56,236072,2,0,P|296:112|280:160,1,82.4999976158143,2|0,0:0|0:0,0:0:0:0:
232,244,236738,2,0,P|216:282|219:322,1,82.4999976158143,0|0,3:0|0:0,0:0:0:0:
308,207,237405,6,0,P|244:159|164:191,1,164.999995231629,2|0,0:0|3:0,0:0:0:0:
118,250,238405,1,0,0:0:0:0:
58,194,238738,2,0,B|50:154|50:154|58:106,1,82.4999976158143,2|0,0:0|0:0,0:0:0:0:
133,9,239405,2,0,B|141:49|141:49|134:90,1,82.4999976158143,0|0,3:0|0:0,0:0:0:0:
56,112,240072,6,0,L|225:101,1,164.999995231629,2|0,0:0|3:0,0:0:0:0:
294,62,241072,1,0,0:0:0:0:
364,108,241405,2,0,P|438:133|500:83,1,164.999995231629,2|0,0:0|3:0,0:0:0:0:
424,53,242405,1,0,0:0:0:0:
363,107,242738,6,0,L|369:277,1,164.999995231629,2|0,0:0|3:0,0:0:0:0:
328,344,243738,2,0,B|246:354|246:354|164:324,1,164.999995231629,2|0,0:0|0:0,0:0:0:0:
120,256,244738,2,0,P|79:251|38:257,1,82.4999976158143,0|0,3:0|0:0,0:0:0:0:
177,319,245405,6,0,P|201:277|149:177,1,164.999995231629,2|0,0:0|3:0,0:0:0:0:
120,256,246405,1,0,0:0:0:0:
112,256,246738,2,0,L|29:259,1,82.4999976158143,2|0,0:0|0:0,0:0:0:0:
132,164,247405,2,0,L|214:167,1,82.4999976158143,0|0,3:0|0:0,0:0:0:0:
292,192,248072,6,0,P|372:208|432:148,1,164.999995231629,2|0,0:0|3:0,0:0:0:0:
240,128,249072,2,0,P|212:172|260:268,1,164.999995231629,2|0,0:0|0:0,0:0:0:0:
336,288,250072,2,0,B|348:326|348:326|340:371,1,82.4999976158143,0|0,3:0|0:0,0:0:0:0:
264,384,250738,5,2,0:0:0:0:
184,352,251072,2,0,L|12:360,2,164.999995231629,2|0|2,0:0|0:0|0:0,0:0:0:0:
252,304,252738,2,0,P|256:248|240:216,1,82.4999976158143,0|0,3:0|0:0,0:0:0:0:
188,164,253405,5,2,0:0:0:0:
188,164,253738,2,0,P|172:92|236:32,2,164.999995231629,2|0|2,0:0|0:0|0:0,0:0:0:0:
252,112,255405,2,0,B|292:120|292:120|340:108,1,82.4999976158143,0|0,3:0|0:0,0:0:0:0:
372,44,256072,6,0,B|384:124|384:124|344:200|400:256,1,185.625001716614,6|0,0:2|0:0,0:0:0:0:
388,304,256738,2,0,P|320:332|268:312,1,123.750001144409,0|0,3:0|0:0,0:0:0:0:
224,256,257238,1,0,0:0:0:0:
164,312,257405,2,0,L|160:373,1,61.8750005722046,2|0,0:0|0:0,0:0:0:0:
104,256,257738,2,0,L|96:120,1,123.750001144409,0|0,0:0|3:0,0:0:0:0:
104,124,258405,1,0,0:0:0:0:
112,112,258738,6,0,L|244:104,1,123.750001144409,2|0,0:0|0:0,0:0:0:0:
300,56,259238,1,0,0:0:0:0:
368,96,259405,2,0,P|376:136|364:172,1,61.8750005722046,0|0,3:0|0:0,0:0:0:0:
336,228,259738,2,0,P|328:268|340:304,1,61.8750005722046
396,340,260072,2,0,L|464:344,1,61.8750005722046,2|0,0:0|0:0,0:0:0:0:
332,288,260405,2,0,L|191:295,1,123.750001144409,0|0,0:0|3:0,0:0:0:0:
200,303,261072,2,0,P|195:334|201:364,1,61.8750005722046
252,244,261405,6,0,P|272:192|240:116,1,123.750001144409,2|0,0:0|0:0,0:0:0:0:
184,84,261905,1,0,0:0:0:0:
116,128,262072,2,0,L|40:132,1,61.8750005722046,0|0,3:0|0:0,0:0:0:0:
4,240,262405,2,0,L|80:244,1,61.8750005722046
132,200,262738,2,0,B|192:184|192:184|256:196,1,123.750001144409,2|0,0:0|0:0,0:0:0:0:
316,244,263238,1,0,0:0:0:0:
280,316,263405,2,0,L|284:384,1,61.8750005722046,0|0,3:0|0:0,0:0:0:0:
376,196,263738,2,0,L|379:134,1,61.8750005722046
356,56,264072,6,0,P|308:36|236:64,1,123.750001144409,2|0,0:0|0:0,0:0:0:0:
180,124,264572,1,0,0:0:0:0:
216,196,264738,1,0,3:0:0:0:
296,188,264905,1,0,0:0:0:0:
312,108,265072,1,0,0:0:0:0:
240,68,265238,1,0,0:0:0:0:
180,124,265405,2,0,L|48:132,1,123.750001144409,2|0,0:0|0:0,0:0:0:0:
16,288,266072,2,0,L|148:296,1,123.750001144409,0|0,3:0|0:0,0:0:0:0:
288,240,266738,6,0,P|308:188|240:84,1,185.625001716614,2|0,0:0|0:0,0:0:0:0:
164,72,267405,2,0,B|212:88|212:88|260:68|260:68|308:84|360:68,1,185.625001716614,0|0,3:0|0:0,0:0:0:0:
412,32,268072,2,0,L|480:28,2,61.8750005722046,2|0|0,0:0|0:0|0:0,0:0:0:0:
341,72,268572,1,0,0:0:0:0:
412,112,268738,2,0,B|424:140|412:176|412:176|428:220|428:220|416:264|432:308,1,185.625001716614,0|0,3:0|0:0,0:0:0:0:
496,336,269405,6,0,L|348:348,1,123.750001144409,2|0,0:0|0:0,0:0:0:0:
224,156,270072,2,0,L|372:168,1,123.750001144409,0|0,3:0|0:0,0:0:0:0:
416,204,270572,1,0,0:0:0:0:
472,148,270738,2,0,B|476:116|476:116|468:76,1,61.8750005722046,2|0,0:0|0:0,0:0:0:0:
416,204,271072,2,0,B|410:233|410:233|414:265,1,61.8750005722046
468,324,271405,1,0,3:0:0:0:
388,340,271572,1,0,0:0:0:0:
308,356,271738,1,0,0:0:0:0:
228,372,271905,1,0,0:0:0:0:
256,192,272072,12,2,274738,0:0:0:0:
180,192,276738,5,0,1:0:0:0:
180,192,277405,6,0,P|256:220|332:192,1,164.999995231629,6|0,0:0|0:0,0:0:0:0:
108,132,278072,2,0,P|88:188|104:244,1,82.4999976158143,8|0,0:0|0:0,0:0:0:0:
108,292,278405,1,0,0:0:0:0:
404,292,278738,5,2,0:0:0:0:
422,209,278905,2,0,P|421:169|404:132,1,82.4999976158143,0|0,0:0|0:0,0:0:0:0:
364,60,279238,1,0,0:0:0:0:
288,28,279405,1,8,0:0:0:0:
140,108,279572,1,0,0:0:0:0:
220,128,279738,1,0,0:0:0:0:
298,110,279905,1,0,0:0:0:0:
454,54,280072,6,0,P|419:128|422:209,1,164.999995231629,2|0,0:0|0:0,0:0:0:0:
376,368,280738,2,0,P|356:320|336:288,1,82.4999976158143,8|0,0:0|0:0,0:0:0:0:
284,232,281072,1,0,0:0:0:0:
20,92,281405,6,0,P|56:104|100:104,1,82.4999976158143,2|0,0:0|0:0,0:0:0:0:
288,68,281738,2,0,P|252:56|208:56,1,82.4999976158143
100,103,282072,1,8,0:0:0:0:
96,184,282238,2,0,P|104:224|136:272,1,82.4999976158143
188,316,282572,1,0,0:0:0:0:
364,360,282738,6,0,P|368:280|312:176,1,164.999995231629,2|0,0:0|0:0,0:0:0:0:
148,40,283405,1,8,0:0:0:0:
152,124,283572,1,0,0:0:0:0:
188,200,283738,1,0,0:0:0:0:
488,272,284072,5,2,0:0:0:0:
432,212,284238,2,0,P|380:172|340:160,1,82.4999976158143
288,140,284572,1,0,0:0:0:0:
152,124,284738,2,0,P|120:152|104:200,1,82.4999976158143,8|0,0:0|0:0,0:0:0:0:
136,344,285072,2,0,P|168:316|184:268,1,82.4999976158143
152,124,285405,6,0,P|96:64|16:64,1,164.999995231629,2|0,0:0|0:0,0:0:0:0:
176,208,286072,2,0,P|216:184|232:132,1,82.4999976158143,8|0,0:0|0:0,0:0:0:0:
216,72,286405,1,0,0:0:0:0:
316,256,286738,6,0,P|344:296|384:320,1,82.4999976158143,2|0,0:0|0:0,0:0:0:0:
452,336,287072,1,0,0:0:0:0:
368,180,287238,2,0,P|328:164|280:172,1,82.4999976158143,0|8,0:0|0:0,0:0:0:0:
140,236,287738,2,0,L|88:252,1,41.2499988079071
144,160,287905,2,0,L|88:160,1,41.2499988079071
172,88,288072,6,0,P|224:40|340:72,1,164.999995231629,2|0,0:0|0:0,0:0:0:0:
344,284,288738,1,8,0:0:0:0:
284,228,288905,1,0,0:0:0:0:
268,148,289072,1,0,0:0:0:0:
464,80,289405,5,2,0:0:0:0:
432,156,289572,1,0,0:0:0:0:
364,204,289738,1,0,0:0:0:0:
284,228,289905,1,0,0:0:0:0:
200,232,290072,2,0,P|156:236|116:232,1,82.4999976158143,8|0,0:0|0:0,0:0:0:0:
0,124,290405,2,0,P|42:136|77:155,1,82.4999976158143
256,308,290738,6,0,P|240:232|264:132,1,164.999995231629,2|0,0:0|0:0,0:0:0:0:
436,40,291405,2,0,P|424:100|416:132,1,82.4999976158143,8|0,0:0|0:0,0:0:0:0:
368,188,291738,1,0,0:0:0:0:
144,188,292072,5,2,0:0:0:0:
93,120,292239,2,0,P|83:80|76:40,2,82.4999976158143,0|0|0,0:0|0:0|0:0,0:0:0:0:
61,195,292738,1,8,0:0:0:0:
61,195,293072,2,0,P|80:236|120:264,1,82.4999976158143
140,348,293405,6,0,P|144:268|180:192,1,164.999995231629,2|0,0:0|0:0,0:0:0:0:
312,24,294072,1,8,0:0:0:0:
336,104,294238,1,0,0:0:0:0:
384,172,294405,1,0,0:0:0:0:
508,348,294738,6,0,L|424:320,1,82.4999976158143,2|0,0:0|0:0,0:0:0:0:
352,296,295072,1,0,0:0:0:0:
276,260,295238,2,0,P|224:236|168:240,1,82.4999976158143,0|8,0:0|0:0,0:0:0:0:
68,304,295572,2,0,P|88:256|80:184,1,82.4999976158143
80,144,295905,1,0,0:0:0:0:
0,92,296072,6,0,P|76:108|172:76,1,164.999995231629,2|0,0:0|0:0,0:0:0:0:
320,56,296738,1,0,0:0:0:0:
512,292,297072,6,0,P|436:276|340:308,1,164.999995231629,2|0,0:0|0:0,0:0:0:0:
192,328,297738,1,0,0:0:0:0:
144,168,298072,5,8,0:0:0:0:
200,108,298238,1,8,0:3:0:0:
200,108,298738,6,0,P|268:56|368:84,1,164.999995231629,6|0,0:0|0:0,0:0:0:0:
504,264,299405,1,8,0:0:0:0:
432,304,299572,1,0,0:0:0:0:
352,316,299738,1,0,0:0:0:0:
68,240,300072,6,0,L|148:224,1,82.4999976158143,2|0,0:0|0:0,0:0:0:0:
224,152,300405,2,0,P|184:228|260:320,1,164.999995231629,0|8,0:0|0:0,0:0:0:0:
276,228,300905,2,0,P|308:192|312:132,1,82.4999976158143,0|0,0:0|0:0,0:0:0:0:
276,84,301238,1,0,0:0:0:0:
152,44,301405,6,0,P|56:76|48:176,1,164.999995231629,2|0,0:0|0:0,0:0:0:0:
56,208,301905,1,0,0:0:0:0:
112,268,302072,1,8,0:0:0:0:
272,300,302405,2,0,B|335:310|347:228|415:232,1,164.999995231629,0|2,0:0|0:0,0:0:0:0:
492,204,302905,5,0,0:0:0:0:
428,152,303072,1,0,0:0:0:0:
380,84,303238,1,0,0:0:0:0:
348,8,303405,1,8,0:0:0:0:
298,74,303572,2,0,P|254:118|230:126,1,82.4999976158143
156,140,303905,1,0,0:0:0:0:
0,160,304072,6,0,B|76:168|64:240|136:248,1,164.999995231629,2|0,0:0|0:0,0:0:0:0:
464,200,304738,1,8,0:0:0:0:
396,152,304905,1,0,0:0:0:0:
316,132,305072,1,0,0:0:0:0:
40,260,305405,6,0,P|88:256|120:240,1,82.4999976158143,2|0,0:0|0:0,0:0:0:0:
236,108,305738,2,0,P|188:112|156:128,1,82.4999976158143
40,260,306072,2,0,P|28:296|40:344,1,82.4999976158143,8|0,0:0|0:0,0:0:0:0:
220,280,306405,2,0,P|232:244|220:196,1,82.4999976158143
124,84,306738,5,2,0:0:0:0:
40,260,307072,1,0,0:0:0:0:
260,152,307405,2,0,P|304:132|344:128,1,82.4999976158143,8|0,0:0|0:0,0:0:0:0:
420,140,307738,1,0,0:0:0:0:
512,308,308072,6,0,P|476:340|416:348,1,82.4999976158143,2|0,0:0|0:0,0:0:0:0:
360,348,308405,1,0,0:0:0:0:
292,304,308572,1,0,0:0:0:0:
212,324,308738,1,8,0:0:0:0:
112,192,309072,2,0,L|52:180,3,41.2499988079071,0|0|0|0,0:0|0:0|0:0|0:0,0:0:0:0:
172,144,309405,6,0,P|212:116|328:128,1,164.999995231629,2|0,0:0|0:0,0:0:0:0:
476,288,310072,2,0,P|420:276|388:228,1,82.4999976158143,8|0,0:0|0:0,0:0:0:0:
336,208,310405,1,0,0:0:0:0:
172,24,310738,6,0,L|148:104,1,82.4999976158143,2|0,0:0|0:0,0:0:0:0:
100,192,311072,1,0,0:0:0:0:
148,280,311238,2,0,L|172:360,1,82.4999976158143,0|8,0:0|0:0,0:0:0:0:
256,348,311572,1,0,0:0:0:0:
312,288,311738,1,0,0:0:0:0:
288,208,311905,1,0,0:0:0:0:
228,136,312072,6,0,P|296:184|396:136,1,164.999995231629,2|0,0:0|0:0,0:0:0:0:
496,28,312738,1,8,0:0:0:0:
452,96,312905,1,0,0:0:0:0:
456,180,313072,1,0,0:0:0:0:
508,352,313405,6,0,P|448:328|416:324,1,82.4999976158143,2|0,0:0|0:0,0:0:0:0:
348,320,313738,1,0,0:0:0:0:
268,332,313905,1,0,0:0:0:0:
192,368,314072,1,8,0:0:0:0:
200,288,314238,2,0,P|200:236|168:184,1,82.4999976158143
148,136,314572,1,0,0:0:0:0:
72,48,314738,6,0,B|124:20|180:76|232:48,1,164.999995231629,2|0,0:0|0:0,0:0:0:0:
504,144,315405,2,0,B|452:172|396:116|344:144,1,164.999995231629,8|0,0:0|0:0,0:0:0:0:
40,216,316072,5,2,0:0:0:0:
108,260,316238,2,0,P|104:296|120:344,2,82.4999976158143,0|0|0,0:0|0:0|0:0,0:0:0:0:
124,176,316738,1,8,0:0:0:0:
144,100,316905,2,0,P|172:60|212:44,2,82.4999976158143,0|0|0,0:0|0:0|0:0,0:0:0:0:
256,192,317405,12,4,319405,0:3:0:0:
256,84,321405,6,0,P|328:96|384:188,2,164.999995231629,2|0|2,0:0|0:0|0:0,0:0:0:0:
172,92,323072,1,0,0:0:0:0:
112,148,323405,1,0,0:0:0:0:
112,148,323738,2,0,P|76:204|92:328,1,164.999995231629,2|0,0:0|0:0,0:0:0:0:
152,332,324738,1,0,0:0:0:0:
212,276,325072,1,0,0:0:0:0:
392,332,325405,5,0,0:0:0:0:
332,276,325738,1,0,0:0:0:0:
272,332,326072,1,0,0:0:0:0:
452,276,326406,1,0,0:0:0:0:
388,224,326738,2,0,P|340:156|356:80,2,164.999995231629,2|0|2,0:0|0:0|0:0,0:0:0:0:
444,80,328405,5,0,0:0:0:0:
400,12,328738,1,0,0:0:0:0:
356,80,329072,2,0,P|280:132|188:128,1,164.999995231629,2|0,0:0|0:0,0:0:0:0:
140,92,330072,1,0,0:0:0:0:
100,108,330238,1,0,0:0:0:0:
100,148,330405,1,0,0:0:0:0:
136,224,330738,6,0,P|172:280|208:296,1,82.4999976158143,2|0,0:0|0:0,0:0:0:0:
268,280,331405,2,0,P|232:224|196:208,1,82.4999976158143
200,136,332072,2,0,P|220:80|336:48,2,164.999995231629,2|0|2,0:0|0:0|0:0,0:0:0:0:
200,220,333738,1,0,0:0:0:0:
224,300,334072,1,0,0:0:0:0:
224,300,334405,2,0,P|260:356|372:372,1,164.999995231629,2|0,0:0|0:0,0:0:0:0:
348,208,335405,2,0,L|316:296,1,82.4999976158143
404,288,336072,6,0,L|436:200,1,82.4999976158143,2|0,0:0|0:0,0:0:0:0:
432,128,336738,1,0,0:0:0:0:
372,72,337072,1,0,0:0:0:0:
304,120,337405,2,0,L|196:120,1,82.4999976158143
180,48,338072,2,0,L|288:48,1,82.4999976158143
352,192,338738,6,0,L|352:276,1,82.4999976158143,2|0,0:0|0:0,0:0:0:0:
276,308,339405,1,0,0:0:0:0:
196,328,339738,1,0,0:0:0:0:
128,280,340072,2,0,P|92:244|96:192,1,82.4999976158143
132,144,340738,2,0,P|168:180|164:232,1,82.4999976158143
88,212,341405,6,0,P|52:176|56:124,1,82.4999976158143
96,80,342072,1,0,0:0:0:0:
152,20,342405,1,0,0:0:0:0:
264,160,342738,2,0,P|304:208|300:308,2,164.999995231629,2|0|2,0:0|0:0|0:0,0:0:0:0:
124,252,344738,1,0,0:0:0:0:
216,256,345072,2,0,L|388:184,1,164.999995231629,2|0,0:0|0:0,0:0:0:0:
452,236,346072,2,0,P|464:180|436:132,1,82.4999976158143
328,41,346738,6,0,P|365:61|392:92,1,82.4999976158143,2|0,0:0|0:0,0:0:0:0:
315,122,347405,2,0,P|278:102|252:72,1,82.4999976158143
272,192,348072,2,0,B|220:240|220:240|168:252|132:324,2,164.999995231629,2|0|2,0:0|0:0|0:0,0:0:0:0:
224,348,350072,1,0,0:0:0:0:
136,384,350405,2,0,P|76:344|88:232,1,164.999995231629,2|0,0:0|0:0,0:0:0:0:
124,192,351405,2,0,P|160:144|208:120,1,82.4999976158143,2|0,0:0|0:0,0:0:0:0:
328,84,352072,5,2,0:0:0:0:
244,80,352405,1,0,0:0:0:0:
280,152,352738,2,0,P|296:204|344:244,1,82.4999976158143
436,112,353405,2,0,B|484:104|484:104|456:160|464:236,2,164.999995231629,2|0|2,0:0|0:0|0:0,0:0:0:0:
304,208,355405,1,0,0:0:0:0:
384,228,355738,2,0,P|432:256|420:364,1,164.999995231629,2|0,0:0|0:0,0:0:0:0:
264,332,357072,6,0,P|192:312|128:88,1,329.999990463257,2|0,0:0|0:0,0:0:0:0:
124,92,359738,2,0,P|232:80|312:208,1,247.499992847443,2|0,0:0|0:0,0:0:0:0:
192,192,361072,2,0,P|148:236|164:336,1,164.999995231629,2|0,0:0|0:0,0:0:0:0:
256,192,362738,12,0,365738,0:0:0:0:
