osu file format v14

[General]
AudioFilename: 01. Shelter.mp3
AudioLeadIn: 0
PreviewTime: -1
Countdown: 1
SampleSet: Soft
StackLeniency: 0.7
Mode: 0
LetterboxInBreaks: 1
WidescreenStoryboard: 0

[Editor]
DistanceSpacing: 2
BeatDivisor: 4
GridSize: 8
TimelineZoom: 2.1

[Metadata]
Title:Shelter
TitleUnicode:Shelter
Artist:Porter Robinson & Madeon
ArtistUnicode:Porter Robinson & Madeon
Creator:Micka
Version:Micka
Source:
Tags:
BeatmapID:1111958
BeatmapSetID:523802

[Difficulty]
HPDrainRate:5
CircleSize:5
OverallDifficulty:8.4
ApproachRate:9
SliderMultiplier:1.4
SliderTickRate:1

[Events]
//Background and Video events
0,0,"PqlpJdhJ.jpg",0,0
//Break Periods
2,115702,132902
//Storyboard Layer 0 (Background)
//Storyboard Layer 1 (Fail)
//Storyboard Layer 2 (Pass)
//Storyboard Layer 3 (Foreground)
//Storyboard Sound Samples

[TimingPoints]
302,300,4,2,0,45,1,0
302,-200,4,2,0,45,0,0
4802,-100,4,2,0,45,0,0
5102,-200,4,2,0,45,0,0
8102,-133.333333333333,4,2,0,45,0,0
8702,-100,4,2,0,45,0,0
9902,-133.333333333333,4,2,0,45,0,0
16952,-50,4,2,0,45,0,0
17102,-200,4,2,0,45,0,0
19502,-100,4,2,0,45,0,1
21302,-200,4,2,0,45,0,1
21902,-100,4,2,0,45,0,1
23702,-200,4,2,0,45,0,1
24302,-100,4,2,0,45,0,1
26102,-200,4,2,0,45,0,1
26702,-100,4,2,0,45,0,1
30902,-200,4,2,0,45,0,1
31502,-100,4,2,0,45,0,1
33302,-200,4,2,0,45,0,1
33902,-100,4,2,0,45,0,1
35702,-200,4,2,0,45,0,1
38552,-200,4,2,0,45,0,0
43502,-100,4,2,0,45,0,0
57902,-200,4,2,0,45,0,0
67502,-100,4,2,0,45,0,0
73202,-200,4,2,0,45,0,0
75902,-100,4,2,0,45,0,0
77102,-100,4,2,0,45,0,1
115502,-100,4,2,0,45,0,0
134702,-200,4,2,0,45,0,0
153302,-100,4,2,0,45,0,0
173102,-100,4,2,0,45,0,1
206702,-100,4,2,0,45,0,0

[Colours]
Combo1 : 210,145,247
Combo2 : 255,255,255
Combo3 : 245,180,200
Combo4 : 255,55,61

[HitObjects]
128,40,302,6,0,P|152:80|144:184,1,140
320,64,1052,2,0,L|368:56,1,35,2|2,0:0|0:0,0:0:0:0:
416,296,1352,2,0,L|264:288,1,140
48,208,2102,2,0,P|48:176|40:160,1,35
136,128,2402,2,0,P|120:88|104:72,1,52.5
88,72,2702,6,0,P|144:80|216:32,1,140,2|0,0:0|0:0,0:0:0:0:
424,104,3452,1,2,0:0:0:0:
288,88,3602,1,2,0:0:0:0:
352,280,3752,2,0,P|328:248|224:248,1,140
80,328,4502,2,0,P|80:288|72:264,1,52.5,2|0,0:0|0:0,0:0:0:0:
128,232,4802,2,0,P|112:168|128:120,1,105,2|0,0:0|0:0,0:0:0:0:
240,64,5102,6,0,L|384:56,1,140
440,272,5852,1,2,0:0:0:0:
392,72,6002,1,2,0:0:0:0:
248,216,6152,2,0,B|272:208|272:208|304:208|304:208|328:192,1,70,0|2,0:0|0:0,0:0:0:0:
192,48,6602,1,0,0:0:0:0:
192,48,6752,2,0,L|184:88,1,35,0|2,0:0|0:0,0:0:0:0:
80,328,7202,1,0,0:0:0:0:
80,328,7502,6,0,L|144:312,1,52.5
416,288,7952,1,2,0:0:0:0:
416,288,8102,6,0,L|320:280,1,78.7500030040742,2|0,0:0|0:0,0:0:0:0:
80,184,8552,1,2,0:0:0:0:
80,184,8702,6,0,P|144:192|200:152,1,105,2|0,0:0|0:0,0:0:0:0:
368,56,9152,1,2,0:0:0:0:
368,56,9302,6,0,L|360:168,1,105
344,328,9752,2,0,P|328:296|328:272,1,35,2|0,0:0|0:0,0:0:0:0:
120,64,9902,6,0,P|136:88|128:176,1,105.000004005432
160,336,10352,1,0,0:0:0:0:
280,208,10502,2,2,L|272:136,1,52.5000020027161
72,256,10802,2,0,L|8:264,1,52.5000020027161,0|2,0:0|0:0,0:0:0:0:
224,248,11102,6,0,P|264:272|336:248,1,105.000004005432,0|2,0:0|0:0,0:0:0:0:
424,88,11552,2,0,P|416:64|424:24,1,52.5000020027161,0|2,0:0|0:0,0:0:0:0:
448,304,11852,1,0,0:0:0:0:
416,96,12002,1,2,0:0:0:0:
488,192,12152,1,0,0:0:0:0:
288,104,12302,6,0,B|256:112|240:120|240:120|192:120|176:120,1,105.000004005432,0|2,0:0|0:0,0:0:0:0:
104,56,12752,1,0,0:0:0:0:
104,56,12902,1,2,0:0:0:0:
224,256,13052,1,0,0:0:0:0:
40,176,13202,1,2,0:0:0:0:
224,256,13352,2,0,P|232:296|224:352,1,78.7500030040742,2|0,0:0|0:0,0:0:0:0:
192,352,13652,6,0,P|152:344|128:344,1,52.5000020027161
344,304,13952,2,0,P|384:296|400:296,1,52.5000020027161
456,80,14252,1,0,0:0:0:0:
384,40,14402,1,0,0:0:0:0:
304,72,14552,1,0,0:0:0:0:
344,304,14702,6,0,B|280:296|280:296|256:304|256:304|182:293,1,157.500006008148
105,78,15302,2,0,L|99:12,1,52.5000020027161
182,4,15602,1,0,0:0:0:0:
226,173,15752,2,0,P|188:200|114:187,1,105.000004005432
83,266,16202,1,0,0:0:0:0:
152,312,16352,2,0,L|224:304,1,52.5000020027161
288,328,16652,2,0,P|312:336|344:352,1,52.5000020027161
472,216,16952,2,0,P|464:176|464:152,1,52.5000020027161
120,32,17102,6,0,P|144:72|152:80,2,52.5
112,144,17702,2,0,P|144:160|176:160,2,52.5
320,208,18302,2,0,P|280:232|267:236,1,52.5
456,40,18752,2,0,L|464:72,1,17.5
432,160,18902,6,0,L|440:192,1,17.5
384,272,19052,2,0,L|392:304,1,17.5
152,344,19502,6,0,P|112:304|144:208,1,140
384,272,19952,1,0,0:0:0:0:
336,184,20102,2,0,L|328:104,1,70
213,42,20402,2,0,L|144:48,1,70
168,280,20702,1,0,0:0:0:0:
384,336,20852,1,0,0:0:0:0:
256,112,21002,1,0,0:0:0:0:
232,368,21152,1,0,0:0:0:0:
464,176,21302,6,0,P|456:112|464:64,1,105
184,64,21902,6,0,P|240:80|288:16,1,140
72,168,22352,1,0,0:0:0:0:
72,168,22502,2,0,L|168:160,1,70
232,208,22802,2,0,L|328:200,1,70
384,144,23102,1,0,0:0:0:0:
168,336,23252,2,0,P|120:344|80:328,1,70
376,152,23552,1,0,0:0:0:0:
464,256,23702,6,0,P|472:296|472:320,1,52.5
368,160,24002,2,0,P|360:120|360:96,1,52.5
120,80,24302,6,0,B|128:120|128:120|128:176|128:176|144:224,1,140
208,296,24752,1,0,0:0:0:0:
272,80,24902,2,0,P|280:32|272:-8,1,70
376,160,25202,1,0,0:0:0:0:
472,288,25352,2,0,L|376:280,1,70
192,344,25652,2,0,L|280:336,1,70
96,80,25952,1,0,0:0:0:0:
96,80,26102,6,0,P|104:120|88:192,1,105
192,344,26702,6,0,B|184:280|184:280|192:240,2,105
288,216,27302,2,0,B|296:184|296:184|288:96,2,105
384,248,27902,1,0,0:0:0:0:
384,248,28052,2,0,P|392:288|376:336,1,70
440,96,28352,1,0,0:0:0:0:
440,96,28502,2,0,P|432:48|448:8,1,70
288,168,28802,2,0,L|200:152,1,70
192,24,29027,1,0,0:0:0:0:
192,24,29102,6,0,B|176:64|176:96|176:96|152:112|144:160,1,140
192,352,29552,1,0,0:0:0:0:
216,160,29702,2,0,L|224:256,1,70
472,224,30002,1,0,0:0:0:0:
312,120,30152,1,0,0:0:0:0:
384,328,30302,5,0,0:0:0:0:
360,64,30452,1,0,0:0:0:0:
264,240,30602,1,0,0:0:0:0:
472,104,30752,1,0,0:0:0:0:
280,256,30902,6,0,P|216:248|176:280,1,105
56,168,31427,1,0,0:0:0:0:
56,168,31502,6,0,P|112:184|184:128,1,140
104,72,31952,1,0,0:0:0:0:
328,48,32102,2,0,L|258:42,1,70
461,125,32402,2,0,L|392:120,1,70
208,328,32702,5,0,0:0:0:0:
208,328,32852,2,0,P|256:336|304:320,1,70
80,160,33152,1,0,0:0:0:0:
34,247,33302,6,0,P|66:255|98:247,1,52.5
106,247,33602,2,0,P|130:239|162:215,1,52.5
208,56,33902,6,0,B|192:96|208:144|208:144|240:136|272:152,1,140
464,80,34352,2,0,P|424:72|368:96,1,70
392,312,34652,2,0,P|392:256|376:216,1,70
296,200,34952,1,0,0:0:0:0:
296,200,35027,1,0,0:0:0:0:
296,200,35102,5,0,0:0:0:0:
128,136,35252,2,0,L|216:128,1,70
208,288,35552,1,0,0:0:0:0:
208,288,35702,6,0,P|128:280|112:256,1,105
296,160,36302,5,0,0:0:0:0:
174,89,36527,1,0,0:0:0:0:
174,229,36752,1,0,0:0:0:0:
306,152,36902,5,0,0:0:0:0:
153,63,37127,1,0,0:0:0:0:
153,238,37352,1,0,0:0:0:0:
318,142,37502,5,0,0:0:0:0:
127,31,37727,1,0,0:0:0:0:
127,249,37952,1,0,0:0:0:0:
327,135,38102,6,0,L|384:144,2,52.5
472,240,38702,6,0,B|456:288|480:336|480:336|440:352|392:320|392:320|368:352|312:352,1,280
104,208,40802,1,0,0:0:0:0:
88,72,41102,2,0,B|144:56|184:96|184:96|216:56|256:48|256:48|264:96|304:128,1,280
472,344,42902,5,0,0:0:0:0:
432,88,43052,1,0,0:0:0:0:
384,336,43502,6,0,L|472:328,1,70
408,176,43802,1,0,0:0:0:0:
288,256,43952,1,0,0:0:0:0:
176,176,44102,2,0,P|200:168|248:176,1,70
112,224,44402,1,0,0:0:0:0:
112,224,44552,1,0,0:0:0:0:
64,96,44702,6,0,L|56:8,1,70
112,224,45002,1,0,0:0:0:0:
112,224,45152,2,0,L|104:304,1,70
352,336,45452,1,0,0:0:0:0:
248,240,45602,1,0,0:0:0:0:
152,344,45752,1,0,0:0:0:0:
432,328,45902,6,0,P|376:328|344:232,1,140
392,136,46352,2,0,L|480:152,1,70
296,56,46652,1,0,0:0:0:0:
296,56,46727,1,0,0:0:0:0:
296,56,46802,2,0,L|208:64,1,70
96,304,47102,5,0,0:0:0:0:
48,176,47252,2,0,L|0:184,2,35
104,320,47552,1,0,0:0:0:0:
224,256,47702,1,8,0:0:0:0:
224,256,47777,1,8,0:0:0:0:
224,256,47852,1,8,0:0:0:0:
216,88,48002,2,0,P|176:88|120:104,1,70
338,192,48302,6,0,P|388:238|456:232,1,140
416,72,48752,1,0,0:0:0:0:
320,208,48902,2,0,L|328:304,1,70
288,352,49202,1,0,0:0:0:0:
168,288,49352,1,0,0:0:0:0:
32,336,49502,6,0,L|120:328,1,70
96,80,49802,1,0,0:0:0:0:
168,272,49952,1,0,0:0:0:0:
216,144,50102,1,0,0:0:0:0:
72,232,50252,1,0,0:0:0:0:
304,168,50402,2,0,L|216:160,1,70
320,336,50702,6,0,P|400:336|432:264,1,140
304,168,51152,1,0,0:0:0:0:
168,272,51302,1,0,0:0:0:0:
248,80,51452,1,0,0:0:0:0:
248,304,51602,1,0,0:0:0:0:
256,80,51752,1,0,0:0:0:0:
248,304,51902,6,0,L|168:312,1,70
56,168,52202,2,0,P|48:120|64:80,1,70
96,40,52427,1,0,0:0:0:0:
130,34,52502,1,0,0:0:0:0:
165,29,52577,1,0,0:0:0:0:
199,24,52652,1,0,0:0:0:0:
400,96,52802,2,0,L|304:88,1,70
200,248,53102,6,0,B|240:240|240:240|288:256|288:256|368:240,1,140
152,64,53552,1,0,0:0:0:0:
152,64,53627,1,0,0:0:0:0:
152,64,53702,2,0,L|160:152,1,70
104,264,54002,2,0,P|72:272|8:264,1,70
200,248,54302,5,0,0:0:0:0:
280,312,54452,1,0,0:0:0:0:
160,328,54602,1,0,0:0:0:0:
288,168,54752,5,0,0:0:0:0:
368,296,54902,1,0,0:0:0:0:
216,360,55052,1,0,0:0:0:0:
400,64,55202,5,0,0:0:0:0:
360,280,55352,1,0,0:0:0:0:
200,96,55502,6,0,L|120:88,1,70
72,128,55727,1,0,0:0:0:0:
73,155,55802,1,0,0:0:0:0:
74,183,55877,1,0,0:0:0:0:
76,211,55952,1,0,0:0:0:0:
77,239,56027,1,0,0:0:0:0:
78,267,56102,1,0,0:0:0:0:
208,320,56252,2,0,P|216:288|200:240,2,70
384,368,56702,6,0,L|453:361,1,70
512,152,57002,2,0,L|442:158,1,70
104,128,57302,5,0,0:0:0:0:
376,80,57452,1,0,0:0:0:0:
80,256,57602,1,0,0:0:0:0:
296,40,57752,1,0,0:0:0:0:
344,272,57902,6,0,B|288:312|224:272|224:272|248:320|224:360|224:360|200:352|200:352|152:352,1,280
80,240,59402,2,0,P|88:192|80:168,2,70
112,104,60302,6,0,B|176:112|176:112|192:32|192:32|264:80|328:40,1,280
440,120,61802,2,0,L|448:192,1,70
392,320,62402,1,0,0:0:0:0:
392,320,62702,6,0,B|312:280|216:296|216:296|264:360|264:360|176:344|176:344|136:320|136:320|96:328|80:320|80:320|88:272|88:272|72:248|80:208,1,560
72,56,65702,1,0,0:0:0:0:
72,56,66302,2,0,B|120:48|120:48|160:56|160:56|216:48,1,140
440,320,67502,6,0,L|368:312,1,70
240,272,67802,2,0,L|328:264,1,70
440,208,68102,1,0,0:0:0:0:
440,208,68252,1,0,0:0:0:0:
320,128,68402,2,0,P|312:96|320:40,1,70
176,40,68702,6,0,L|104:48,1,70
40,176,69002,2,0,P|40:224|64:264,1,70
240,272,69302,2,0,P|248:232|240:176,1,70
128,120,69602,1,0,0:0:0:0:
152,344,69752,1,0,0:0:0:0:
288,336,69902,6,0,L|376:328,1,70
432,200,70202,1,0,0:0:0:0:
472,344,70352,1,0,0:0:0:0:
496,128,70502,1,0,0:0:0:0:
424,272,70652,1,0,0:0:0:0:
384,80,70802,1,0,0:0:0:0:
488,240,70952,1,0,0:0:0:0:
368,96,71102,6,0,P|336:112|264:96,1,105
216,56,71402,1,0,0:0:0:0:
88,112,71552,2,0,B|72:152|72:192|72:192|104:256,1,140
208,336,72002,1,0,0:0:0:0:
408,280,72152,2,0,L|320:288,1,70
88,112,72902,5,0,0:0:0:0:
88,112,73202,2,0,B|104:152|104:152|88:168|88:168|88:208|48:232,1,140
136,344,74102,2,0,P|176:336|208:344,1,70
256,192,74702,12,0,75752,0:0:0:0:
112,40,75902,5,0,0:0:0:0:
104,64,75977,1,0,0:0:0:0:
96,88,76052,1,0,0:0:0:0:
224,312,76202,5,0,0:0:0:0:
336,72,76352,5,0,0:0:0:0:
56,240,76502,5,0,0:0:0:0:
416,224,76652,5,0,0:0:0:0:
224,296,76802,5,0,0:0:0:0:
224,280,77102,6,0,B|208:224|208:224|216:192|216:192|200:160|200:128,1,140
264,16,77552,1,0,0:0:0:0:
128,56,77702,2,0,L|40:64,1,70
8,264,78002,2,0,L|77:257,1,70
328,352,78302,5,0,0:0:0:0:
144,192,78452,1,0,0:0:0:0:
424,232,78602,1,0,0:0:0:0:
152,264,78752,1,0,0:0:0:0:
344,168,78902,2,0,L|336:48,1,105
280,24,79202,2,0,P|248:32|192:32,1,70
24,120,79502,6,0,P|80:120|112:112,1,70
256,216,79802,2,0,P|264:256|256:296,1,70
120,256,80102,1,0,0:0:0:0:
352,112,80252,2,0,L|360:24,1,70
88,48,80552,1,0,0:0:0:0:
88,48,80627,1,0,0:0:0:0:
88,48,80702,6,0,L|96:136,1,70
56,336,81002,2,0,P|104:344|144:328,1,70
344,240,81302,2,0,P|288:192|208:224,1,140
272,267,81752,1,0,0:0:0:0:
440,176,81902,6,0,P|432:96|472:56,1,140
328,40,82352,2,0,P|280:48|240:32,1,70
160,144,82652,1,0,0:0:0:0:
24,16,82802,1,0,0:0:0:0:
168,152,82952,1,0,0:0:0:0:
176,160,83027,1,0,0:0:0:0:
184,168,83102,6,0,L|96:176,1,70
296,248,83402,2,0,L|376:256,1,70
208,320,83702,2,0,P|152:320|96:344,1,105
48,304,84002,2,0,L|40:224,1,70
16,96,84302,5,0,0:0:0:0:
216,40,84527,1,0,0:0:0:0:
16,96,84752,1,0,0:0:0:0:
24,112,84902,5,0,0:0:0:0:
224,56,85127,1,0,0:0:0:0:
32,128,85352,1,0,0:0:0:0:
40,144,85502,5,0,0:0:0:0:
128,256,85652,2,0,L|216:240,1,70
48,160,85952,1,0,0:0:0:0:
200,312,86102,2,0,L|288:296,1,70
456,160,86402,1,0,0:0:0:0:
408,360,86552,1,0,0:0:0:0:
456,240,86702,6,0,P|392:216|384:128,1,140
272,56,87152,2,0,L|280:128,1,70
200,312,87452,1,0,0:0:0:0:
96,216,87602,1,0,0:0:0:0:
48,344,87752,1,0,0:0:0:0:
288,304,87902,6,0,L|208:296,1,70
400,120,88202,2,0,P|408:160|392:200,1,70
208,128,88502,2,0,P|184:88|208:24,1,105
128,24,88802,2,0,L|144:120,1,70
88,224,89102,6,0,P|56:232|16:232,1,70
208,288,89402,2,0,P|241:296|276:296,1,70
248,160,89702,1,0,0:0:0:0:
432,272,89852,2,0,P|432:248|424:216,1,35
352,312,90002,2,0,P|352:344|360:376,1,35
424,360,90152,1,0,0:0:0:0:
416,96,90302,5,0,0:0:0:0:
440,352,90452,1,0,0:0:0:0:
312,64,90602,1,0,0:0:0:0:
496,200,90752,1,0,0:0:0:0:
256,328,90902,2,0,P|208:336|144:264,1,140
192,224,91352,1,0,0:0:0:0:
232,88,91502,6,0,P|240:56|216:0,1,70
328,184,91802,1,0,0:0:0:0:
328,184,91877,1,0,0:0:0:0:
328,184,91952,1,0,0:0:0:0:
328,184,92027,1,0,0:0:0:0:
328,184,92102,2,0,L|424:176,1,70
480,80,92402,1,0,0:0:0:0:
480,80,92552,1,0,0:0:0:0:
472,304,92702,5,0,0:0:0:0:
416,352,92852,1,0,0:0:0:0:
344,336,93002,1,0,0:0:0:0:
328,264,93152,1,0,0:0:0:0:
200,320,93302,2,0,P|144:312|88:360,1,105
56,280,93602,2,0,L|48:200,1,70
104,80,93902,6,0,L|184:72,1,70
192,72,94127,1,0,0:0:0:0:
384,160,94352,1,0,0:0:0:0:
440,288,94502,6,0,L|352:280,1,70
352,280,94727,1,0,0:0:0:0:
144,312,94952,1,0,0:0:0:0:
208,72,95102,6,0,P|216:112|200:160,1,70
136,328,95402,1,0,0:0:0:0:
80,88,95552,1,0,0:0:0:0:
224,288,95702,1,0,0:0:0:0:
216,312,95777,1,0,0:0:0:0:
208,336,95852,1,0,0:0:0:0:
40,272,96002,2,0,P|34:237|42:203,1,70
176,168,96302,6,0,L|336:160,1,140
424,64,96752,1,0,0:0:0:0:
320,272,96902,1,0,0:0:0:0:
320,272,97052,2,0,P|328:312|312:352,1,70
88,208,97352,1,0,0:0:0:0:
80,184,97427,1,0,0:0:0:0:
72,160,97502,6,0,L|79:90,1,70
312,72,97802,1,0,0:0:0:0:
184,136,97952,1,0,0:0:0:0:
200,0,98102,1,0,0:0:0:0:
312,232,98252,1,0,0:0:0:0:
312,232,98327,1,0,0:0:0:0:
312,232,98402,2,0,L|304:320,1,70
144,352,98702,6,0,P|96:320|96:224,1,140
184,136,99152,2,0,P|192:96|176:48,1,70
48,56,99452,1,0,0:0:0:0:
224,216,99602,2,0,L|312:224,1,70
464,344,99902,5,0,0:0:0:0:
432,208,100052,1,0,0:0:0:0:
280,360,100202,1,0,0:0:0:0:
480,336,100352,1,0,0:0:0:0:
448,200,100502,2,0,P|456:152|424:112,1,70
184,32,100802,2,0,L|272:40,1,70
304,272,101102,6,0,P|256:272|216:248,1,70
208,200,101327,1,0,0:0:0:0:
186,227,101402,1,0,0:0:0:0:
156,244,101477,1,0,0:0:0:0:
122,249,101552,1,0,0:0:0:0:
88,241,101627,1,0,0:0:0:0:
60,220,101702,1,0,0:0:0:0:
120,96,101852,2,0,L|112:40,2,35
152,352,102152,1,0,0:0:0:0:
288,344,102302,6,0,L|208:336,1,70
429,326,102602,2,0,L|360:320,1,70
288,136,102902,2,0,P|320:112|400:136,1,105
432,72,103202,2,0,L|344:80,1,70
72,64,103502,6,0,B|64:96|72:120|72:120|48:136|40:184,2,105
200,336,104102,6,0,B|197:312|173:296|173:296|181:272|173:240,2,105
312,96,104702,6,0,B|335:93|351:69|351:69|375:77|407:69,2,105
456,256,105302,6,0,B|448:288|456:312|456:312|432:328|429:351,2,105
152,312,105902,6,0,P|136:272|144:216,1,70
320,80,106202,2,0,P|320:136|304:168,1,70
264,280,106502,1,0,0:0:0:0:
176,48,106652,1,0,0:0:0:0:
24,128,106802,2,0,P|64:136|120:112,1,70
320,88,107102,5,0,0:0:0:0:
80,232,107252,1,0,0:0:0:0:
232,24,107402,1,0,0:0:0:0:
296,344,107552,1,0,0:0:0:0:
264,280,107702,2,0,P|312:272|368:328,1,105
408,352,108002,2,0,P|392:296|400:256,1,70
440,48,108302,6,0,L|432:120,1,70
368,152,108527,1,0,0:0:0:0:
333,148,108602,1,0,0:0:0:0:
298,145,108677,1,0,0:0:0:0:
263,142,108752,1,0,0:0:0:0:
228,139,108827,1,0,0:0:0:0:
193,136,108902,1,0,0:0:0:0:
64,184,109052,1,0,0:0:0:0:
112,312,109202,2,0,L|208:304,1,70
320,336,109502,6,0,P|328:296|312:248,1,70
248,72,109802,2,0,L|160:80,1,70
376,168,110102,2,0,P|440:152|456:64,1,140
408,48,110552,1,0,0:0:0:0:
464,176,110702,6,0,L|472:264,1,70
456,264,110927,1,0,0:0:0:0:
440,280,111002,1,0,0:0:0:0:
200,312,111152,2,0,P|192:272|208:224,1,70
296,144,111452,1,0,0:0:0:0:
168,96,111602,2,0,L|80:104,1,70
384,256,111902,5,0,0:0:0:0:
296,40,112052,1,0,0:0:0:0:
144,296,112202,1,0,0:0:0:0:
416,120,112352,1,0,0:0:0:0:
112,152,112502,1,0,0:0:0:0:
448,344,112802,5,0,0:0:0:0:
256,192,113102,12,0,115427,0:0:0:0:
256,192,115502,5,0,0:0:0:0:
256,192,133502,12,0,134552,0:0:0:0:
64,128,134702,6,0,P|104:136|136:120,1,70
184,80,135152,1,0,0:0:0:0:
216,144,135302,2,0,L|224:224,1,70
280,248,135752,2,0,L|288:200,1,35
352,200,136052,2,0,L|344:152,1,35
392,112,136352,1,0,0:0:0:0:
456,280,136502,2,0,P|408:272|392:256,1,70
448,208,136952,1,0,0:0:0:0:
336,336,137102,6,0,L|264:344,1,70
112,264,137552,2,0,L|192:272,1,70
72,136,138002,2,0,P|64:168|64:184,1,35
232,160,138302,1,0,0:0:0:0:
144,48,138452,1,0,0:0:0:0:
152,200,138602,1,0,0:0:0:0:
232,48,138752,1,0,0:0:0:0:
248,168,138902,2,0,L|328:160,1,70
376,120,139352,1,0,0:0:0:0:
432,288,139502,6,0,P|440:328|432:360,1,70
360,352,139952,2,0,L|312:360,1,35
264,328,140252,1,0,0:0:0:0:
200,296,140402,2,0,L|152:304,1,35
128,240,140702,6,0,P|88:248|56:240,2,70
160,176,141452,2,0,L|152:128,1,35
200,88,141752,1,0,0:0:0:0:
392,144,141902,2,0,L|288:136,2,105
432,208,142952,1,0,0:0:0:0:
432,208,143102,6,0,L|424:256,1,35
368,280,143402,2,0,L|376:320,1,35
312,344,143702,2,0,P|288:320|248:320,1,70
192,344,144152,1,0,0:0:0:0:
192,344,144302,6,0,L|112:352,1,70
40,240,144902,2,0,L|112:248,1,70
192,136,145502,2,0,P|200:96|192:64,1,70
328,48,146102,2,0,P|320:80|336:128,1,70
416,224,146702,6,0,P|424:248|416:296,1,70
352,312,147152,1,0,0:0:0:0:
280,296,147302,2,0,L|208:304,1,70
144,272,147752,1,0,0:0:0:0:
56,160,147902,2,0,L|128:168,1,70
184,136,148352,2,0,P|192:96|184:64,1,70
136,16,148802,1,0,0:0:0:0:
288,104,148952,2,0,L|328:96,1,35
288,104,150302,5,0,0:0:0:0:
288,104,151502,5,0,0:0:0:0:
80,336,153152,5,0,0:0:0:0:
80,336,153202,1,0,0:0:0:0:
80,336,153252,1,0,0:0:0:0:
80,336,153302,6,0,L|160:328,1,70
248,168,153602,1,0,0:0:0:0:
240,360,153752,1,0,0:0:0:0:
360,280,153902,2,0,P|329:264|295:269,1,70
456,128,154202,2,0,P|451:162|466:192,1,70
488,328,154502,1,0,0:0:0:0:
360,144,154652,2,0,L|200:152,1,140
96,80,155102,6,0,P|136:64|176:80,1,70
144,208,155402,1,0,0:0:0:0:
72,88,155552,1,0,0:0:0:0:
144,208,155702,2,0,L|152:368,1,140
368,256,156152,1,0,0:0:0:0:
368,256,156227,1,0,0:0:0:0:
368,256,156302,6,0,P|312:256|288:272,1,70
416,336,156602,2,0,P|450:341|483:330,1,70
296,96,156902,1,0,0:0:0:0:
480,192,157052,1,0,0:0:0:0:
256,216,157202,1,0,0:0:0:0:
440,56,157352,1,0,0:0:0:0:
511,192,157502,5,0,0:0:0:0:
301,82,157652,1,0,0:0:0:0:
256,219,157802,1,0,0:0:0:0:
466,36,157952,1,0,0:0:0:0:
256,216,158102,2,0,B|208:224|184:256|184:256|160:240|112:240,1,140
32,144,158552,1,0,0:0:0:0:
56,280,158702,6,0,L|64:352,1,70
176,112,159002,2,0,L|168:200,1,70
176,320,159302,1,0,0:0:0:0:
400,256,159452,2,0,P|392:304|296:328,1,140
312,160,159902,6,0,L|384:168,1,70
464,56,160202,1,0,0:0:0:0:
464,56,160352,1,0,0:0:0:0:
208,72,160502,2,0,P|200:112|208:144,1,70
88,216,160802,2,0,P|110:249|138:266,1,70
256,328,161102,5,0,0:0:0:0:
400,48,161327,1,0,0:0:0:0:
200,112,161552,1,0,0:0:0:0:
328,168,161702,5,0,0:0:0:0:
48,312,161927,1,0,0:0:0:0:
256,312,162152,1,0,0:0:0:0:
176,200,162302,5,0,0:0:0:0:
472,312,162527,1,0,0:0:0:0:
360,136,162752,1,0,0:0:0:0:
352,272,162902,5,0,0:0:0:0:
64,320,163127,1,0,0:0:0:0:
128,120,163352,1,0,0:0:0:0:
176,248,163502,6,0,P|184:296|168:328,1,70
72,224,163802,1,0,0:0:0:0:
352,144,163952,1,0,0:0:0:0:
272,24,164102,2,0,L|264:120,1,70
128,120,164402,1,0,0:0:0:0:
112,8,164552,1,0,0:0:0:0:
304,288,164702,6,0,P|264:296|216:280,1,70
416,120,165002,2,0,P|450:114|484:122,1,70
464,344,165302,1,0,0:0:0:0:
344,64,165452,1,0,0:0:0:0:
488,240,165602,1,0,0:0:0:0:
208,160,165752,1,0,0:0:0:0:
88,336,165902,6,0,L|176:328,1,70
352,128,166202,1,0,0:0:0:0:
352,128,166352,1,0,0:0:0:0:
160,240,166502,1,0,0:0:0:0:
376,336,166652,2,0,P|384:288|368:256,1,70
112,80,166952,1,0,0:0:0:0:
304,40,167102,5,0,0:0:0:0:
224,328,167252,1,0,0:0:0:0:
384,88,167402,1,0,0:0:0:0:
104,160,167552,1,0,0:0:0:0:
336,216,167702,2,0,L|432:200,1,70
192,160,168002,2,0,L|122:171,1,70
128,352,168302,5,0,0:0:0:0:
78,302,168452,1,0,0:0:0:0:
128,253,168602,1,0,0:0:0:0:
177,302,168752,1,0,0:0:0:0:
312,328,168902,2,0,L|328:240,2,70
416,232,169352,1,0,0:0:0:0:
408,208,169427,1,0,0:0:0:0:
400,184,169502,5,0,0:0:0:0:
232,32,169652,2,0,P|224:64|240:120,1,70
368,80,169952,2,0,L|376:40,2,35
96,160,170252,1,0,0:0:0:0:
384,192,170402,1,0,0:0:0:0:
112,272,170552,1,0,0:0:0:0:
272,24,170702,5,0,0:0:0:0:
160,344,170927,1,0,0:0:0:0:
432,104,171152,1,0,0:0:0:0:
104,184,171377,1,0,0:0:0:0:
448,288,171602,1,0,0:0:0:0:
128,48,171827,1,0,0:0:0:0:
336,328,172052,1,0,0:0:0:0:
264,88,172277,1,0,0:0:0:0:
160,296,172502,6,0,L|80:304,1,70
368,48,172802,1,0,0:0:0:0:
328,336,172952,1,0,0:0:0:0:
104,128,173102,6,0,P|104:88|112:32,1,70
296,184,173402,2,0,P|296:224|288:264,1,70
64,256,173702,1,0,0:0:0:0:
264,40,173852,1,0,0:0:0:0:
176,344,174002,1,0,0:0:0:0:
96,144,174152,1,0,0:0:0:0:
408,264,174302,6,0,L|320:272,1,70
200,136,174602,2,0,P|192:96|200:64,1,70
464,120,174902,2,0,L|394:126,1,70
192,328,175202,1,0,0:0:0:0:
328,40,175352,1,0,0:0:0:0:
72,224,175502,6,0,L|160:216,1,70
352,136,175802,1,0,0:0:0:0:
288,352,175952,1,0,0:0:0:0:
152,104,176102,1,0,0:0:0:0:
392,248,176252,1,0,0:0:0:0:
144,336,176402,1,0,0:0:0:0:
144,336,176477,1,0,0:0:0:0:
144,336,176552,1,0,0:0:0:0:
240,112,176702,6,0,L|248:200,1,70
416,336,177002,2,0,L|409:266,1,70
152,248,177302,1,0,0:0:0:0:
152,248,177377,1,0,0:0:0:0:
152,248,177452,2,0,L|192:240,1,35
56,152,177602,2,0,L|48:232,1,70
312,336,177902,6,0,P|320:288|296:248,1,70
192,56,178202,1,0,0:0:0:0:
144,192,178352,1,0,0:0:0:0:
376,64,178502,1,0,0:0:0:0:
144,208,178652,1,0,0:0:0:0:
416,192,178802,2,0,L|464:200,2,35
192,56,179102,6,0,P|184:96|192:144,1,70
240,176,179327,2,0,L|274:181,1,35
184,224,179477,2,0,L|128:240,1,35
40,328,179702,2,0,L|120:336,1,70
344,240,180002,1,0,0:0:0:0:
192,360,180152,1,0,0:0:0:0:
448,288,180302,6,0,P|456:232|432:200,1,70
440,208,180527,1,0,0:0:0:0:
288,40,180752,1,0,0:0:0:0:
64,160,180902,6,0,L|144:152,1,70
152,152,181127,1,0,0:0:0:0:
288,56,181352,1,0,0:0:0:0:
264,248,181502,6,0,L|272:328,1,70
104,160,181802,1,0,0:0:0:0:
64,344,181952,1,0,0:0:0:0:
208,80,182102,1,0,0:0:0:0:
248,232,182252,1,0,0:0:0:0:
320,104,182402,1,0,0:0:0:0:
64,232,182552,1,0,0:0:0:0:
