osu file format v3

[General]
AudioFilename: 21 - Music Hour.mp3
AudioLeadIn: 0
AudioHash: 75f6bd6b9b166e09238b32602e1db220
PreviewTime: -1
SampleSet: Normal

[Metadata]
Title:Music Hour
Artist:Porno Graffitti
Creator:Homestarrunner
Version:Easy

[Difficulty]
HPDrainRate:3
CircleSize:3
OverallDifficulty:3
SliderMultiplier: 1.2
SliderTickRate: 2

[Events]
2,43273,56357
2,86427,99671
2,110863,123886
3,0,163,162,255

[TimingPoints]
10,442.81520881727

[HitObjects]
248,296,15508,1,2,
192,232,15729,1,2,
128,176,15951,1,2,
320,184,16394,1,0,
448,184,16836,2,2,B|448:184|400:104|256:40|112:48,1,350
248,304,19051,5,2,
304,248,19272,1,2,
360,192,19493,1,2,
192,192,19936,1,0,
40,192,20379,2,2,B|40:192|80:144|128:96,1,120
200,48,21265,2,2,B|200:48|272:48|320:80,1,120
256,320,22593,5,2,
192,264,22814,1,2,
144,200,23036,1,2,
296,200,23479,1,0,
448,200,23922,2,2,B|448:200|400:112|336:88|256:48,3,240
160,344,27685,5,0,
160,344,27907,1,0,
328,344,28350,1,0,
472,296,28792,1,0,
248,288,29678,5,2,
304,224,29900,1,2,
360,168,30121,1,2,
168,168,30564,1,0,
48,184,31117,2,2,B|48:184|104:120|176:48|384:48,1,360
256,328,33221,5,2,
200,264,33442,1,2,
136,200,33663,1,2,
320,192,34106,1,0,
448,192,34549,2,2,B|448:192|408:128|344:96,1,120
256,40,35435,2,2,B|256:40|176:48|128:88,1,120
256,328,36763,5,2,
312,272,36985,1,2,
360,208,37206,1,2,
192,200,37649,1,0,
64,200,38202,2,2,B|64:200|96:120|248:48,3,240
336,328,41966,5,0,
336,328,42188,1,0,
184,328,42630,1,0,
248,184,43073,1,0,
216,32,57797,6,2,B|216:32|88:80|40:200,2,240
320,136,60011,1,2,
448,56,60454,1,2,
256,168,61229,5,2,
384,248,61672,1,2,
256,344,62114,1,2,
144,248,62557,1,2,
40,336,63000,5,2,
32,184,63443,1,2,
40,40,63886,1,2,
296,32,64882,6,2,B|296:32|392:72|480:208,2,240
168,136,67096,1,2,
48,64,67539,1,2,
200,232,68424,6,0,B|200:232|256:264|336:224,3,120
464,40,70306,5,0,
464,40,70528,1,0,
344,112,70971,1,0,
216,192,71413,1,0,
216,40,71967,6,2,B|216:40|64:80|32:216,2,240
312,136,74181,1,2,
432,48,74624,1,2,
256,192,75509,5,2,
344,264,75952,1,2,
256,336,76395,1,0,
176,264,76838,1,0,
48,336,77281,5,0,
40,192,77724,1,0,
40,48,78166,1,0,
224,48,79052,5,0,
224,48,79273,1,0,
152,192,79827,1,0,
296,192,80270,1,0,
416,104,80823,5,0,
416,104,81045,1,0,
480,248,81598,1,0,
352,256,82041,1,0,
336,72,82705,6,2,B|336:72|232:32|136:88,2,180
352,288,84587,5,2,
352,288,84809,1,2,
256,344,85362,1,2,
256,192,85805,1,2,
256,56,86248,1,2,
168,336,101082,5,0,
256,168,101636,1,0,
400,160,102189,2,0,B|400:160|488:232|480:328|392:352,2,240
304,344,104625,5,0,
216,160,105178,1,0,
120,152,105732,2,0,B|120:152|40:200|32:288|48:336|144:328,2,240
256,336,108167,5,0,
256,112,108831,1,0,
344,64,109385,2,0,B|344:64|240:40|136:72,2,180
216,32,125326,6,2,B|216:32|32:144|32:208,2,240
344,144,127540,1,2,
448,64,127983,1,2,
256,184,128869,5,2,
360,256,129312,1,2,
256,336,129754,1,2,
160,264,130197,1,2,
48,336,130640,5,2,
40,192,131083,1,2,
40,48,131526,1,2,
304,40,132411,6,2,B|304:40|432:80|480:200,2,240
184,152,134625,1,2,
64,72,135068,1,2,
192,216,135954,6,0,B|192:216|264:232|336:216,3,120
464,40,137946,5,0,
464,40,138168,1,0,
352,104,138611,1,0,
240,184,139053,1,0,
184,328,139496,6,2,B|184:328|264:352|320:320,3,120
320,184,141268,1,2,
168,184,141710,1,2,
248,72,142153,1,0,
464,336,143150,5,2,
304,336,143592,1,2,
160,344,144035,1,2,
40,344,144478,1,2,
160,208,144921,2,2,B|160:208|240:200|344:208,1,180
456,48,146692,5,0,
456,48,146913,1,0,
336,112,147356,1,0,
208,176,147799,1,0,
40,208,148463,5,0,
40,208,148685,1,0,
160,272,149128,1,0,
272,328,149570,1,0,
256,192,150124,12,4,153666
