osu file format v9

[General]
AudioFilename: Fullmetal Alchemist - Melissa (Opening 1).mp3
AudioLeadIn: 0
PreviewTime: -1
Countdown: 0
SampleSet: Normal
StackLeniency: 0.7
Mode: 0
LetterboxInBreaks: 1

[Editor]
DistanceSpacing: 0.8
BeatDivisor: 4
GridSize: 8

[Metadata]
Title:Melissa (Seiichi Shindou)
Artist:Porno Graffitti
Creator:DoKoLP
Version:Normal
Source:Full Metal Alchemist
Tags:FMA

[Difficulty]
HPDrainRate:3
CircleSize:5
OverallDifficulty:3
ApproachRate:6
SliderMultiplier:1.4
SliderTickRate:1

[Events]
//Background and Video events
0,0,"FMA_wallpaper_3.jpg"
//Break Periods
2,108056,118102
2,191360,212701
//Storyboard Layer 0 (Background)
//Storyboard Layer 1 (Fail)
//Storyboard Layer 2 (Pass)
//Storyboard Layer 3 (Foreground)
//Storyboard Sound Samples
//Background Colour Transformations
3,100,163,162,255

[TimingPoints]
550,352.982703847512,4,1,0,100,1,0
4785,-133.333333333333,4,1,0,100,0,1
28612,-133.333333333333,4,1,0,100,0,0
83853,-133.333333333333,4,1,0,100,0,1
107680,-133.333333333333,4,1,0,100,0,0
162922,-133.333333333333,4,1,0,100,0,1
186748,-133.333333333333,4,1,0,100,0,0
213751,-133.333333333333,4,1,0,100,0,1
237577,-133.333333333333,4,1,0,100,0,0

[Colours]
Combo1 : 73,69,92
Combo2 : 140,145,149
Combo3 : 217,201,55
Combo4 : 151,61,34

[HitObjects]
168,240,4785,2,0,B|128:240|128:240|128:192|128:192|184:152|184:152,1,157.499995306134
248,104,5668,1,0
312,48,6021,1,0
344,240,7609,6,0,B|384:240|384:240|384:192|384:192|328:152|328:152,1,157.499995306134
264,104,8492,1,0
200,48,8845,1,0
208,192,10433,5,0
256,120,10786,1,0
256,120,10962,1,0
304,192,11315,1,0
256,264,11668,1,0
56,48,12904,5,0
120,104,13257,2,0,B|160:136|160:136|216:136,1,104.999996870756
296,136,13963,2,0,B|336:104|336:104|392:104,1,104.999996870756
432,104,14492,1,0
64,192,16081,6,0,B|64:136|64:136|104:104|104:104|160:104|160:104,1,157.499995306134
240,104,16963,2,0,B|352:104|352:104,1,104.999996870756
64,192,18905,6,0,B|64:248|64:248|104:280|104:280|160:280|160:280,1,157.499995306134
240,280,19787,2,0,B|352:280|352:280,1,104.999996870756
472,280,20670,5,0
472,200,21022,1,0
472,120,21375,1,0
472,40,21728,1,0
256,192,21817,12,0,24552
256,160,25258,6,0,B|256:216,2,52.4999984353781
256,192,25964,12,0,28788
256,40,29494,5,8
256,336,30200,5,8
256,40,30906,5,8
48,192,31612,5,8
464,192,32318,5,8
48,192,33024,5,8
472,40,33730,5,8
48,344,34436,5,8
48,40,35142,5,8
464,344,35848,5,8
48,192,36554,5,8
464,40,37260,5,8
256,336,37966,5,8
48,40,38672,5,8
256,192,39378,5,8
256,32,40084,6,0,B|256:88|256:88|304:64|328:80|328:80|328:120,1,157.499995306134
328,192,40966,1,0
328,280,41319,1,0
328,280,41495,2,0,B|328:312|328:312|272:272|216:312|216:312|152:312,1,209.999993741512
112,312,42378,1,0
32,312,42731,1,0
32,56,43790,6,0,B|88:56,1,52.4999984353781
128,56,44143,1,0
296,56,44849,6,0,B|328:56|328:56|328:80|352:104|384:104|384:104|384:152,1,157.499995306134
384,232,45731,2,0,B|384:264|384:264|312:192|256:264|256:264|256:184,1,262.499992176891
256,144,46790,1,0
256,64,47143,1,0
256,232,47849,5,0
256,232,48026,1,0
192,344,48555,2,0,B|136:344|136:344|192:304|256:344|256:344|336:344,1,262.499992176891
376,344,49614,1,0
464,344,49967,1,0
464,136,50850,5,0
464,136,51026,1,0
464,48,51379,5,0
376,48,51732,2,0,B|352:72|328:48,1,52.4999984353781
248,48,52261,1,0
248,48,52438,1,0
248,48,52614,1,0
248,48,52791,2,0,B|216:48|184:48|152:72|128:112|152:152|184:176|200:176,1,209.999993741512
240,176,53673,1,0
320,176,54026,1,0
112,192,55085,6,0,B|56:192,2,52.4999984353781
256,104,56144,1,0
256,104,56497,1,0
256,104,56673,1,0
256,192,57027,12,0,58439
256,192,59674,12,0,61263
256,48,61968,5,0
256,128,62321,1,0
256,208,62674,2,0,B|256:240|256:240|272:256|272:256|296:256|296:256|320:272|320:272|320:296|320:296|296:312|296:312|272:312|272:312|256:336|256:336,1,209.999993741512
128,336,63910,6,0,B|128:280,1,52.4999984353781
128,200,64439,1,0
128,200,64616,1,0
128,120,64969,1,0
128,40,65322,2,0,B|160:40|160:40|168:64|168:64|192:64|192:64|200:88|200:88|224:88|224:88|240:112|240:112|264:112|264:112|280:136,1,209.999993741512
256,344,66910,5,0
272,264,67263,1,0
240,264,67440,1,0
256,184,67793,1,0
256,104,68146,2,0,B|256:72|256:72|280:72|304:56|304:24|304:24|256:24|256:24|200:24|200:24|200:80,1,262.499992176891
200,160,69381,6,0,B|200:264,1,104.999996870756
288,264,70087,2,0,B|392:264,1,104.999996870756
432,264,70617,1,0
432,224,70793,1,0
432,184,70970,1,0
432,144,71146,2,0,B|432:112|432:112|456:112|456:112|456:88|432:72|400:72|376:88|376:88|376:120|376:120|352:120,1,209.999993741512
200,192,72558,5,0
40,40,73264,1,0
40,336,73970,2,0,B|72:336|72:336|72:288|72:288|40:288|40:288|40:240|72:240|112:240|112:288|112:288|144:288,1,262.499992176891
224,288,75205,5,0
224,288,75382,1,0
312,288,75735,1,0
352,288,75911,1,0
432,288,76264,1,0
432,160,76794,5,0
432,120,76970,1,0
432,80,77147,1,0
432,40,77323,1,0
392,40,77500,5,0
352,40,77676,1,0
312,40,77853,1,0
272,40,78029,1,0
272,80,78206,6,0,B|272:112|272:112|256:128|256:128|224:128|224:128|208:112|208:112|208:88|208:88|192:64|192:64|168:64|168:64|152:88|152:88,1,209.999993741512
256,192,79794,5,0
256,152,79971,1,0
256,112,80147,1,0
256,72,80324,1,0
256,32,80500,1,0
256,32,80677,1,0
256,32,80853,1,0
256,112,81206,5,0
216,112,81383,1,0
176,112,81559,1,0
136,112,81736,1,0
96,112,81912,1,0
96,112,82089,1,0
96,112,82265,1,0
176,112,82618,5,0
176,192,82971,1,0
176,232,83147,1,0
176,320,83500,1,0
344,240,83853,6,0,B|384:240|384:240|384:192|384:192|328:152|328:152,1,157.499995306134
264,104,84736,1,0
200,48,85089,1,0
168,240,86677,6,0,B|128:240|128:240|128:192|128:192|184:152|184:152,1,157.499995306134
248,104,87560,1,0
312,48,87913,1,0
304,192,89501,5,0
256,120,89854,1,0
256,120,90030,1,0
208,192,90383,1,0
256,264,90736,1,0
456,48,91972,5,0
392,104,92325,2,0,B|352:136|352:136|296:136,1,104.999996870756
216,136,93031,2,0,B|176:104|176:104|120:104,1,104.999996870756
80,104,93560,1,0
448,192,95149,6,0,B|448:136|448:136|408:104|408:104|352:104|352:104,1,157.499995306134
272,104,96031,2,0,B|160:104|160:104,1,104.999996870756
448,192,97973,6,0,B|448:248|448:248|408:280|408:280|352:280|352:280,1,157.499995306134
272,280,98855,2,0,B|160:280|160:280,1,104.999996870756
40,280,99738,5,0
40,200,100090,1,0
40,120,100443,1,0
40,40,100796,1,0
256,192,100885,12,0,103620
256,160,104326,6,0,B|256:216,2,52.4999984353781
256,192,105032,12,0,107856
424,48,119152,5,0
424,48,119505,2,0,B|424:104,1,52.4999984353781
424,184,120034,6,0,B|424:304,1,104.999996870756
392,312,120564,1,0
360,344,120740,1,0
328,312,120917,1,0
296,280,121093,1,0
264,312,121270,1,0
240,344,121446,2,0,B|136:344,1,104.999996870756
48,104,122858,6,0,B|104:104,2,52.4999984353781
48,192,123564,1,0
48,192,123740,1,0
48,232,123917,1,0
104,296,124270,1,0
136,264,124446,1,0
256,192,124799,12,0,126211
256,192,127623,12,0,130094
168,40,130447,6,0,B|112:40|112:40|168:72|168:72|112:72|112:72,1,157.499995306134
64,120,131330,6,0,B|40:144|40:144|64:168|64:168,1,52.4999984353781
80,184,131683,2,0,B|104:208|104:208|80:232|80:232,1,52.4999984353781
64,256,132036,2,0,B|40:280|40:280|64:304|64:304,1,52.4999984353781
88,320,132389,2,0,B|112:344|112:344|136:320|136:320,1,52.4999984353781
152,304,132742,2,0,B|176:280|176:280|232:328|232:328,1,104.999996870756
368,120,134153,5,0
368,80,134329,1,0
368,40,134506,1,0
368,208,135212,6,0,B|368:320,1,104.999996870756
328,312,135742,1,0
240,312,136095,2,0,B|240:256|240:256|272:216|240:184|240:184|240:112,1,209.999993741512
216,80,136977,1,0
192,48,137154,1,0
112,48,137507,1,0
32,192,138213,5,0
72,192,138389,1,0
200,192,138919,2,0,B|200:136|200:136|280:136|280:136|240:136|240:192|296:192|328:192,1,262.499992176891
368,192,139978,1,0
448,192,140331,1,0
280,192,141037,5,0
256,192,141566,12,0,142802
384,48,143155,6,0,B|464:128,1,104.999996870756
432,152,143684,1,0
376,208,144037,2,0,B|336:248,1,52.4999984353781
304,272,144390,2,0,B|304:216|304:216|256:216|256:216|304:184|256:184|256:184|304:160|304:160|304:144|304:112,1,262.499992176891
176,120,145802,5,0
176,120,145978,1,0
96,120,146331,1,0
96,120,146508,1,0
40,184,146861,1,0
40,264,147214,2,0,B|40:320|40:320|80:264|112:320|112:320|144:264|176:320|176:320|200:320,1,262.499992176891
288,320,148449,5,0
368,320,148802,2,0,B|368:264|368:264|416:264|416:264|416:208,1,157.499995306134
416,168,149508,2,0,B|360:168|360:168|360:120|360:120|304:120,1,157.499995306134
264,120,150214,2,0,B|264:176|264:176|216:176|216:176|216:240,1,157.499995306134
216,272,150920,1,0
216,312,151097,1,0
216,352,151273,1,0
304,352,151626,6,0,B|408:352,1,104.999996870756
432,320,152156,1,0
408,288,152332,2,0,B|304:288,1,104.999996870756
280,256,152862,1,0
304,224,153038,2,0,B|408:224,1,104.999996870756
440,192,153568,5,0
464,160,153744,1,0
464,120,153920,1,0
440,88,154097,1,0
400,88,154273,1,0
400,88,154450,2,0,B|296:88,1,104.999996870756
256,88,154979,2,0,B|256:32,3,52.4999984353781
192,88,155862,5,0
112,88,156215,1,0
112,128,156391,1,0
112,168,156568,1,0
192,168,156921,5,0
192,208,157097,1,0
192,248,157274,1,0
112,248,157627,1,0
112,248,157980,1,0
256,96,158862,6,0,B|256:64,2,26.2499992176891
296,96,159215,2,0,B|328:96,2,26.2499992176891
296,136,159568,2,0,B|296:168,2,26.2499992176891
256,136,159921,1,0
256,288,160274,6,0,B|256:320,2,26.2499992176891
216,288,160627,2,0,B|184:288,2,26.2499992176891
216,248,160980,2,0,B|216:216,2,26.2499992176891
256,248,161333,1,0
256,168,161686,5,0
256,168,162039,1,0
256,168,162216,1,0
256,168,162569,1,0
344,144,162922,6,0,B|384:144|384:144|384:192|384:192|328:232|328:232,1,157.499995306134
264,280,163805,1,0
200,336,164158,1,0
168,144,165746,6,0,B|128:144|128:144|128:192|128:192|184:232|184:232,1,157.499995306134
248,280,166629,1,0
312,336,166982,1,0
304,192,168570,5,0
256,264,168923,1,0
256,264,169099,1,0
208,192,169452,1,0
256,120,169805,1,0
456,336,171040,5,0
392,280,171394,2,0,B|352:248|352:248|296:248,1,104.999996870756
216,248,172100,2,0,B|176:280|176:280|120:280,1,104.999996870756
80,280,172629,1,0
448,192,174218,6,0,B|448:248|448:248|408:280|408:280|352:280|352:280,1,157.499995306134
272,280,175100,2,0,B|160:280|160:280,1,104.999996870756
448,192,177042,6,0,B|448:136|448:136|408:104|408:104|352:104|352:104,1,157.499995306134
272,104,177924,2,0,B|160:104|160:104,1,104.999996870756
40,104,178807,5,0
40,184,179159,1,0
40,264,179512,1,0
40,344,179865,1,0
256,192,179954,12,0,182689
256,224,183395,6,0,B|256:168,2,52.4999984353781
256,192,184101,12,0,186925
256,48,187630,5,12
256,336,188336,5,12
380,119,189042,5,12
131,264,189748,5,12
380,264,190454,5,12
131,120,191160,5,12
168,144,213751,6,0,B|128:144|128:144|128:192|128:192|184:232|184:232,1,157.499995306134
248,280,214634,1,0
312,336,214987,1,0
344,144,216575,6,0,B|384:144|384:144|384:192|384:192|328:232|328:232,1,157.499995306134
264,280,217458,1,0
200,336,217811,1,0
208,192,219399,5,0
256,264,219752,1,0
256,264,219928,1,0
304,192,220281,1,0
256,120,220634,1,0
56,336,221870,5,0
120,280,222223,2,0,B|160:248|160:248|216:248,1,104.999996870756
296,248,222929,2,0,B|336:280|336:280|392:280,1,104.999996870756
432,280,223458,1,0
64,192,225047,6,0,B|64:248|64:248|104:280|104:280|160:280|160:280,1,157.499995306134
240,280,225929,2,0,B|352:280|352:280,1,104.999996870756
64,192,227871,6,0,B|64:136|64:136|104:104|104:104|160:104|160:104,1,157.499995306134
240,104,228753,2,0,B|352:104|352:104,1,104.999996870756
472,104,229636,5,0
472,184,229988,1,0
472,264,230341,1,0
472,344,230694,1,0
256,192,230783,12,0,233518
256,224,234224,6,0,B|256:168,2,52.4999984353781
256,192,234930,12,0,237754
