osu file format v9

[General]
AudioFilename: Fullmetal Alchemist - Melissa (Opening 1).mp3
AudioLeadIn: 0
PreviewTime: -1
Countdown: 1
SampleSet: Normal
StackLeniency: 0.7
Mode: 0
LetterboxInBreaks: 1

[Editor]
DistanceSpacing: 0.8
BeatDivisor: 4
GridSize: 8

[Metadata]
Title:Melissa (Seiichi Shindou)
Artist:Porno Graffitti
Creator:DoKoLP
Version:Insane
Source:Full Metal Alchemist
Tags:FMA

[Difficulty]
HPDrainRate:7
CircleSize:4
OverallDifficulty:7
ApproachRate:9
SliderMultiplier:1.4
SliderTickRate:1

[Events]
//Background and Video events
0,0,"FMA_wallpaper_3.jpg"
//Break Periods
2,30224,39484
2,109292,118552
//Storyboard Layer 0 (Background)
//Storyboard Layer 1 (Fail)
//Storyboard Layer 2 (Pass)
//Storyboard Layer 3 (Foreground)
//Storyboard Sound Samples
//Background Colour Transformations
3,100,163,162,255

[TimingPoints]
550,352.982703847512,4,1,0,100,1,0
4785,-100,4,1,0,100,0,1
25258,-200,4,1,0,100,0,0
26141,-100,4,1,0,100,0,0
28612,-100,4,1,0,100,0,0
48026,-200,4,1,0,100,0,0
48555,-100,4,1,0,100,0,0
83853,-100,4,1,0,100,0,1
104326,-200,4,1,0,100,0,0
105209,-100,4,1,0,100,0,0
107680,-100,4,1,0,100,0,0
162922,-100,4,1,0,100,0,1
183395,-200,4,1,0,100,0,0
184277,-100,4,1,0,100,0,0
186748,-100,4,1,0,100,0,0
213751,-100,4,1,0,100,0,1
234224,-200,4,1,0,100,0,0
237577,-200,4,1,0,100,0,0

[Colours]
Combo1 : 73,69,92
Combo2 : 140,145,149
Combo3 : 217,201,55
Combo4 : 151,61,34

[HitObjects]
80,232,4785,2,0,B|104:296|192:304,1,140,0|0
336,264,5315,1,0
176,120,5668,1,0
336,32,6021,2,0,B|408:32|448:104,1,140
464,184,6550,5,0
424,256,6727,1,0
424,256,6815,1,0
424,256,6903,1,0
360,304,7080,2,0,B|328:320|288:320,1,70
208,312,7433,1,0
128,264,7609,6,0,B|80:208|128:128,1,140
168,56,8139,1,0
256,184,8492,1,0
336,56,8845,2,0,B|408:56|456:136,1,140
456,200,9374,5,0
424,224,9462,1,0
392,248,9551,1,0
424,264,9639,1,0
456,288,9727,1,0
424,312,9815,1,0
392,336,9904,1,0
312,344,10080,2,0,B|240:344,1,70
72,272,10433,5,0
72,40,10786,1,0
72,112,10962,1,0
304,112,11315,2,0,B|248:32|184:120,1,140
184,184,11845,5,0
184,272,12021,1,0
256,328,12198,1,0
256,328,12286,1,0
256,328,12374,1,0
328,184,12551,1,0
184,184,12727,1,0
256,248,12904,1,0
256,80,13257,6,0,B|304:24|384:24|440:88,1,210
440,120,13875,1,0
440,152,13963,2,0,B|440:224|400:296,1,140
384,312,14404,1,0
352,328,14492,2,0,B|312:336|240:336|192:312,1,140
136,288,15022,1,0
64,240,15198,1,0
48,160,15375,1,0
48,160,15463,1,0
48,160,15551,1,0
64,80,15728,1,0
64,80,15816,1,0
64,80,15904,1,0
256,40,16081,6,0,B|320:96|392:32,1,140
456,40,16610,1,0
456,184,16963,1,0
456,336,17316,2,0,B|392:280|320:344,1,140
256,336,17846,5,0
256,304,17934,1,0
256,272,18022,1,0
256,192,18199,1,0
256,192,18287,1,0
256,192,18375,1,0
256,48,18552,1,0
256,80,18640,1,0
256,112,18728,1,0
256,192,18905,5,0
256,192,19258,1,0
336,192,19434,2,0,B|416:192|440:112,1,140
168,32,20140,6,0,B|88:32|64:120,1,140
80,144,20581,1,0
96,168,20670,2,0,B|128:192|128:240,1,70
136,264,20934,1,0
144,296,21022,2,0,B|144:336|192:360,1,70
208,360,21287,1,0
240,360,21375,2,0,B|296:352|296:304,1,70
288,288,21640,1,0
264,256,21728,2,0,B|208:184|208:144|272:64,1,210
472,40,22434,6,0,B|424:104|480:176,1,140
480,248,22964,1,0
480,248,23052,1,0
480,248,23140,2,0,B|480:320|424:336|384:336,1,140
320,336,23670,5,0
256,264,23846,1,0
352,216,24023,1,0
184,176,24199,1,0
392,96,24376,1,0
112,48,24552,1,0
256,40,25258,6,0,B|256:112,1,70
256,344,26141,2,0,B|256:192,1,140
192,152,26670,1,0
320,152,26847,1,0
256,40,27023,1,0
256,216,27200,1,0
352,40,27376,1,0
152,40,27553,1,0
256,112,27729,1,0
256,184,27906,1,0
256,256,28082,1,0
256,328,28259,1,0
256,192,28612,12,0,30024
248,48,40084,6,0,B|248:120|168:152,1,140
104,192,40613,2,0,B|136:224|168:240|200:224|240:192,1,140
376,128,41319,5,0
432,80,41495,1,0
432,216,41672,1,0
320,80,41848,1,0
320,216,42025,1,0
376,160,42201,1,0
376,272,42378,1,0
256,344,42731,1,0
256,192,43790,6,0,B|256:144|200:128,1,70
152,104,44143,1,0
48,48,44849,6,0,B|48:192,1,140
48,264,45378,1,0
48,264,45731,2,0,B|216:368|384:256,1,350
432,208,46790,1,0
432,40,47143,1,0
256,40,47849,5,0
256,40,48026,2,0,B|256:120,1,70
256,184,48555,2,0,B|256:336,2,140
256,80,49438,1,0
256,80,49614,1,0
448,136,49967,2,0,B|496:192|448:272,2,140
392,80,50850,5,0
336,136,51026,1,0
256,344,51379,5,0
256,48,51732,2,0,B|256:120,1,70
224,200,52261,5,0
288,200,52437,1,0
184,200,52614,1,0
328,200,52790,1,0
136,200,52967,1,0
376,200,53143,1,0
96,200,53320,1,0
416,200,53497,1,0
256,200,53673,1,0
256,40,54026,1,0
416,88,55085,5,0
464,152,55261,1,0
464,232,55438,2,0,B|464:280|432:312,1,70
256,336,56144,6,0,B|192:280|128:336,1,140
56,336,56674,1,0
56,192,57027,2,0,B|8:72|144:16|240:96|232:192|136:232|120:152,1,350
120,168,58086,1,0
120,168,58439,1,0
256,48,59145,5,0
256,128,59321,1,0
256,192,59674,12,0,60910
256,192,61263,5,0
384,56,61968,2,0,B|448:112|416:192,1,140
312,352,62674,2,0,B|256:288|192:352,1,140
96,192,63910,5,0
48,112,64086,1,0
216,112,64439,1,0
264,192,64615,1,0
456,192,64969,1,0
408,112,65145,1,0
456,192,65322,2,0,B|456:272|392:312|304:312,1,210
240,312,66028,1,0
256,48,66910,6,0,B|256:192,1,140
256,264,67440,1,0
88,200,67793,1,0
88,200,68146,2,0,B|64:128|96:64,1,140
168,64,68675,1,0
200,48,68763,1,0
232,64,68852,1,0
264,48,68940,1,0
296,64,69028,1,0
464,64,69381,5,0
464,192,69734,1,0
256,336,70087,1,0
48,192,70440,1,0
256,192,70970,12,0,72205
144,48,72558,6,0,B|64:48|64:144,1,140
368,336,73264,2,0,B|448:336|448:240,1,140
256,40,73970,2,0,B|280:64|288:72|280:80|256:104|224:136|216:144|224:152|256:184|288:216|296:224|288:232|256:264|248:272|256:280|256:320,1,280
64,48,75205,5,0
64,48,75294,1,0
64,48,75382,1,0
64,192,75735,1,0
64,192,75911,1,0
64,344,76264,2,0,B|232:344,1,140
280,344,76794,6,0,B|352:344|424:288|352:232|280:232|280:232,1,210
232,288,77500,2,0,B|168:288|96:232|168:176|240:176|240:176,1,210
296,232,78206,2,0,B|368:232|440:176|368:120|296:120|296:120,1,210
232,120,78912,2,0,B|88:120,1,140
256,64,79794,5,0
184,120,79971,1,0
328,248,80147,1,0
184,248,80324,1,0
328,120,80500,1,0
256,184,80677,1,0
256,184,80765,1,0
256,184,80853,1,0
472,136,81206,6,0,B|416:88,1,70
472,248,81559,2,0,B|416:296,1,70
48,192,82089,1,0
48,192,82265,1,0
256,192,82618,12,0,83853
336,120,84206,5,0
336,120,84383,1,0
176,264,84736,1,0
336,352,85089,2,0,B|408:352|448:280,1,140
464,200,85618,5,0
424,128,85795,1,0
424,128,85883,1,0
424,128,85971,1,0
360,80,86148,2,0,B|328:64|288:64,1,70
208,72,86501,1,0
128,120,86677,6,0,B|80:176|128:256,1,140
168,328,87207,1,0
256,200,87560,1,0
336,328,87913,2,0,B|408:328|456:248,1,140
456,184,88442,5,0
424,160,88530,1,0
392,136,88619,1,0
424,120,88707,1,0
456,96,88795,1,0
424,72,88883,1,0
392,48,88972,1,0
312,40,89148,2,0,B|240:40,1,70
72,112,89501,5,0
72,344,89854,1,0
72,272,90030,1,0
304,272,90383,2,0,B|248:352|184:264,1,140
184,200,90913,5,0
184,112,91089,1,0
256,56,91266,1,0
256,56,91354,1,0
256,56,91442,1,0
328,200,91619,1,0
184,200,91795,1,0
256,136,91972,1,0
256,304,92325,6,0,B|304:360|384:360|440:296,1,210
440,264,92943,1,0
440,232,93031,2,0,B|440:160|400:88,1,140
384,72,93472,1,0
352,56,93560,2,0,B|312:48|240:48|192:72,1,140
136,96,94090,1,0
64,144,94266,1,0
48,224,94443,1,0
48,224,94531,1,0
48,224,94619,1,0
64,304,94796,1,0
64,304,94884,1,0
64,304,94972,1,0
256,344,95149,6,0,B|320:288|392:352,1,140
456,344,95678,1,0
456,200,96031,1,0
456,48,96384,2,0,B|392:104|320:40,1,140
256,48,96914,5,0
256,80,97002,1,0
256,112,97090,1,0
256,192,97267,1,0
256,192,97355,1,0
256,192,97443,1,0
256,336,97620,1,0
256,304,97708,1,0
256,272,97796,1,0
256,192,97973,5,0
256,192,98326,1,0
336,192,98502,2,0,B|416:192|440:272,1,140
168,352,99208,6,0,B|88:352|64:264,1,140
80,240,99649,1,0
96,216,99738,2,0,B|128:192|128:144,1,70
136,120,100002,1,0
144,88,100090,2,0,B|144:48|192:24,1,70
208,24,100355,1,0
240,24,100443,2,0,B|296:32|296:80,1,70
288,96,100708,1,0
264,128,100796,2,0,B|208:200|208:240|272:320,1,210
472,344,101502,6,0,B|424:280|480:208,1,140
480,136,102032,1,0
480,136,102120,1,0
480,136,102208,2,0,B|480:64|424:48|384:48,1,140
320,48,102738,5,0
256,120,102914,1,0
352,168,103091,1,0
184,208,103267,1,0
392,288,103444,1,0
112,336,103620,1,0
256,344,104326,6,0,B|256:272,1,70
256,40,105209,2,0,B|256:192,1,140
192,232,105738,1,0
320,232,105915,1,0
256,344,106091,1,0
256,168,106268,1,0
352,344,106444,1,0
152,344,106621,1,0
256,272,106797,1,0
256,200,106974,1,0
256,128,107150,1,0
256,56,107327,1,0
256,192,107680,12,0,109092
192,64,119152,5,0
192,64,119505,2,0,B|136:128,1,70
40,224,120034,1,0
200,304,120387,5,0
288,240,120564,1,0
160,304,120740,1,0
288,200,120917,1,0
184,336,121093,1,0
320,216,121270,1,0
224,336,121446,1,0
472,192,121799,1,0
472,192,122858,6,0,B|384:192,1,70
402,192,123211,2,0,B|320:192,1,70
192,160,123917,5,0
256,40,124270,1,0
256,112,124446,1,0
256,232,124799,2,0,B|256:304,6,70
256,40,126211,1,0
64,160,126917,5,0
64,80,127094,1,0
64,296,127623,6,0,B|112:352|200:336,1,140
264,320,128153,1,0
336,280,128329,1,0
336,280,128417,1,0
336,280,128506,1,0
392,216,128682,1,0
456,40,129035,2,0,B|384:40|352:80|352:80|320:40|192:40,1,280
56,48,130447,5,0
56,48,130624,1,0
56,48,130712,1,0
56,48,130800,1,0
56,128,130977,1,0
56,344,131330,5,0
120,288,131506,2,0,B|176:232,1,70
224,184,131859,1,0
256,272,132036,1,0
312,128,132212,1,0
296,288,132389,1,0
264,152,132565,1,0
336,280,132742,1,0
360,144,132918,1,0
360,144,133095,1,0
384,336,134153,5,0
312,336,134330,1,0
240,336,134506,1,0
112,296,135212,6,0,B|48:256|72:168,1,140
70,173,135742,1,0
168,48,136095,5,0
192,48,136183,1,0
216,48,136271,1,0
240,56,136360,1,0
264,72,136448,1,0
280,96,136536,1,0
288,120,136624,1,0
288,152,136713,1,0
280,176,136801,1,0
264,192,136889,1,0
240,208,136977,1,0
216,216,137066,1,0
192,216,137154,1,0
360,136,137507,1,0
456,328,138213,5,0
456,248,138389,1,0
344,48,138919,5,0
320,48,139007,1,0
296,48,139095,1,0
272,56,139184,1,0
248,72,139272,1,0
232,96,139360,1,0
224,120,139448,1,0
224,152,139537,1,0
232,176,139625,1,0
248,192,139713,1,0
272,208,139801,1,0
296,216,139890,1,0
152,136,140331,1,0
256,344,141037,6,0,B|256:48,1,280,0|0
328,40,141919,1,0
400,56,142096,1,0
456,112,142272,1,0
480,184,142449,1,0
480,184,142537,1,0
480,184,142625,1,0
456,264,142802,1,0
264,344,143155,6,0,B|264:256,1,70
264,200,143507,1,0
264,128,143684,1,0
264,56,143860,1,0
264,56,143949,1,0
264,56,144037,1,0
264,56,144125,1,0
264,56,144213,1,0
184,56,144390,2,0,B|184:288,1,210
184,344,145096,5,0
112,328,145273,1,0
56,272,145449,1,0
32,200,145626,1,0
32,200,145714,1,0
32,200,145802,1,0
56,120,145979,1,0
224,40,146331,6,0,B|296:40,1,70
368,40,146684,2,0,B|416:40|416:88,1,70
416,208,147214,2,0,B|400:344|208:352|208:184|368:184|432:288|360:336|264:352|216:352,1,420
152,352,148449,1,0
56,192,148802,6,0,B|56:120,1,70
256,56,149155,2,0,B|328:56,1,70
456,192,149508,2,0,B|456:264,1,70
256,328,149861,2,0,B|184:328,1,70
256,48,150214,2,0,B|256:336,1,280
256,192,151450,12,0,153920
256,192,154273,5,0
256,192,154450,1,0
256,32,154803,5,0
256,112,154979,1,0
256,272,155332,2,0,B|256:344|152:344,1,140
80,344,155862,2,0,B|40:344|40:288|104:288|128:232|128:168,1,210
128,96,156568,2,0,B|128:24|208:24|240:88|304:64,1,210
376,40,157274,2,0,B|408:24|456:32|456:96|416:120|400:200,1,210
400,272,157980,2,0,B|328:272|328:200|232:208|208:248,1,210
64,184,158862,5,0
104,112,159039,1,0
104,112,159127,1,0
104,112,159215,1,0
168,56,159392,1,0
248,48,159568,1,0
248,48,159656,1,0
248,48,159745,1,0
328,56,159921,1,0
448,200,160274,1,0
408,272,160451,1,0
408,272,160539,1,0
408,272,160627,1,0
344,328,160804,1,0
264,336,160980,1,0
264,336,161068,1,0
264,336,161157,1,0
184,328,161333,1,0
256,192,161686,12,0,162745
432,152,162922,2,0,B|408:88|320:80,1,140
176,120,163452,1,0
336,264,163805,1,0
176,352,164158,2,0,B|104:352|64:280,1,140
48,200,164687,5,0
88,128,164864,1,0
88,128,164952,1,0
88,128,165040,1,0
152,80,165217,2,0,B|184:64|224:64,1,70
304,72,165570,1,0
384,120,165746,6,0,B|432:176|384:256,1,140,0|0
344,328,166276,1,0
256,200,166629,1,0
176,328,166982,2,0,B|104:328|56:248,1,140
56,184,167511,5,0
88,160,167599,1,0
120,136,167688,1,0
88,120,167776,1,0
56,96,167864,1,0
88,72,167952,1,0
120,48,168041,1,0
200,40,168217,2,0,B|272:40,1,70
440,112,168570,5,0
440,344,168923,1,0
440,272,169099,1,0
208,272,169452,2,0,B|264:352|328:264,1,140
328,200,169982,5,0
328,112,170158,1,0
256,56,170335,1,0
256,56,170423,1,0
256,56,170511,1,0
184,200,170688,1,0
328,200,170864,1,0
256,136,171041,1,0
256,304,171394,6,0,B|208:360|128:360|72:296,1,210
72,264,172012,1,0
72,232,172100,2,0,B|72:160|112:88,1,140
128,72,172541,1,0
160,56,172629,2,0,B|200:48|272:48|320:72,1,140
376,96,173159,5,0
448,144,173335,1,0
464,224,173512,1,0
464,224,173600,1,0
464,224,173688,1,0
448,304,173865,1,0
448,304,173953,1,0
448,304,174041,1,0
256,344,174218,6,0,B|192:288|120:352,1,140
56,344,174747,1,0
56,200,175100,1,0
56,48,175453,2,0,B|120:104|192:40,1,140
256,48,175983,5,0
256,80,176071,1,0
256,112,176159,1,0
256,192,176336,1,0
256,192,176424,1,0
256,192,176512,1,0
256,336,176689,1,0
256,304,176777,1,0
256,272,176865,1,0
256,192,177042,5,0
256,192,177395,1,0
176,192,177571,2,0,B|96:192|72:272,1,140
344,352,178277,6,0,B|424:352|448:264,1,140
432,240,178718,1,0
416,216,178807,2,0,B|384:192|384:144,1,70
376,120,179071,1,0
368,88,179159,2,0,B|368:48|320:24,1,70
304,24,179424,1,0
272,24,179512,2,0,B|216:32|216:80,1,70
224,96,179777,1,0
248,128,179865,2,0,B|304:200|304:240|240:320,1,210
40,344,180571,6,0,B|88:280|32:208,1,140
32,136,181101,1,0
32,136,181189,1,0
32,136,181277,2,0,B|32:64|88:48|128:48,1,140
192,48,181807,5,0
256,120,181983,1,0
160,168,182160,1,0
328,208,182336,1,0
120,288,182513,1,0
400,336,182689,1,0
256,344,183395,6,0,B|256:272,1,70
256,40,184278,2,0,B|256:192,1,140
320,232,184807,1,0
192,232,184984,1,0
256,344,185160,1,0
256,168,185337,1,0
160,344,185513,1,0
360,344,185690,1,0
256,272,185866,1,0
256,200,186043,1,0
256,128,186219,1,0
256,56,186396,1,0
256,56,186571,1,0
256,192,186748,12,0,188160
256,56,188689,5,8
256,56,189042,1,4
456,192,189395,5,8
456,192,189748,1,4
256,328,190101,5,8
256,328,190454,1,4
56,192,190807,5,8
56,192,191160,2,8,B|56:112|128:80,1,140
192,40,191690,2,8,B|272:40|296:120,1,140
472,192,192396,2,4,B|464:176|464:176|464:208|464:208|456:176|456:176|456:208|456:208|448:176|448:176|448:208|448:208|440:176|440:176|440:208|440:208|432:176|432:176|432:208|432:208|424:176|424:176|424:208|424:208|416:176|416:176|416:208|416:208|408:176|408:176|400:192|400:192|400:192,1,490,4|4
304,320,193984,6,8,B|248:336|256:248|168:256,1,140
176,328,194513,2,8,B|96:304|120:208,1,140
256,40,195219,2,0,B|272:48|272:48|240:48|240:48|272:56|272:56|240:56|240:56|272:64|272:64|240:64|240:64|272:72|272:72|240:72|240:72|272:80|272:80|240:80|240:80|272:88|272:88|240:88|240:88|272:96|272:96|240:96|240:96|272:104|272:104|256:112|256:112|256:112,1,490,4|4
88,48,196808,5,8
48,112,196984,1,8
48,112,197073,1,8
48,112,197161,1,8
48,184,197337,2,8,B|112:256|176:192,1,140
256,344,198043,2,4,B|272:336|272:336|240:336|240:336|272:328|272:328|240:328|240:328|272:320|272:320|240:320|240:320|272:312|272:312|240:312|240:312|272:304|272:304|240:304|240:304|272:296|272:296|240:296|240:296|272:288|272:288|240:288|240:288|272:280|272:280|256:272|256:272|256:272,1,490
256,48,199632,5,8
256,48,199720,1,8
256,48,199808,1,8
256,48,199896,1,8
256,48,199985,1,8
464,344,200338,5,8
464,344,200426,1,8
464,344,200515,1,8
464,344,200602,1,8
464,344,200691,1,8
48,344,201044,5,8
48,344,201132,1,8
48,344,201220,1,8
48,264,201397,1,2
96,192,201573,1,8
176,152,201750,1,2
256,136,201926,1,8
256,136,202014,1,8
256,136,202103,1,8
328,96,202279,1,8
400,56,202456,2,2,B|440:24|472:24|480:72|448:112|408:144|464:192,1,210
464,336,203338,5,8
344,280,203691,2,2,B|192:296|112:216|128:72|328:16|376:168|256:192,1,490
64,48,205279,5,8
64,192,205632,1,8
64,192,205809,1,2
64,344,206162,1,8
168,280,206515,2,2,B|320:296|400:216|384:72|184:16|136:168|256:192,1,490
256,40,208456,5,8
328,136,208633,1,8
256,264,208809,1,8
256,136,208986,1,8
256,136,209074,1,8
256,136,209162,1,8
184,136,209339,2,2,B|184:88|128:32|64:96|64:344,1,350
432,336,210751,5,8
368,288,210927,1,8
304,336,211104,1,8
368,288,211280,1,8
432,240,211457,2,8,B|416:224|416:224|448:224|448:224|416:208|416:208|448:208|448:208|432:192|432:192,1,140
440,56,212163,2,2,B|344:32|248:80|240:152|344:224|440:160|432:88|344:48|200:40,1,490
80,152,213751,6,0,B|104:88|192:80,1,140
336,120,214281,1,0
176,264,214634,1,0
336,352,214987,2,0,B|408:352|448:280,1,140
464,200,215516,5,0
424,128,215693,1,0
424,128,215781,1,0
424,128,215869,1,0
360,80,216046,2,0,B|328:64|288:64,1,70
208,72,216399,1,0
128,120,216575,6,0,B|80:176|128:256,1,140
168,328,217105,1,0
256,200,217458,1,0
336,328,217811,2,0,B|408:328|456:248,1,140
456,184,218340,5,0
424,160,218428,1,0
392,136,218517,1,0
424,120,218605,1,0
456,96,218693,1,0
424,72,218781,1,0
392,48,218870,1,0
312,40,219046,2,0,B|240:40,1,70
72,112,219399,5,0
72,344,219752,1,0
72,272,219928,1,0
304,272,220281,2,0,B|248:352|184:264,1,140
184,200,220811,5,0
184,112,220987,1,0
256,56,221164,1,0
256,56,221252,1,0
256,56,221340,1,0
328,200,221517,1,0
184,200,221693,1,0
256,136,221870,1,0
256,304,222223,6,0,B|304:360|384:360|440:296,1,210
440,264,222841,1,0
440,232,222929,2,0,B|440:160|400:88,1,140
384,72,223370,1,0
352,56,223458,2,0,B|312:48|240:48|192:72,1,140
136,96,223988,5,0
64,144,224164,1,0
48,224,224341,1,0
48,224,224429,1,0
48,224,224517,1,0
64,304,224694,1,0
64,304,224782,1,0
64,304,224870,1,0
256,344,225047,6,0,B|320:288|392:352,1,140
456,344,225576,1,0
456,200,225929,1,0
456,48,226282,2,0,B|392:104|320:40,1,140
256,48,226812,5,0
256,80,226900,1,0
256,112,226988,1,0
256,192,227165,1,0
256,192,227253,1,0
256,192,227341,1,0
256,336,227518,1,0
256,304,227606,1,0
256,272,227694,1,0
256,192,227871,5,0
256,192,228224,1,0
336,192,228400,2,0,B|416:192|440:272,1,140
168,352,229106,6,0,B|88:352|64:264,1,140
80,240,229547,1,0
96,216,229636,2,0,B|128:192|128:144,1,70
136,120,229900,1,0
144,88,229988,2,0,B|144:48|192:24,1,70
208,24,230253,1,0
240,24,230341,2,0,B|296:32|296:80,1,70
288,96,230606,1,0
264,128,230694,2,0,B|208:200|208:240|272:320,1,210
472,344,231400,6,0,B|424:280|480:208,1,140
480,136,231930,1,0
480,136,232018,1,0
480,136,232106,2,0,B|480:64|424:48|384:48,1,140
320,48,232636,5,0
256,120,232812,1,0
352,168,232989,1,0
184,208,233165,1,0
392,288,233342,1,0
112,336,233518,1,0
256,344,234224,6,0,B|256:272,1,70
256,48,235107,1,0
256,120,235283,1,0
256,192,235459,1,0
192,232,235636,1,0
320,232,235813,1,0
256,344,235989,1,0
256,168,236166,1,0
352,344,236342,1,0
152,344,236519,1,0
256,272,236695,1,0
256,200,236872,1,0
256,128,237048,1,0
256,56,237225,1,0
256,56,237401,1,0
256,192,237577,12,0,238989
