osu file format v9

[General]
AudioFilename: Fullmetal Alchemist - Melissa (Opening 1).mp3
AudioLeadIn: 0
PreviewTime: -1
Countdown: 1
SampleSet: Normal
StackLeniency: 0.7
Mode: 0
LetterboxInBreaks: 1

[Editor]
DistanceSpacing: 0.8
BeatDivisor: 4
GridSize: 8

[Metadata]
Title:Melissa (Seiichi Shindou)
Artist:Porno Graffitti
Creator:DoKoLP
Version:Hard
Source:Full Metal Alchemist
Tags:FMA

[Difficulty]
HPDrainRate:4
CircleSize:6
OverallDifficulty:4
ApproachRate:6
SliderMultiplier:1.4
SliderTickRate:1

[Events]
//Background and Video events
0,0,"FMA_wallpaper_3.jpg"
//Break Periods
2,30400,39034
2,188537,212701
//Storyboard Layer 0 (Background)
//Storyboard Layer 1 (Fail)
//Storyboard Layer 2 (Pass)
//Storyboard Layer 3 (Foreground)
//Storyboard Sound Samples
//Background Colour Transformations
3,100,163,162,255

[TimingPoints]
550,352.982703847512,4,1,0,100,1,0
4785,-100,4,1,0,100,0,1
28612,-100,4,1,0,100,0,0
83853,-100,4,1,0,100,0,1
107680,-100,4,1,0,100,0,0
162922,-100,4,1,0,100,0,1
186748,-100,4,1,0,100,0,0
213751,-100,4,1,0,100,0,1
237577,-100,4,1,0,100,0,0

[Colours]
Combo1 : 73,69,92
Combo2 : 140,145,149
Combo3 : 217,201,55
Combo4 : 151,61,34

[HitObjects]
256,48,4785,1,0
256,48,5138,1,0
256,48,5315,1,0
144,48,5668,1,0
56,120,6021,2,0,B|56:264,3,140
192,344,7609,5,0
304,344,7962,2,0,B|376:344,1,70
456,272,8492,1,0
456,160,8845,2,0,B|456:72|352:72,3,140
200,56,10433,6,0,B|200:136,1,70
200,200,10786,1,0
200,200,10962,1,0
312,200,11315,1,0
312,96,11668,2,0,B|400:96|368:160|448:160,1,140
432,224,12198,2,0,B|344:224|376:288|296:288,1,140
208,336,12904,5,0
104,296,13257,2,0,B|48:240|48:168|128:152|40:80,1,210
32,48,13963,2,0,B|56:16|96:56|120:88|200:48|248:40,1,210
256,192,14581,12,0,15728
304,48,16081,5,0
240,48,16257,1,0
240,48,16434,1,0
176,48,16610,1,0
64,48,16963,1,0
64,48,17316,2,0,B|64:200,1,140
64,256,17846,6,0,B|96:288|128:256,1,70
168,208,18199,2,0,B|200:176|232:208,1,70
272,256,18552,2,0,B|304:288|336:256,1,70
384,216,18905,5,0
384,104,19258,1,0
384,104,19434,1,0
296,40,19787,1,0
184,40,20140,2,0,B|144:40|112:72|112:120|128:144,1,140
168,192,20670,6,0,B|192:224|168:256,1,70
112,288,21022,2,0,B|88:256|112:224,1,70
168,256,21375,2,0,B|200:280|232:256,1,70
288,216,21728,1,0
256,192,21905,12,0,24552
56,192,25258,1,0
56,192,25611,1,0
56,48,26141,5,0
168,48,26494,2,0,B|240:48,1,70
304,48,26847,2,0,B|360:96,1,70
360,160,27200,2,0,B|304:208,1,70
256,248,27553,2,0,B|200:296,1,70
136,296,27906,2,0,B|136:224,1,70
136,160,28259,1,0
136,160,28435,1,0
256,192,28612,12,0,30200
256,48,40084,5,0
152,96,40437,2,0,B|152:136|200:136,1,70
312,136,40966,1,0
424,136,41319,5,0
464,184,41495,1,0
464,248,41672,1,0
432,304,41848,1,0
368,312,42025,1,0
312,280,42201,1,0
288,216,42378,1,0
288,104,42731,1,0
48,40,43790,5,0
96,88,43966,1,0
144,136,44143,2,0,B|192:192,1,70
256,352,44849,6,0,B|256:208,1,140
256,144,45378,1,0
256,32,45731,6,0,B|328:32,2,70
256,32,46261,1,0
144,104,46614,5,0
144,104,46790,2,0,B|96:104|96:144|96:184|24:184,1,140
40,352,47849,5,0
104,352,48026,1,0
272,352,48555,6,0,B|376:352|400:304|400:256|368:216|312:216|288:280,1,280
290,274,49438,1,0
290,274,49614,1,0
376,352,49967,2,0,B|272:352|248:304|248:256|280:216|336:216|360:280,1,280
357,274,50850,1,0
357,274,51026,1,0
360,160,51379,5,0
288,80,51732,1,0
224,80,51908,1,0
112,80,52261,5,0
56,120,52438,1,0
32,184,52614,1,0
32,256,52791,2,0,B|48:296|88:296,1,70
152,296,53144,1,0
216,296,53320,2,0,B|216:224,2,70
328,296,54026,1,0
464,48,55085,5,0
400,48,55261,1,0
464,112,55438,1,0
256,296,56144,6,0,B|256:152,1,140
256,88,56674,1,0
256,192,57027,12,0,58439
256,192,59145,5,0
256,192,59321,1,0
256,192,59674,12,0,61263
256,336,61968,6,0,B|216:336|168:304|168:272|216:240|264:288|312:240|312:152,2,280
464,336,63910,5,0
464,336,64086,2,0,B|424:336|424:288|464:288|496:288|496:232|464:232,1,140
416,200,64616,1,0
416,88,64969,1,0
416,88,65322,2,0,B|432:48|376:48|344:104|288:104|256:64|232:40,1,210
176,48,66028,5,0
120,96,66204,1,0
96,168,66381,1,0
104,240,66557,1,0
152,304,66734,1,0
224,336,66910,6,0,B|280:360|328:352|360:320,1,140
408,272,67440,2,0,B|432:216|424:168|392:136,1,140
336,104,67969,5,0
272,80,68146,2,0,B|232:80|232:80|160:152,1,140
104,184,68675,2,0,B|144:216|144:216|168:216,1,70
168,216,69028,2,0,B|192:216|192:216|224:184,1,70
224,184,69381,5,0
256,48,69734,1,0
464,192,70087,1,0
256,336,70440,1,0
48,192,70793,1,0
256,40,71146,2,0,B|256:56|288:72|256:88|256:104|224:120|256:136|288:152|256:168|256:184|224:208|256:240,2,210
144,40,72558,5,0
88,80,72734,1,0
56,144,72911,1,0
56,256,73264,5,0
96,312,73440,1,0
160,344,73617,1,0
272,352,73970,6,0,B|352:344|376:312|376:272|360:232|280:256|256:208|256:168|296:128|352:128|384:160,1,350
472,192,75205,5,0
472,192,75382,1,0
472,80,75735,2,0,B|472:32|424:32,1,70
304,32,76264,1,0
240,32,76441,1,0
144,96,76794,5,0
208,96,76970,1,0
272,96,77147,1,0
368,160,77500,5,0
304,160,77676,1,0
240,160,77853,1,0
144,224,78206,5,0
208,224,78382,1,0
272,224,78559,1,0
368,288,78912,5,0
304,288,79088,1,0
240,288,79265,1,0
80,344,79794,5,0
48,288,79971,1,0
80,232,80147,1,0
48,176,80324,1,0
80,120,80500,1,0
48,64,80677,1,0
48,64,80853,1,0
440,56,81206,5,0
472,112,81383,1,0
440,168,81559,1,0
472,224,81736,1,0
440,280,81912,1,0
472,336,82089,1,0
472,336,82265,1,0
256,192,82441,12,0,83500
256,328,83853,1,0
256,328,84206,1,0
256,328,84383,1,0
368,328,84736,1,0
456,256,85089,2,0,B|456:112,3,140
320,32,86677,5,0
208,32,87030,2,0,B|136:32,1,70
56,104,87560,1,0
56,216,87913,2,0,B|56:304|160:304,3,140
312,320,89501,6,0,B|312:240,1,70
312,176,89854,1,0
312,176,90030,1,0
200,176,90383,1,0
200,280,90736,2,0,B|112:280|144:216|64:216,1,140
80,152,91266,2,0,B|168:152|136:88|216:88,1,140
304,40,91972,5,0
408,80,92325,2,0,B|464:136|464:208|384:224|472:296,1,210
480,328,93031,2,0,B|456:360|416:320|392:288|312:328|264:336,1,210
256,192,93649,12,0,94796
208,328,95149,5,0
272,328,95325,1,0
272,328,95502,1,0
336,328,95678,1,0
448,328,96031,1,0
448,328,96384,2,0,B|448:176,1,140
448,120,96914,6,0,B|416:88|384:120,1,70
344,168,97267,2,0,B|312:200|280:168,1,70
240,120,97620,2,0,B|208:88|176:120,1,70
128,160,97973,5,0
128,272,98326,1,0
128,272,98502,1,0
216,336,98855,1,0
328,336,99208,2,0,B|368:336|400:304|400:256|384:232,1,140
344,184,99738,6,0,B|320:152|344:120,1,70
400,88,100090,2,0,B|424:120|400:152,1,70
344,120,100443,2,0,B|312:96|280:120,1,70
224,160,100796,1,0
256,192,100973,12,0,103620
456,192,104326,1,0
456,192,104679,1,0
456,336,105209,5,0
344,336,105562,2,0,B|272:336,1,70
208,336,105915,2,0,B|152:288,1,70
152,224,106268,2,0,B|208:176,1,70
256,136,106621,2,0,B|312:88,1,70
376,88,106974,2,0,B|376:160,1,70
376,224,107327,1,0
376,224,107503,1,0
256,192,107680,12,0,109268
256,40,110680,5,0
256,152,111033,1,0
256,264,111386,1,0
256,264,111563,1,0
168,336,111916,1,0
168,336,112092,1,0
168,336,112269,1,0
56,336,112622,1,0
56,336,112798,1,0
56,336,112974,1,0
256,40,113504,5,0
256,152,113857,1,0
256,264,114210,1,0
256,264,114387,1,0
344,336,114740,1,0
344,336,114916,1,0
344,336,115093,1,0
456,336,115446,1,0
456,336,115622,1,0
456,336,115798,1,0
256,192,116328,12,0,118799
368,200,119152,6,0,B|416:160|416:120|360:80,1,140
304,56,119681,1,0
192,56,120034,2,0,B|48:56,1,140
40,120,120564,5,0
40,184,120740,1,0
40,248,120917,1,0
40,248,121093,1,0
104,248,121270,1,0
168,248,121446,1,0
280,248,121799,1,0
472,40,122858,5,0
424,88,123034,1,0
376,136,123211,2,0,B|312:184|240:144,1,140
184,112,123740,5,0
232,64,123917,2,0,B|296:16|368:56,1,140
424,88,124446,1,0
464,144,124623,1,0
464,208,124799,6,0,B|464:280|448:312|448:312|432:280|432:280|416:312|416:312|400:280|400:280|384:312|384:312|368:280|368:208,1,350
368,144,125858,1,0
256,144,126211,1,0
48,32,126917,5,0
48,32,127094,1,0
48,208,127623,6,0,B|48:280|64:312|64:312|80:280|80:280|96:312|96:312|112:280|112:280|128:312|128:312|144:280|144:208,1,350
144,144,128682,1,0
256,144,129035,2,0,B|256:216,3,70
256,328,129918,1,0
256,328,130094,1,0
368,328,130447,6,0,B|408:328|424:288,1,70
424,232,130800,2,0,B|424:160,1,70
424,48,131330,5,0
368,48,131506,1,0
328,88,131683,1,0
312,144,131859,1,0
296,88,132036,1,0
256,48,132212,1,0
200,48,132389,1,0
160,88,132565,1,0
144,144,132742,1,0
144,256,133095,1,0
256,192,134153,6,0,B|256:120,2,70
256,248,134683,1,0
256,248,134771,1,0
256,248,134859,1,0
256,304,135036,1,0
256,360,135212,1,0
368,360,135565,1,0
408,320,135742,1,0
448,216,136095,6,0,B|456:160|456:128|432:80,3,140
320,80,137507,1,0
256,296,138213,5,0
256,240,138390,1,0
256,192,138742,12,0,140331
48,40,141037,6,0,B|128:40,1,70
176,40,141390,2,0,B|248:40,1,70
304,40,141743,2,0,B|448:40,3,140
444,40,143155,5,0
424,96,143331,1,0
424,96,143419,1,0
424,96,143507,1,0
384,136,143684,1,0
336,168,143860,1,0
288,192,144037,6,0,B|256:208|216:192,1,70
168,192,144390,1,0
112,192,144566,2,0,B|72:192,5,35
72,224,145096,2,0,B|72:264,6,35
104,304,145802,5,0
144,344,145978,2,0,B|184:344|208:304,1,70
232,264,146331,2,0,B|264:232|296:264,1,70
376,336,146861,1,0
376,224,147214,2,0,B|376:184,5,35
376,160,147743,2,0,B|376:120,6,35
344,72,148449,6,0,B|272:40,1,70
224,40,148802,1,0
168,40,148979,1,0
168,40,149155,1,0
120,72,149332,5,0
104,96,149420,1,0
88,120,149508,1,0
88,176,149685,1,0
88,232,149861,1,0
88,232,150038,1,0
112,280,150214,6,0,B|160:328|208:328|240:304,3,140
256,192,151626,12,0,154097
256,40,154273,5,0
256,40,154450,1,0
256,152,154803,2,0,B|256:224,1,70
256,336,155332,2,0,B|256:184,1,140
256,136,155862,6,0,B|288:112|320:136,1,70
256,136,156215,2,0,B|224:112|192:136,1,70
192,80,156568,6,0,B|224:56|256:80,1,70
320,80,156921,2,0,B|288:56|256:80,1,70
256,136,157274,6,0,B|256:208,1,70
256,264,157627,2,0,B|256:336,1,70
256,334,157980,1,0
256,192,158686,12,0,162569
256,48,162922,1,0
256,48,163275,1,0
256,48,163452,1,0
368,48,163805,1,0
456,120,164158,2,0,B|456:264,3,140
320,344,165746,5,0
208,344,166099,2,0,B|136:344,1,70
56,272,166629,1,0
56,160,166982,2,0,B|56:72|160:72,3,140
312,56,168570,6,0,B|312:136,1,70
312,200,168923,1,0
312,200,169099,1,0
200,200,169452,1,0
200,96,169805,2,0,B|112:96|144:160|64:160,1,140
80,224,170335,2,0,B|168:224|136:288|216:288,1,140
304,336,171041,5,0
408,296,171394,2,0,B|464:240|464:168|384:152|472:80,1,210
480,48,172100,2,0,B|456:16|416:56|392:88|312:48|264:40,1,210
256,192,172718,12,0,173865
208,48,174218,5,0
272,48,174394,1,0
272,48,174571,1,0
336,48,174747,1,0
448,48,175100,1,0
448,48,175453,2,0,B|448:200,1,140
448,256,175983,6,0,B|416:288|384:256,1,70
344,208,176336,2,0,B|312:176|280:208,1,70
240,256,176689,2,0,B|208:288|176:256,1,70
128,216,177042,5,0
128,104,177395,1,0
128,104,177571,1,0
216,40,177924,1,0
328,40,178277,2,0,B|368:40|400:72|400:120|384:144,1,140
344,192,178807,6,0,B|320:224|344:256,1,70
400,288,179159,2,0,B|424:256|400:224,1,70
344,256,179512,2,0,B|312:280|280:256,1,70
224,216,179865,1,0
256,192,180042,12,0,182689
456,192,183395,1,0
456,192,183748,1,0
456,48,184278,5,0
344,48,184631,2,0,B|272:48,1,70
208,48,184984,2,0,B|152:96,1,70
152,160,185337,2,0,B|208:208,1,70
256,248,185690,2,0,B|312:296,1,70
376,296,186043,2,0,B|376:224,1,70
376,160,186396,1,0
376,160,186572,1,0
256,192,186749,12,0,188337
256,336,213751,5,0
256,336,214104,1,0
256,336,214281,1,0
368,336,214634,1,0
456,264,214987,2,0,B|456:120,3,140
320,40,216575,5,0
208,40,216928,2,0,B|136:40,1,70
56,112,217458,1,0
56,224,217811,2,0,B|56:312|160:312,3,140
312,328,219399,6,0,B|312:248,1,70
312,184,219752,1,0
312,184,219928,1,0
200,184,220281,1,0
200,288,220634,2,0,B|112:288|144:224|64:224,1,140
80,160,221164,2,0,B|168:160|136:96|216:96,1,140
304,48,221870,5,0
408,88,222223,2,0,B|464:144|464:216|384:232|472:304,1,210
480,336,222929,2,0,B|456:368|416:328|392:296|312:336|264:344,1,210
256,192,223547,12,0,224694
208,336,225047,5,0
272,336,225223,1,0
272,336,225400,1,0
336,336,225576,1,0
448,336,225929,1,0
448,336,226282,2,0,B|448:184,1,140
448,128,226812,6,0,B|416:96|384:128,1,70
344,176,227165,2,0,B|312:208|280:176,1,70
240,128,227518,2,0,B|208:96|176:128,1,70
128,168,227871,5,0
128,280,228224,1,0
128,280,228400,1,0
216,344,228753,1,0
328,344,229106,2,0,B|368:344|400:312|400:264|384:240,1,140
344,192,229636,6,0,B|320:160|344:128,1,70
400,96,229988,2,0,B|424:128|400:160,1,70
344,128,230341,2,0,B|312:104|280:128,1,70
224,168,230694,1,0
256,192,230871,12,0,233518
456,192,234224,1,0
456,192,234577,1,0
456,336,235107,5,0
400,336,235283,1,0
344,336,235460,2,0,B|272:336,1,70
208,336,235813,2,0,B|152:288,1,70
152,224,236166,2,0,B|208:176,1,70
256,136,236519,2,0,B|312:88,1,70
376,88,236872,2,0,B|376:160,1,70
376,224,237225,1,0
376,224,237401,1,0
256,192,237578,12,0,239166
