osu file format v9

[General]
AudioFilename: Porno Graffiti - Hitori No Yoru [TV-Size].mp3
AudioLeadIn: 0
PreviewTime: 51969
Countdown: 0
SampleSet: Normal
StackLeniency: 0.7
Mode: 0
LetterboxInBreaks: 0

[Editor]
DistanceSpacing: 0.8
BeatDivisor: 4
GridSize: 8

[Metadata]
Title:Hitori no Yoru (TV Size)
Artist:Porno Graffitti
Creator:Mianki
Version:Great Student
Source:Great Teacher Onizuka
Tags:lanttu GTO OnosakiHito

[Difficulty]
HPDrainRate:4
CircleSize:3
OverallDifficulty:4
ApproachRate:4
SliderMultiplier:1.3
SliderTickRate:2

[Events]
//Background and Video events
Video,1602,"GTO OP2.avi"
0,0,"Konachan.com - 14959 great_teacher_onizuka.jpg"
//Break Periods
//Storyboard Layer 0 (Background)
//Storyboard Layer 1 (Fail)
//Storyboard Layer 2 (Pass)
//Storyboard Layer 3 (Foreground)
//Storyboard Sound Samples
//Background Colour Transformations
3,100,163,162,255

[TimingPoints]
1548,340.744526791038,4,1,0,70,1,0
8390,340.744526791038,4,1,0,70,1,0
52005,-100,4,1,0,70,0,1
73812,-100,4,1,0,70,0,0

[Colours]
Combo1 : 255,0,0
Combo2 : 0,64,128
Combo3 : 0,168,0
Combo4 : 255,189,36

[HitObjects]
256,272,2229,1,8
256,272,2570,1,8
357,250,2910,2,0,B|408:244|433:173|390:144|390:144,1,130
325,71,3592,1,0
325,71,3933,1,8
223,95,4273,2,0,B|172:101|147:172|190:201|190:201,1,130
256,271,4955,1,0
170,330,5296,1,0
120,320,5466,1,0
79,287,5636,6,0,B|13:233|65:144|65:144,1,130,8|8
110,84,6318,1,0
209,49,6659,1,8
303,94,6999,2,2,B|362:164|261:148|330:220|330:220,3,130
233,263,8390,5,0
298,343,8730,1,8
384,287,9071,1,0
370,183,9412,1,8
334,144,9582,1,8
288,168,9752,1,0
199,222,10093,2,0,B|95:246|130:139|130:139,1,130,8|2
228,131,10775,5,0
263,33,11115,2,0,B|367:9|332:116|332:116,2,130
165,69,12138,2,0,B|104:14|104:14,2,65,8|8|0
161,172,12819,1,8
201,195,12990,2,0,B|259:246|331:232|364:137,1,195,0|4
354,50,13841,6,2,B|298:41|260:71|262:138,2,130,2|2|2
451,86,14864,1,8
451,86,15034,1,8
451,86,15204,1,0
474,187,15545,2,0,B|510:272|414:299|414:299,1,130,8|0
335,248,16227,2,2,B|420:213|371:126|371:126,1,130,2|2
286,91,16908,5,0
183,111,17249,1,0
152,210,17590,1,8
168,259,17760,1,8
207,292,17930,2,0,B|239:320|300:327|349:277|349:277,2,130,0|8|0
267,206,18953,1,4
264,102,19293,6,2,B|285:7|393:57|393:57,1,130
356,151,19975,1,2
447,199,20316,1,2
424,245,20486,1,0
373,256,20656,1,2
271,234,20997,1,2
185,175,21338,1,4
192,71,21679,1,8
293,48,22019,6,8,B|361:55|382:119|353:165,1,130
305,223,22701,1,8
202,235,23042,2,8,B|158:233|116:180|147:120,1,130
148,88,23553,1,0
181,48,23723,1,8
282,25,24064,1,8
282,128,24404,1,8
282,128,24575,1,0
282,128,24745,1,8
376,88,25086,5,8
432,176,25427,2,0,B|438:211|426:250|394:274|345:271,1,130,0|8
320,176,26108,2,0,B|283:179|249:200|234:237|249:284,1,130,0|8
304,344,26790,1,8
256,360,26960,5,2
208,360,27130,1,2
160,336,27301,1,2
64,304,27642,5,2
97,270,27812,1,2
148,253,27983,1,2
250,275,28323,5,2
250,227,28493,1,2
226,179,28664,1,2
256,192,28834,12,0,29856
332,141,30197,6,0,B|409:210|311:272|311:272,2,130
246,200,31219,1,8
246,200,31390,2,8,B|138:103|275:16|275:16,1,195,8|8
253,34,32071,1,0
150,51,32412,5,0
118,91,32582,1,8
118,195,32923,1,0
208,247,33264,1,8
299,196,33605,1,0
352,104,33945,2,0,B|312:61|337:20|337:21|337:21,2,65,8|8|0
390,139,34456,2,0,B|433:179|474:154|473:154|473:154,2,65,0|8|0
401,88,34968,2,0,B|460:24|460:24,2,65,0|0|4
331,165,35649,6,2,B|267:197|187:157,2,130
271,79,36671,1,8
271,79,36842,1,8
167,81,37182,1,0
167,81,37353,2,0,B|128:104|114:144,1,65,8|0
123,230,37864,2,2,B|151:272|181:271|181:271,1,65
276,270,38375,6,8,B|353:216|295:161|247:161|247:161,1,130
178,125,39057,1,0
242,43,39397,1,8
293,42,39568,2,0,B|389:42|389:42,3,65,8|0|0|8
322,139,40419,1,0
322,139,40590,1,0
322,139,40760,1,4
240,203,41101,6,2,B|235:249|276:280|331:254,1,130,2|2
345,204,41612,2,2,B|340:158|381:127|434:152,1,130,2|2
482,171,42123,1,8
426,258,42464,1,8
391,296,42634,1,0
339,288,42805,1,2
301,251,42975,1,2
253,230,43145,1,0
209,259,43316,1,2
199,309,43486,1,2
107,358,43827,6,0,B|53:340|34:290|87:262|87:262,1,130,0|8
129,230,44338,2,0,B|159:195|141:162|141:162,1,65,8|0
138,117,44679,2,8,B|130:70|165:54|165:54,1,65,8|0
210,59,45020,2,2,C|225:28|241:60|257:28|273:60|289:28|305:60|321:28|337:60|357:19|357:19,1,325
404,30,46042,5,0
404,82,46212,1,0
402,186,46553,1,8
342,271,46894,1,8
313,228,47064,2,2,B|237:165|187:260|187:260,1,130
133,321,47745,1,0
93,354,47916,2,8,B|67:372|22:361|0:332|16:276,1,130
23,241,48427,2,0,B|43:201|5:174|5:174,3,65,0|8|0|8
62,167,49108,6,0,B|93:189|130:168|154:135|199:107|231:117|258:134|258:134,1,195
344,155,49960,1,0
435,104,50301,1,0
435,104,50471,1,0
342,56,50812,2,0,B|283:29|246:34|213:63|213:63,1,130
176,87,51323,1,0
119,287,52005,6,0,B|11:283|55:180|55:180,1,130,8|2
152,202,52686,2,0,B|260:198|216:95|216:95,1,130,8|2
118,125,53368,2,2,B|10:121|54:18|54:18,3,130
151,33,54731,5,8
250,63,55072,1,8
308,148,55412,2,8,B|332:226|255:264|255:264,1,130
220,290,55923,1,0
171,310,56094,2,2,B|93:334|55:257|55:257,1,130
108,172,56775,2,2,B|92:140|57:137|47:180|47:180,2,65
211,185,57457,5,8
314,174,57797,1,8
366,84,58138,2,0,B|325:44|382:5|382:5,2,65,8|0|8
405,118,58649,1,2
431,160,58820,1,0
433,212,58990,1,0
413,260,59160,2,2,B|387:288|348:301|301:281|279:238|279:238,1,130
273,213,59672,6,2,B|255:127|175:146|175:146,1,130,2|2
127,152,60183,1,8
30,191,60523,1,0
30,295,60864,1,8
127,330,61205,1,8
178,337,61375,1,0
223,311,61546,1,8
302,244,61886,1,8
393,193,62227,2,2,B|474:132|445:34|339:19|309:173|309:173,1,260
302,244,63249,5,8
302,244,63420,1,8
198,245,63760,1,8
188,141,64101,1,0
188,141,64272,2,2,B|275:181|329:129|329:129,1,130
311,90,64783,1,0
311,90,64954,2,2,B|223:49|161:107|161:107,1,130
88,136,65635,5,8
32,224,65975,1,8
136,216,66316,2,0,B|177:206|212:240|212:240,2,65,8|0|8
144,320,66998,1,0
248,336,67338,2,2,B|305:340|299:299|250:238|347:260|347:260,2,130
144,320,68361,5,8
72,248,68701,1,8
144,168,69042,1,8
216,248,69383,1,8
246,148,69724,2,10,B|262:68|358:84|358:84,1,130
395,95,70235,1,2
429,134,70405,1,8
431,185,70575,1,2
415,234,70746,1,8
329,292,71086,6,2,B|280:307|234:303|204:253,1,130
154,176,71768,1,8
215,92,72109,1,8
313,123,72449,1,8
313,123,72620,1,2
313,123,72790,1,8
390,192,73131,1,8
390,192,73301,1,2
390,192,73472,1,8
312,261,73812,1,4
214,223,74153,5,8
183,120,74494,1,0
284,157,74835,1,8
253,54,75175,1,0
354,92,75516,1,8
452,124,75857,2,0,B|452:44|452:44,2,65,0|0|8
452,172,76368,1,0
452,172,76538,1,0
366,231,76879,5,8
281,291,77220,1,0
178,276,77561,1,8
102,204,77901,5,2
102,152,78072,1,2
154,152,78242,1,0
154,100,78413,1,2
258,101,78753,1,2
258,49,78924,1,8
359,71,79264,1,4
316,166,79605,6,8,B|273:205|224:201|185:152|185:152,3,130
114,103,80968,1,8
100,206,81309,1,2
115,255,81479,1,0
159,284,81650,1,0
240,348,81990,6,0,B|192:364|160:332|160:332,2,65,8|0|8
284,320,82501,1,0
329,292,82672,2,0,B|377:308|409:276|409:276,2,65,8|0|8
284,266,83183,1,0
248,229,83353,2,0,B|200:245|168:213|168:213,2,65,8|0|8
285,193,83864,1,0
331,167,84035,2,0,B|379:183|411:151|411:151,2,65,8|0|8
250,100,84716,5,8
202,84,84887,1,0
150,84,85057,1,8
102,105,85227,1,0
70,146,85398,1,8
54,195,85568,1,0
60,246,85739,2,2,B|86:339|175:308|175:308,1,130
209,310,86250,5,0
256,288,86420,1,8
290,249,86590,1,0
307,199,86761,1,8
292,149,86931,1,0
256,192,87272,12,4,89316
327,283,90168,6,2,B|300:372|198:328|198:328,1,130
122,310,90850,1,8
66,221,91190,2,2,B|22:139|125:98|125:98,1,130
200,79,91872,1,8
303,93,92213,2,2,B|392:119|348:221|348:221,1,130
345,247,92724,1,0
314,289,92894,1,0
209,289,93235,5,8
115,242,93576,1,0
210,200,93916,1,8
233,246,94087,1,0
284,245,94257,2,0,B|371:245|371:245,4,65,8|0|8|0|8
316,145,95279,1,8
316,145,95450,1,0
316,145,95620,1,0
407,194,95961,5,8
406,298,96302,1,0
316,244,96642,1,8
225,192,96983,5,0
177,171,97153,1,0
125,182,97324,1,8
88,219,97494,1,0
92,271,97665,1,0
127,309,97835,1,0
178,313,98005,1,8
225,291,98176,1,4
