osu file format v9

[General]
AudioFilename: Porno Graffiti - Hitori No Yoru.mp3
AudioLeadIn: 0
PreviewTime: 1403
Countdown: 0
SampleSet: Normal
StackLeniency: 0.7
Mode: 1
LetterboxInBreaks: 1

[Editor]
DistanceSpacing: 0.9
BeatDivisor: 4
GridSize: 4

[Metadata]
Title:Hitori no Yoru (TV Size)
Artist:Porno Graffitti
Creator:Alace
Version:Oni Sensei
Source:GTO
Tags:Anime JPop Dangaard Gabi

[Difficulty]
HPDrainRate:6
CircleSize:7
OverallDifficulty:6
ApproachRate:6
SliderMultiplier:1.4
SliderTickRate:0.5

[Events]
//Background and Video events
0,0,"Bg2.jpg"
Video,0,"GTO OP2.avi"
//Break Periods
//Storyboard Layer 0 (Background)
//Storyboard Layer 1 (Fail)
//Storyboard Layer 2 (Pass)
//Storyboard Layer 3 (Foreground)
//Storyboard Sound Samples
//Background Colour Transformations
3,100,0,0,0

[TimingPoints]
1390,340.744526791038,4,1,1,70,1,0
5514,340.744526791038,4,1,1,90,1,0
51855,-100,4,1,1,90,0,1
57293,340.744526791038,4,1,1,100,1,1
57293,-100,4,1,1,100,0,1
73989,-100,4,1,1,100,0,0
81826,-100,4,1,1,100,0,1
87278,-100,4,1,1,100,0,0

[Colours]
Combo1 : 0,105,210
Combo2 : 191,0,0
Combo3 : 233,223,39

[HitObjects]
168,128,2071,1,8
232,144,2412,1,8
232,144,2582,1,8
272,156,2923,1,8
272,156,3093,1,8
272,156,3434,1,0
272,156,3775,1,8
272,156,3945,1,0
272,156,4115,1,0
228,92,4286,1,0
228,92,4456,1,8
228,92,4627,1,8
272,112,4967,1,8
272,112,5138,1,8
272,112,5308,1,0
296,104,5854,1,8
164,40,6025,1,0
296,104,6195,1,0
272,112,6536,1,8
272,112,6706,1,0
240,104,6876,1,0
240,104,7047,1,8
260,96,7132,1,8
240,104,7217,1,8
240,104,7388,1,0
272,112,7473,1,0
188,132,7558,1,0
188,132,7728,1,8
188,132,7899,1,0
208,68,8069,1,8
92,148,8239,5,0
168,64,8580,1,8
168,64,8751,1,0
168,64,8921,1,0
152,88,9262,1,8
152,88,9432,1,0
272,88,9602,1,0
272,88,9773,1,0
272,88,9858,1,0
272,88,9943,1,8
272,88,10114,1,0
168,108,10454,1,0
168,108,10625,1,8
168,108,10795,1,0
236,112,10965,1,0
236,112,11306,1,8
192,48,11477,1,0
180,92,11647,1,0
180,92,11817,1,0
180,92,11902,1,0
180,92,11988,1,8
168,108,12158,1,0
168,108,12328,1,0
168,108,12669,1,8
168,108,12840,1,8
168,108,13180,1,0
168,108,13265,1,8
168,108,13351,1,8
168,108,13521,1,8
172,144,13691,1,0
172,144,14032,1,8
172,144,14202,1,0
172,144,14373,1,0
172,144,14714,1,8
176,40,14884,1,0
236,124,14969,1,8
236,124,15054,1,8
164,92,15225,1,0
236,124,15310,1,0
164,92,15395,1,8
164,92,15565,1,0
216,92,15906,1,0
216,92,16077,1,8
216,92,16247,1,0
268,152,16417,1,0
268,152,16758,1,8
268,152,17099,1,0
268,152,17269,1,0
268,152,17440,1,8
268,152,17610,1,0
268,152,17780,1,0
268,152,18121,1,8
268,152,18462,1,8
248,128,18632,1,8
248,128,18803,1,8
268,152,18973,1,8
248,108,19143,5,0
248,128,19484,1,8
248,128,19654,1,0
248,128,19995,1,0
248,128,20166,1,8
248,128,20336,1,0
248,128,20421,1,0
248,128,20506,1,8
248,148,20677,1,0
248,148,20847,1,8
244,228,21017,1,0
244,228,21188,1,0
244,228,21528,1,8
244,228,21699,1,0
244,228,21869,1,8
244,228,22040,1,0
244,228,22210,1,8
208,40,22380,1,0
208,40,22466,1,0
208,92,22551,1,8
192,116,22721,1,0
192,116,22891,1,8
192,116,23062,1,0
164,56,23403,1,0
164,56,23573,1,8
164,56,23743,1,0
164,56,23914,1,8
164,56,24084,1,0
164,56,24169,1,0
164,56,24254,1,8
164,56,24425,1,0
148,96,24766,1,0
148,96,24936,1,8
176,124,25277,1,8
224,172,25617,1,8
224,172,25788,1,8
224,60,25958,1,0
220,92,26129,1,0
220,92,26214,1,0
220,92,26299,1,8
192,172,26469,1,0
192,172,26810,1,12
192,172,26980,1,12
192,172,27151,1,12
192,172,27492,1,12
192,172,27662,1,12
192,172,27832,1,12
192,172,28173,1,12
192,172,28343,1,12
192,172,28514,1,12
232,180,28684,1,0
232,180,28855,1,8
204,40,29025,1,0
208,60,29195,1,8
208,60,29366,1,0
208,60,29536,1,8
168,40,29706,1,0
172,60,29877,1,8
92,96,30047,5,0
124,112,30388,1,8
184,92,30558,1,0
184,92,30643,1,0
184,92,30729,1,0
184,124,30899,1,0
184,124,31069,1,8
184,124,31240,1,0
108,148,31410,1,0
108,148,31580,1,0
108,148,31666,1,0
128,136,31751,1,8
128,136,31921,1,0
108,148,32262,1,0
116,172,32432,1,8
116,172,32603,1,0
152,188,32773,1,0
152,188,32943,1,0
152,188,33114,1,8
164,136,33284,1,0
160,160,33369,1,0
160,160,33455,1,0
164,136,33795,1,8
164,136,33966,1,0
144,120,34136,1,0
164,136,34306,1,0
164,136,34477,1,8
200,120,34647,1,0
200,120,34988,1,0
208,64,35158,1,8
208,64,35329,1,8
208,64,35414,1,0
196,80,35499,1,0
196,80,35840,1,8
212,96,36010,1,0
212,96,36181,1,0
200,120,36521,1,8
200,120,36692,1,0
200,120,36862,1,0
200,120,37032,1,0
200,120,37118,1,0
200,120,37203,1,8
200,120,37373,1,0
200,120,37714,1,0
188,136,37884,1,8
188,136,38055,1,0
188,136,38225,1,8
200,120,38395,1,0
200,120,38566,1,8
188,136,38736,1,0
200,120,38821,1,0
188,136,38906,1,8
200,120,39247,1,0
188,136,39418,1,0
248,76,39588,1,4
248,76,39929,1,4
248,76,40099,1,4
236,108,40440,1,12
236,108,40610,1,12
236,108,40781,1,12
136,184,40951,5,12
232,164,41292,1,0
232,164,41462,1,0
232,164,41803,1,8
232,164,41888,1,8
232,164,41973,1,0
184,32,42144,1,8
172,100,42314,1,0
192,96,42655,1,8
192,96,42825,1,0
212,100,43166,1,0
192,124,43336,1,8
232,104,43677,1,0
232,104,43847,1,0
232,104,44018,1,8
232,104,44188,1,0
232,104,44529,1,0
232,104,44699,1,8
232,104,44869,1,0
232,104,44955,1,0
232,104,45040,1,8
228,124,45210,1,0
228,124,45381,1,8
228,124,45551,1,0
228,124,45892,1,8
228,124,46062,1,8
228,124,46403,1,0
228,124,46744,1,8
228,124,46914,1,0
228,124,47255,1,0
216,144,47425,1,8
228,124,47595,1,8
216,144,47681,1,0
216,144,47766,1,0
144,76,47936,1,8
144,76,48107,1,0
152,96,48277,1,8
152,96,48618,1,0
152,96,48788,1,8
152,96,48958,1,0
184,48,49044,1,0
184,48,49129,1,8
220,68,49299,1,0
220,68,49470,1,8
220,68,49640,1,8
220,68,49810,1,0
224,88,49981,1,8
224,88,50151,1,0
224,88,50321,1,12
224,88,50662,1,12
224,88,51003,1,12
200,36,51173,1,12
104,168,51684,1,0
112,200,51770,1,0
112,200,51855,5,0
148,124,52025,1,0
208,128,52196,1,8
148,124,52366,1,0
148,124,52707,1,0
148,124,52877,1,8
248,192,53047,1,0
248,192,53133,1,8
248,192,53218,1,0
248,192,53388,1,8
248,192,53558,1,0
248,192,53729,1,0
196,48,54070,1,0
196,48,54240,1,8
196,48,54410,1,8
168,64,54496,1,8
328,80,54581,1,0
328,80,54751,1,8
196,48,54921,1,0
196,48,55092,1,8
168,64,55177,1,0
136,80,55262,1,8
196,72,55433,1,0
196,72,55603,1,0
196,72,55773,1,8
196,72,55859,1,8
196,72,55944,1,0
196,72,56114,1,8
196,72,56284,1,0
216,64,56455,1,0
176,76,56796,1,0
196,72,56966,1,8
196,72,57136,1,8
112,200,57293,5,0
148,124,57463,1,0
208,128,57633,1,8
148,124,57804,1,0
148,124,58144,1,0
148,124,58315,1,8
248,192,58485,1,0
248,192,58570,1,8
248,192,58655,1,0
248,192,58826,1,8
248,192,58996,1,0
248,192,59167,1,0
192,24,59252,1,0
192,24,59337,1,8
196,48,59507,1,0
196,48,59678,1,8
196,48,59848,1,0
328,80,60018,1,0
328,80,60189,1,0
196,48,60359,1,8
196,48,60530,1,0
196,72,60870,1,0
196,72,61041,1,8
196,72,61211,1,8
196,72,61381,1,0
196,72,61552,1,0
196,72,61722,1,8
216,64,61893,1,0
176,76,62233,1,8
196,72,62404,1,8
196,72,62574,1,8
112,200,62744,5,0
148,124,62915,1,0
208,128,63000,1,0
192,44,63085,1,8
148,124,63256,1,0
148,124,63596,1,0
148,124,63767,1,8
248,192,63937,1,0
248,192,64022,1,0
248,192,64107,1,8
248,192,64278,1,0
208,24,64448,1,8
248,192,64619,1,0
196,48,64959,1,0
196,48,65130,1,8
196,48,65300,1,0
328,80,65470,1,0
328,80,65641,1,0
196,48,65726,1,0
196,48,65811,1,8
196,48,65981,1,0
136,44,66152,1,8
196,72,66322,1,0
196,72,66493,1,8
196,72,66663,1,0
196,72,66748,1,8
196,72,66833,1,0
196,72,67004,1,8
196,72,67174,1,0
216,64,67344,1,0
176,76,67685,1,0
196,72,67856,1,8
196,72,68026,1,8
112,200,68196,1,0
148,124,68367,1,0
196,72,68452,1,0
208,128,68537,1,8
148,124,68707,1,0
148,124,69048,1,0
148,124,69219,1,8
248,192,69389,1,0
248,192,69474,1,8
248,192,69559,1,0
248,192,69730,1,8
248,192,69900,1,8
248,192,70070,1,0
200,80,70241,1,0
196,48,70411,1,8
192,28,70496,1,0
196,48,70582,1,8
196,48,70752,1,0
328,80,70922,1,0
328,80,71093,1,0
196,48,71178,1,0
196,48,71263,1,8
196,48,71433,1,0
196,72,71774,1,0
196,72,71945,1,8
196,72,72115,1,0
196,72,72200,1,0
196,72,72285,1,8
196,72,72456,1,0
196,72,72626,1,8
216,64,72796,1,0
176,76,73137,1,0
196,72,73307,1,8
196,72,73478,1,0
196,72,73648,1,0
136,24,73989,5,8
136,24,74159,1,0
180,100,74500,1,0
180,100,74670,1,8
216,100,75011,1,0
216,100,75352,1,8
216,100,75522,1,0
216,100,75863,1,0
216,100,76033,1,8
216,100,76204,1,0
216,100,76374,1,0
216,100,76715,1,8
216,100,76885,1,0
216,100,77226,1,0
216,100,77396,1,8
216,100,77737,1,0
216,100,77908,1,0
216,100,78078,1,8
216,100,78248,1,0
216,100,78589,1,0
216,100,78759,1,8
200,112,78930,1,0
168,44,79100,1,0
140,48,79441,1,8
140,48,79611,1,0
176,88,79952,1,0
176,88,80122,1,8
280,112,80463,1,0
280,112,80804,1,8
280,112,80974,1,0
280,112,81315,1,0
280,112,81485,1,0
224,60,81826,5,4
224,60,82167,1,4
232,84,82508,1,4
232,84,82848,1,4
232,84,83189,1,4
232,84,83530,1,4
232,84,83871,1,4
232,84,84211,1,4
232,84,84552,1,4
232,84,84893,1,4
168,80,85063,1,4
232,84,85234,1,4
232,84,85574,1,4
220,24,85745,1,4
232,84,85915,1,4
232,84,86256,1,4
220,24,86426,1,4
232,84,86597,1,4
84,96,86767,1,4
232,104,86937,1,4
216,136,87108,1,0
216,136,87193,1,0
216,136,87278,1,0
188,48,87619,1,8
196,80,87960,1,0
196,80,88130,1,0
196,80,88300,1,8
196,80,88471,1,0
196,80,88641,1,0
196,100,88811,1,0
196,100,88897,1,0
196,100,88982,1,8
196,100,89152,1,0
224,80,89493,1,8
224,80,89663,1,8
224,80,89834,1,0
224,80,90004,1,0
220,100,90345,1,8
220,100,90685,1,0
220,100,90856,1,0
220,100,90941,1,0
220,100,91026,1,8
220,100,91197,1,0
220,120,91537,1,8
220,120,91708,1,0
220,100,91878,1,8
220,120,92048,1,0
220,100,92219,1,8
220,120,92389,1,0
176,124,92560,1,8
176,124,92645,1,8
176,124,92730,1,0
220,100,93071,1,8
220,100,93411,1,0
220,100,93582,1,0
220,100,93752,1,8
220,100,93923,1,0
220,100,94093,1,0
220,100,94263,1,0
220,100,94348,1,0
220,100,94434,1,8
220,100,94604,1,0
220,100,94945,1,8
220,100,95115,1,8
220,100,95286,1,0
220,100,95456,1,0
220,100,95797,1,8
220,100,95967,1,8
220,100,96137,1,0
220,100,96308,1,8
200,104,96478,1,0
200,104,96648,1,8
200,104,96819,1,0
220,100,96989,1,8
220,100,97074,1,8
220,100,97160,1,0
220,100,97330,1,8
220,100,97415,1,8
220,100,97500,1,0
220,100,97671,1,8
220,100,97756,1,8
220,100,97841,1,0
200,104,98011,1,8
200,104,98097,1,8
200,104,98182,1,0
