osu file format v9

[General]
AudioFilename: Porno Graffiti - Hitori No Yoru.mp3
AudioLeadIn: 0
PreviewTime: 1403
Countdown: 0
SampleSet: Normal
StackLeniency: 0.7
Mode: 0
LetterboxInBreaks: 1

[Editor]
DistanceSpacing: 1
BeatDivisor: 2
GridSize: 4

[Metadata]
Title:Hitori no Yoru (TV Size)
Artist:Porno Graffitti
Creator:Alace
Version:Kantan Sensei
Source:GTO
Tags:Anime JPop Dangaard Gabi

[Difficulty]
HPDrainRate:1
CircleSize:3
OverallDifficulty:2
ApproachRate:3
SliderMultiplier:1
SliderTickRate:0.5

[Events]
//Background and Video events
0,0,"Bg2.jpg"
Video,0,"GTO OP2.avi"
//Break Periods
//Storyboard Layer 0 (Background)
//Storyboard Layer 1 (Fail)
//Storyboard Layer 2 (Pass)
//Storyboard Layer 3 (Foreground)
//Storyboard Sound Samples
//Background Colour Transformations
3,100,0,0,0

[TimingPoints]
1390,340.744526791038,4,1,1,70,1,0
5514,340.744526791038,4,1,1,70,1,0
57293,340.744526791038,4,1,1,70,1,0

[Colours]
Combo1 : 0,105,210
Combo2 : 191,0,0
Combo3 : 233,223,39

[HitObjects]
164,128,2071,2,8,B|204:88|256:104,1,100
272,152,2582,2,0,B|348:196|408:124,1,150,8|8
488,184,3434,2,0,B|428:208|412:268,1,100,0|8
348,320,4115,2,0,B|200:320,1,150
116,380,4967,1,0
104,280,5308,1,0
48,132,5854,5,8
228,40,6536,1,8
284,232,7217,1,8
104,324,7899,1,8
196,288,8239,6,0,B|140:192|24:184,1,200
236,180,9602,2,0,B|160:144|140:68,2,150
280,268,10965,2,0,B|384:268,1,100,0|0
432,188,11647,2,0,B|332:188,1,100,0|0
276,104,12328,2,0,B|352:96|391:12,2,150
200,40,13691,6,0,B|88:76|64:184,1,200
256,236,15054,2,0,B|96:252,2,150
272,336,16417,2,0,B|372:312,1,100
444,248,17099,2,0,B|344:224,1,100
392,136,17780,2,0,B|232:152,2,150
344,224,19143,6,0,B|240:252|200:368,1,200
104,352,20166,1,8
12,172,20847,1,8
196,92,21528,1,8
276,152,21869,6,0,B|352:80|464:104,1,200
508,192,22891,1,8
396,360,23573,1,8
228,256,24254,1,8
228,256,24425,2,0,B|84:296,1,150
4,236,25277,2,0,B|108:204,1,100
20,148,25958,2,0,B|164:104,1,150
264,92,26810,6,0,B|236:48,2,50
356,128,27492,2,0,B|372:68,2,50
428,200,28173,2,0,B|480:168,2,50
256,192,28684,12,0,29877
256,280,30388,5,8
60,232,31069,1,8
132,44,31751,1,8
328,92,32432,1,8
428,88,32773,2,0,B|488:180,1,100,0|8
444,264,33455,2,0,B|384:172,1,100,0|8
344,268,34136,2,0,B|196:268,2,150
304,176,35499,6,0,B|200:124|184:4,1,200
120,100,36521,1,0
60,180,36862,2,0,B|0:244|60:328,2,150
128,256,38225,2,0,B|232:256,1,100
280,168,38906,2,0,B|176:168,1,100
228,80,39588,2,0,B|380:80,2,150
132,60,40951,6,0,B|24:164,2,150
192,140,42314,2,0,B|228:285,2,150,0|0|0
292,132,43677,2,0,B|436:173,2,150,0|0|0
280,32,45040,1,0
216,108,45381,1,8
204,8,45721,1,0
140,84,46062,1,8
84,168,46403,6,0,B|192:220,1,100,0|8
176,260,46914,2,0,B|284:312,1,100,0|0
268,352,47425,1,8
360,316,47766,2,0,B|439:225,1,100,0|8
408,195,48277,2,0,B|487:104,1,100,0|0
457,74,48788,1,8
256,192,48958,12,4,51173
376,184,51855,6,0,B|416:264|500:248,2,150
280,156,53218,1,0
144,224,53729,1,0
12,296,54240,1,0
52,204,54581,6,0,B|28:128|52:52,2,150
60,304,55944,1,0
204,256,56455,1,0
348,208,56966,1,0
440,180,57293,6,0,B|488:328,2,150
364,116,58655,1,0
456,76,58996,1,8
456,76,59167,1,0
372,24,59507,1,0
372,24,59678,1,8
280,68,60018,6,0,B|176:68,1,100,0|8
168,116,60530,2,0,B|64:116,1,100
56,164,61041,1,8
56,264,61381,2,0,B|160:264,1,100,0|8
168,312,61893,2,0,B|272:312,1,100
280,360,62404,1,8
360,300,62744,6,0,B|408:232|496:228,2,150
260,300,64107,1,0
108,304,64619,1,0
176,172,65130,1,0
176,72,65470,6,0,B|84:56|36:140,2,150
276,72,66833,1,0
428,68,67345,1,0
360,200,67856,1,0
360,300,68196,6,0,B|436:332|484:248,2,150
260,300,69559,1,0
108,304,70071,1,0
176,172,70582,1,0
216,80,70922,6,0,B|309:113,1,100,0|8
332,160,71433,2,0,B|425:193,1,100
456,236,71945,1,8
436,332,72285,2,0,B|340:309,1,100,0|8
295,335,72796,2,0,B|199:312,1,100
149,332,73308,1,8
20,180,73989,6,0,B|96:100|212:140,1,200
288,80,75011,2,0,B|388:128,1,100,0|8
420,148,75522,2,0,B|328:212,1,100
296,232,76033,1,8
212,284,76374,2,0,B|112:236,1,100,0|8
80,216,76885,2,0,B|172:152,1,100
204,132,77396,1,8
292,84,77737,2,0,B|404:200,2,150
284,284,79441,6,0,B|188:240|176:112,1,200
100,192,80463,2,0,B|56:272|96:336,2,150
104,92,81826,6,8,B|204:48,7,100
316,51,84552,2,8,B|408:92,7,100
316,336,87619,5,8
129,267,88300,1,8
52,81,88982,1,8
199,62,89493,2,8,B|158:23,1,50
263,13,90004,2,0,B|340:88,1,100
256,192,90685,12,0,92560
196,48,93071,5,8
383,117,93752,1,8
460,303,94434,1,8
313,322,94945,2,8,B|353:360,1,50
249,371,95456,2,0,B|171:295,1,100
256,192,95967,12,0,98182
