osu file format v12

[General]
AudioFilename: Apollo.mp3
AudioLeadIn: 0
PreviewTime: 60417
Countdown: 0
SampleSet: Soft
StackLeniency: 0.7
Mode: 0
LetterboxInBreaks: 1

[Editor]
DistanceSpacing: 1
BeatDivisor: 4
GridSize: 4

[Metadata]
Title:Apollo
TitleUnicode:アポロ
Artist:Porno Graffitti
ArtistUnicode:ポルノグラフィティ
Creator:kajiyatta
Version:Hard
Source:
Tags:j-pop jpop
BeatmapID:181900
BeatmapSetID:60904

[Difficulty]
HPDrainRate:6
CircleSize:4
OverallDifficulty:6
ApproachRate:7
SliderMultiplier:1.6
SliderTickRate:2

[Events]
//Background and Video events
0,0,"BG1.jpg",0,0
//Break Periods
2,80843,89541
//Storyboard Layer 0 (Background)
//Storyboard Layer 1 (Fail)
//Storyboard Layer 2 (Pass)
//Storyboard Layer 3 (Foreground)
//Storyboard Sound Samples
//Background Colour Transformations
3,100,163,162,255

[TimingPoints]
6120,705.882352941176,4,2,1,50,1,0
6472,-100,4,2,2,50,0,0
6825,-100,4,2,1,50,0,0
7178,-100,4,2,2,50,0,0
7531,-100,4,2,1,50,0,0
9296,-100,4,2,2,50,0,0
9649,-100,4,2,1,50,0,0
10002,-100,4,2,2,50,0,0
10355,-100,4,2,1,50,0,0
17436,316.038978140637,4,2,1,70,1,0
19016,-100,4,2,1,50,0,0
19174,-100,4,2,1,70,0,0
19332,-100,4,2,1,50,0,0
19490,-100,4,2,2,70,0,0
19648,-100,4,2,1,50,0,0
19964,-100,4,2,1,90,0,0
20122,-100,4,2,2,70,0,0
20280,-100,4,2,1,90,0,0
20596,-100,4,2,2,70,0,0
20754,-100,4,2,1,90,0,0
21386,-100,4,2,2,70,0,0
21544,-100,4,2,1,90,0,0
21860,-100,4,2,2,70,0,0
22018,-100,4,2,1,90,0,0
22650,-100,4,2,2,70,0,0
22808,-100,4,2,1,90,0,0
23124,-100,4,2,2,70,0,0
23282,-100,4,2,1,90,0,0
23914,-100,4,2,2,70,0,0
24072,-100,4,2,1,90,0,0
24388,-100,4,2,2,70,0,0
24546,-100,4,2,1,90,0,0
25020,-100,4,2,1,60,0,0
25178,-100,4,2,1,80,0,0
27549,-100,4,2,1,60,0,0
27707,-100,4,2,2,70,0,0
27865,-100,4,2,1,80,0,0
28023,-100,4,2,2,70,0,0
28181,-100,4,2,1,80,0,0
28813,-100,4,2,1,60,0,0
28971,-100,4,2,2,70,0,0
29129,-100,4,2,1,80,0,0
29287,-100,4,2,2,70,0,0
29445,-100,4,2,1,80,0,0
30235,-100,4,2,2,70,0,0
30393,-100,4,2,1,80,0,0
30867,-100,4,2,2,70,0,0
31025,-100,4,2,1,80,0,0
31341,-100,4,2,2,70,0,0
31499,-100,4,2,1,80,0,0
33395,-100,4,2,2,70,0,0
33553,-100,4,2,1,80,0,0
33870,-100,4,2,2,70,0,0
34028,-100,4,2,1,80,0,0
35924,-100,4,2,2,70,0,0
36082,-100,4,2,1,80,0,0
36556,-100,4,2,2,70,0,0
36714,-100,4,2,1,80,0,0
37504,-100,4,2,2,70,0,0
37662,-100,4,2,1,80,0,0
38926,-100,4,2,2,70,0,0
39084,-100,4,2,1,80,0,0
39400,-100,4,2,2,70,0,0
39558,-100,4,2,1,80,0,0
40190,-100,4,2,1,60,0,0
40348,-100,4,2,2,70,0,0
40506,-100,4,2,1,80,0,0
40980,-100,4,2,2,70,0,0
41138,-100,4,2,1,80,0,0
41454,-100,4,2,2,70,0,0
41612,-100,4,2,1,80,0,0
42245,-100,4,2,2,70,0,0
42403,-100,4,2,1,80,0,0
42561,-100,4,2,2,70,0,0
42719,-100,4,2,1,80,0,0
43509,-100,4,2,2,70,0,0
43667,-100,4,2,1,80,0,0
43825,-100,4,2,2,70,0,0
43983,-100,4,2,1,80,0,0
44457,-100,4,2,2,70,0,0
44615,-100,4,2,1,80,0,0
45721,-100,4,2,2,70,0,0
45879,-100,4,2,1,80,0,0
46353,-100,4,2,2,70,0,0
46511,-100,4,2,1,80,0,0
46985,-100,4,2,2,70,0,0
47143,-100,4,2,1,80,0,0
47459,-100,4,2,1,60,0,0
47617,-100,4,2,2,80,0,0
47775,-100,4,2,1,80,0,0
50304,-100,4,2,1,60,0,0
50462,-100,4,2,2,70,0,0
50620,-100,4,2,1,80,0,0
50778,-100,4,2,2,70,0,0
50936,-100,4,2,1,80,0,0
51410,-100,4,2,1,60,0,0
51568,-100,4,2,2,70,0,0
51726,-100,4,2,1,80,0,0
52042,-100,4,2,2,70,0,0
52200,-100,4,2,1,80,0,0
52832,-100,4,2,1,60,0,0
52990,-100,4,2,2,70,0,0
53148,-100,4,2,1,80,0,0
53622,-100,4,2,2,70,0,0
53780,-100,4,2,1,80,0,0
53938,-100,4,2,1,60,0,0
54096,-100,4,2,1,80,0,0
55044,-100,4,2,1,60,0,0
55202,-100,4,2,2,70,0,0
55360,-100,4,2,1,80,0,0
55518,-100,4,2,2,70,0,0
55676,-100,4,2,1,80,0,0
56624,-100,4,2,1,60,0,0
56782,-100,4,2,1,80,0,0
57256,-100,4,2,1,60,0,0
57414,-100,4,2,1,80,0,0
57888,-100,4,2,0,60,0,0
60417,-100,4,2,1,100,0,1
60575,-100,4,2,2,70,0,1
60733,-100,4,2,1,100,0,1
60891,-100,4,2,2,70,0,1
61049,-100,4,2,1,100,0,1
62155,-100,4,2,2,70,0,1
62313,-100,4,2,1,100,0,1
62471,-100,4,2,2,70,0,1
62629,-100,4,2,1,100,0,1
63103,-100,4,2,2,70,0,1
63261,-100,4,2,1,100,0,1
63577,-100,4,2,2,70,0,1
63735,-100,4,2,1,100,0,1
64683,-100,4,2,2,70,0,1
64841,-100,4,2,1,100,0,1
65473,-100,4,2,1,70,0,1
65631,-100,4,2,2,70,0,1
65789,-100,4,2,1,100,0,1
66738,-100,4,2,1,70,0,1
66896,-100,4,2,1,100,0,1
68002,-100,4,2,1,70,0,1
68160,-100,4,2,1,100,0,1
69424,-100,4,2,2,70,0,1
69582,-100,4,2,1,100,0,1
69740,-100,4,2,2,70,0,1
69898,-100,4,2,1,100,0,1
70214,-100,4,2,1,100,0,0
70530,-100,4,2,1,70,0,1
70688,-100,4,2,2,70,0,1
70846,-100,4,2,1,100,0,1
71162,-100,4,2,2,70,0,1
71320,-100,4,2,1,100,0,1
73058,-100,4,2,1,70,0,1
73216,-100,4,2,2,70,0,1
73374,-100,4,2,1,100,0,1
73690,-100,4,2,2,70,0,1
73848,-100,4,2,1,100,0,1
75587,-100,4,2,1,70,0,1
75745,-100,4,2,2,70,0,1
75903,-100,4,2,1,100,0,1
76377,-100,4,2,2,70,0,1
76535,-100,4,2,1,100,0,1
76851,-100,4,2,1,70,0,1
77009,-100,4,2,2,70,0,1
77167,-100,4,2,1,100,0,1
78115,-100,4,2,1,70,0,1
78273,-100,4,2,1,100,0,1
78747,-100,4,2,2,70,0,1
78905,-100,4,2,1,100,0,1
80643,-100,4,2,1,90,0,0
90441,-100,4,2,1,80,0,0
90915,-100,4,2,2,70,0,0
91073,-100,4,2,1,80,0,0
93443,-100,4,2,2,70,0,0
93601,-100,4,2,1,80,0,0
94075,-100,4,2,2,70,0,0
94233,-100,4,2,1,80,0,0
95339,-100,4,2,2,70,0,0
95497,-100,4,2,1,80,0,0
95655,-100,4,2,2,70,0,0
95813,-100,4,2,1,80,0,0
96603,-100,4,2,2,70,0,0
96761,-100,4,2,1,80,0,0
99606,-100,4,2,2,70,0,0
99764,-100,4,2,1,80,0,0
100870,-100,4,2,1,60,0,0
101028,-100,4,2,2,70,0,0
101186,-100,4,2,1,80,0,0
101660,-100,4,2,2,70,0,0
101818,-100,4,2,1,80,0,0
104188,-100,4,2,2,70,0,0
104346,-100,4,2,1,80,0,0
104662,-100,4,2,2,70,0,0
104820,-100,4,2,1,80,0,0
106084,-100,4,2,2,70,0,0
106242,-100,4,2,1,80,0,0
106717,-100,4,2,2,70,0,0
106875,-100,4,2,1,80,0,0
108139,-100,4,2,1,60,0,0
108297,-100,4,2,1,80,0,0
109877,-100,4,2,2,70,0,0
110035,-100,4,2,1,80,0,0
110667,-100,4,1,2,50,0,0
110983,-100,4,2,1,60,0,0
111141,-100,4,2,2,70,0,0
111299,-100,4,2,1,80,0,0
112089,-100,4,2,1,60,0,0
112247,-100,4,2,1,80,0,0
112721,-100,4,2,2,70,0,0
112879,-100,4,2,1,80,0,0
113511,-100,4,2,1,60,0,0
113669,-100,4,2,2,70,0,0
113827,-100,4,2,1,80,0,0
113985,-100,4,2,2,70,0,0
114143,-100,4,2,1,80,0,0
114617,-100,4,2,1,60,0,0
114776,-100,4,2,2,70,0,0
114934,-100,4,2,1,80,0,0
115250,-100,4,2,2,70,0,0
115408,-100,4,2,1,80,0,0
115724,-100,4,2,1,60,0,0
115882,-100,4,2,1,80,0,0
116514,-100,4,2,2,70,0,0
116672,-100,4,2,1,80,0,0
116830,-100,4,2,2,70,0,0
116988,-100,4,2,1,80,0,0
117304,-100,4,2,1,60,0,0
117462,-100,4,2,1,80,0,0
117936,-100,4,2,1,60,0,0
118094,-100,4,2,1,80,0,0
118568,-100,4,2,0,60,0,0
121096,-100,4,2,1,100,0,1
121254,-100,4,2,2,70,0,1
121412,-100,4,2,1,100,0,1
121728,-100,4,2,2,70,0,1
121886,-100,4,2,1,100,0,1
123151,-100,4,2,2,70,0,1
123309,-100,4,2,1,100,0,1
124889,-100,4,2,2,70,0,1
125047,-100,4,2,1,100,0,1
125363,-100,4,2,2,70,0,1
125521,-100,4,2,1,100,0,1
126153,-100,4,2,1,70,0,1
126311,-100,4,2,1,100,0,1
126943,-100,4,2,2,70,0,1
127101,-100,4,2,1,100,0,1
127417,-100,4,2,1,70,0,1
127575,-100,4,2,2,70,0,1
127733,-100,4,2,1,100,0,1
128207,-100,4,2,2,70,0,1
128365,-100,4,2,1,100,0,1
128681,-100,4,2,1,70,0,1
128839,-100,4,2,1,100,0,1
129313,-100,4,2,2,70,0,1
129471,-100,4,2,1,100,0,1
130103,-100,4,2,2,70,0,1
130261,-100,4,2,1,100,0,1
130419,-100,4,2,2,70,0,1
130577,-100,4,2,1,100,0,1
130893,-100,4,2,1,100,0,0
131210,-100,4,2,1,70,0,1
131368,-100,4,2,2,70,0,1
131526,-100,4,2,1,100,0,1
131684,-100,4,2,2,70,0,1
131842,-100,4,2,1,100,0,1
132474,-100,4,2,2,70,0,1
132632,-100,4,2,1,100,0,1
133738,-100,4,2,1,70,0,1
133896,-100,4,2,1,100,0,1
135792,-100,4,2,2,70,0,1
135950,-100,4,2,1,100,0,1
136266,-100,4,2,1,70,0,1
136424,-100,4,2,2,70,0,1
136582,-100,4,2,1,100,0,1
137530,-100,4,2,1,70,0,1
137688,-100,4,2,1,100,0,1
138320,-100,4,2,2,70,0,1
138478,-100,4,2,1,100,0,1
138794,-100,4,2,1,70,0,1
138952,-100,4,2,1,100,0,1
140059,-100,4,2,1,80,0,1
141323,-100,4,2,1,90,0,0

[Colours]
Combo1 : 255,128,128
Combo2 : 3,85,158
Combo3 : 181,181,255
Combo4 : 255,132,9

[HitObjects]
112,116,6119,2,0,B|60:192|112:268,2,160,2|0|2,0:0|0:0|0:0,0:0:0:0:
180,156,7884,1,0,0:0:0:0:
248,196,8237,1,0,0:0:0:0:
316,236,8590,1,0,0:0:0:0:
384,276,8943,6,0,B|436:200|384:124,2,160,2|0|2,0:0|0:0|0:0,0:0:0:0:
324,328,10708,2,0,B|240:328,1,80,0|0,0:0|0:0,0:0:0:0:
96,264,11767,6,0,B|39:207,2,80,2|0|0,0:0|0:0|0:0,0:0:0:0:
176,264,12825,1,0,0:0:0:0:
256,264,13178,2,0,B|312:320,2,80,2|0|0,0:0|0:0|0:0,0:0:0:0:
216,196,14237,6,0,B|188:168|188:124,1,80,0|2,0:0|0:0,0:0:0:0:
256,80,14943,1,0,0:0:0:0:
324,124,15296,2,0,B|323:168|295:196,1,80
256,268,16002,2,0,B|256:348,2,80,2|0|0,0:0|0:0|0:0,0:0:0:0:
256,192,17436,5,8,0:0:0:0:
256,192,17594,1,0,0:0:0:0:
256,192,17752,1,0,0:0:0:0:
96,192,18068,2,0,B|40:248,2,80,8|0|0,0:0|0:0|0:0,0:0:0:0:
416,192,18700,2,0,B|472:136,2,80,8|0|4,0:0|0:0|0:0,0:0:0:0:
452,264,19174,1,0,0:0:0:0:
416,336,19332,2,0,B|336:372|260:336,1,160,4|4,0:0|0:0,0:0:0:0:
224,264,19806,1,8,0:0:0:0:
256,192,19964,6,0,B|292:112|256:36,1,160,4|8,0:0|0:0,0:0:0:0:
96,36,20438,2,0,B|60:116|96:192,1,160
176,192,20912,2,0,B|176:276,1,80,8|0,0:0|0:0,0:0:0:0:
176,352,21228,2,0,B|256:388|332:352,1,160,0|8,0:0|0:0,0:0:0:0:
331,192,21702,2,0,B|251:156|175:192,1,160
176,272,22176,2,0,B|84:272,1,80,8|0,0:0|0:0,0:0:0:0:
40,212,22492,6,0,B|4:132|40:56,1,160,0|8,0:0|0:0,0:0:0:0:
200,56,22966,2,0,B|236:136|200:212,1,160
136,256,23440,1,8,0:0:0:0:
204,300,23598,1,0,0:0:0:0:
272,256,23756,2,0,B|352:292|428:256,1,160,0|8,0:0|0:0,0:0:0:0:
428,96,24230,2,0,B|348:60|272:96,1,160
272,176,24704,1,8,0:0:0:0:
204,132,24862,1,0,0:0:0:0:
136,176,25020,6,0,B|52:128,2,80,4|0|8,0:0|0:0|0:0,0:0:0:0:
136,256,25494,2,0,B|52:304,2,80
204,300,25969,2,0,B|244:316|284:300,1,80,8|0,0:0|0:0,0:0:0:0:
348,256,26285,2,0,B|431:304,2,80,0|0|8,0:0|0:0|0:0,0:0:0:0:
348,176,26759,2,0,B|431:128,2,80
284,128,27233,2,0,B|245:112|204:128,1,80,8|0,0:0|0:0,0:0:0:0:
140,176,27549,6,0,B|40:40,2,160,4|8|0,0:0|0:0|0:0,0:0:0:0:
184,244,28339,1,0,0:0:0:0:
240,300,28497,1,8,0:0:0:0:
296,244,28655,1,0,0:0:0:0:
368,212,28813,2,0,B|468:348,2,160,4|8|0,0:0|0:0|0:0,0:0:0:0:
416,148,29603,1,0,0:0:0:0:
336,132,29761,2,0,B|248:120,1,80,8|0,0:0|0:0,0:0:0:0:
224,48,30077,6,0,B|200:60|156:109|184:164|212:184,1,160,4|8,0:0|0:0,0:0:0:0:
288,212,30551,1,0,0:0:0:0:
288,212,30709,2,0,B|316:228|348:280|316:332|288:348,1,160,0|8,0:0|0:0,0:0:0:0:
248,280,31183,2,0,B|168:320|92:280,1,160,0|0,0:0|0:0,0:0:0:0:
40,224,31657,2,0,B|16:196|16:148,1,80,8|0,0:0|0:0,0:0:0:0:
108,20,31973,2,0,B|132:48|132:96,1,80,0|0,0:0|0:0,0:0:0:0:
100,168,32289,1,8,0:0:0:0:
176,196,32447,1,0,0:0:0:0:
212,124,32605,1,0,0:0:0:0:
408,244,32921,5,8,0:0:0:0:
344,292,33079,1,0,0:0:0:0:
280,340,33237,2,0,B|200:380|124:340,1,160,0|8,0:0|0:0,0:0:0:0:
52,308,33712,2,0,B|12:228|52:152,1,160,0|0,0:0|0:0,0:0:0:0:
188,112,34186,2,0,B|208:152|188:188,1,80,8|0,0:0|0:0,0:0:0:0:
128,244,34502,2,0,B|196:288,1,80
384,244,34818,2,0,B|316:288,1,80,8|0,0:0|0:0,0:0:0:0:
256,340,35134,5,0,0:0:0:0:
256,148,35450,1,8,0:0:0:0:
128,56,35766,2,0,B|44:96|32:176,1,160,0|8,0:0|0:0,0:0:0:0:
384,56,36398,2,0,B|468:96|480:176,1,160,0|8,0:0|0:0,0:0:0:0:
404,196,36872,1,0,0:0:0:0:
328,216,37030,2,0,B|296:244|296:288,1,80
364,328,37346,2,0,B|348:356|296:388|244:356|228:328,1,160,8|0,0:0|0:0,0:0:0:0:
160,288,37820,6,0,B|160:244|128:216,1,80,0|8,0:0|0:0,0:0:0:0:
52,192,38136,1,0,0:0:0:0:
112,140,38294,2,0,B|176:76,2,80,0|0|8,0:0|0:0|0:0,0:0:0:0:
129,217,38768,2,0,B|200:180|287:180,1,160
314,252,39242,2,0,B|242:288|158:288,1,160,8|0,0:0|0:0,0:0:0:0:
84,284,39716,1,0,0:0:0:0:
8,252,39874,1,8,0:0:0:0:
8,172,40032,1,0,0:0:0:0:
84,152,40190,6,0,B|156:120|200:44,1,160,4|8,0:0|0:0,0:0:0:0:
280,44,40664,1,0,0:0:0:0:
280,44,40822,2,0,B|360:44|420:112,1,160,0|8,0:0|0:0,0:0:0:0:
456,180,41296,2,0,B|456:260|388:320,1,160,0|0,0:0|0:0,0:0:0:0:
304,328,41771,2,0,B|258:321|224:348,1,80,8|0,0:0|0:0,0:0:0:0:
148,348,42087,2,0,B|52:332|52:240,2,160,0|8|0,0:0|0:0|0:0,0:0:0:0:
256,192,43035,5,8,0:0:0:0:
364,36,43351,2,0,B|460:52|460:144,2,160,0|8|0,0:0|0:0|0:0,0:0:0:0:
296,76,44141,1,0,0:0:0:0:
228,36,44299,2,0,B|132:52|132:144,1,160,8|0,0:0|0:0,0:0:0:0:
92,212,44773,2,0,B|32:272,2,80,0|8|0,0:0|0:0|0:0,0:0:0:0:
172,212,45247,6,0,B|232:272,1,80
192,340,45563,2,0,B|219:356|280:357|309:304|309:272,1,160,8|0,0:0|0:0,0:0:0:0:
388,268,46037,1,0,0:0:0:0:
388,268,46195,2,0,B|388:235|359:182|298:183|270:200,1,160,8|0,0:0|0:0,0:0:0:0:
212,144,46669,1,0,0:0:0:0:
212,144,46827,2,0,B|211:111|240:58|303:58|328:72,1,160,8|0,0:0|0:0,0:0:0:0:
388,268,47459,6,0,B|389:301|360:354|297:354|272:340,1,160,4|0,0:0|0:0,0:0:0:0:
200,304,47933,1,0,0:0:0:0:
200,304,48091,2,0,B|108:304,2,80,8|0|0,0:0|0:0|0:0,0:0:0:0:
212,144,48723,1,8,0:0:0:0:
356,76,49039,2,0,B|396:88|420:124,1,80
348,160,49355,2,0,B|367:196|359:239,1,80,8|0,0:0|0:0,0:0:0:0:
284,212,49671,2,0,B|272:252|236:276,1,80,0|0,0:0|0:0,0:0:0:0:
160,304,49988,1,8,0:0:0:0:
160,304,50146,1,0,0:0:0:0:
84,276,50304,6,0,B|24:216|24:128,2,160,4|8|0,0:0|0:0|0:0,0:0:0:0:
160,304,51094,2,0,B|200:320|240:304,1,80,0|8,0:0|0:0,0:0:0:0:
312,276,51410,2,0,B|372:216|372:128,1,160,4|0,0:0|0:0,0:0:0:0:
296,160,51884,2,0,B|274:77|200:36,1,160,8|0,0:0|0:0,0:0:0:0:
124,52,52358,2,0,B|32:84,2,80,0|8|0,0:0|0:0|0:0,0:0:0:0:
200,36,52832,6,0,B|276:12|360:36,1,160,4|8,0:0|0:0,0:0:0:0:
452,160,53306,1,0,0:0:0:0:
452,160,53464,2,0,B|376:188|296:160,1,160,0|8,0:0|0:0,0:0:0:0:
220,148,53938,1,4,0:0:0:0:
140,136,54096,2,0,B|108:164|108:208,1,80,0|0,0:0|0:0,0:0:0:0:
224,316,54412,2,0,B|256:288|256:244,1,80,8|0,0:0|0:0,0:0:0:0:
140,136,54728,2,0,B|96:136|68:104,1,80
220,148,55044,6,0,B|312:148|368:96,2,160,4|0|8,0:0|0:0|0:0,0:0:0:0:
172,212,55834,1,0,0:0:0:0:
220,276,55992,2,0,B|168:336,2,80,0|0|8,0:0|0:0|0:0,0:0:0:0:
300,276,56466,2,0,B|352:336,2,80,0|4|0,0:0|0:0|0:0,0:0:0:0:
352,212,56940,1,8,0:0:0:0:
352,212,57098,2,0,B|440:212,2,80,0|4|0,0:0|0:0|0:0,0:0:0:0:
352,92,57572,2,0,B|300:152,1,80,8|0,0:0|0:0,0:0:0:0:
212,152,57888,5,8,0:0:0:0:
212,152,58047,2,0,B|168:144|160:100,1,80,8|0,0:0|0:0,0:0:0:0:
300,232,58363,1,8,0:0:0:0:
300,232,58521,2,0,B|344:240|352:284,1,80,8|0,0:0|0:0,0:0:0:0:
212,232,58837,1,8,0:0:0:0:
212,232,58995,2,0,B|168:240|160:284,1,80,8|0,0:0|0:0,0:0:0:0:
300,152,59311,1,8,0:0:0:0:
300,152,59469,2,0,B|344:144|352:100,1,80,8|0,0:0|0:0,0:0:0:0:
256,304,59785,1,8,0:0:0:0:
148,36,60417,6,0,B|56:64|40:144,2,160,4|8|0,0:0|0:0|0:0,0:0:0:0:
200,96,61207,1,0,0:0:0:0:
200,96,61365,2,0,B|180:136|200:172,1,80,8|0,0:0|0:0,0:0:0:0:
280,172,61681,2,0,B|300:135|280:96,1,80,0|0,0:0|0:0,0:0:0:0:
328,36,61997,2,0,B|420:64|436:144,2,160,8|0|8,0:0|0:0|0:0,0:0:0:0:
280,96,62787,1,0,0:0:0:0:
280,96,62945,6,0,B|325:180|280:248,1,160,0|8,0:0|0:0,0:0:0:0:
120,248,63419,2,0,B|75:180|120:96,1,160,0|0,0:0|0:0,0:0:0:0:
200,96,63893,1,8,0:0:0:0:
200,96,64051,2,0,B|200:16,2,80
280,96,64525,2,0,B|356:60|436:96,1,160,8|0,0:0|0:0,0:0:0:0:
484,156,64999,1,0,0:0:0:0:
436,220,65157,1,8,0:0:0:0:
276,260,65473,6,0,B|200:296|120:260,1,160,4|8,0:0|0:0,0:0:0:0:
60,208,65947,1,0,0:0:0:0:
120,152,66106,2,0,B|80:84,2,80,0|0|8,0:0|0:0|0:0,0:0:0:0:
200,152,66580,1,0,0:0:0:0:
200,152,66738,2,0,B|240:84,2,80,4|0|8,0:0|0:0|0:0,0:0:0:0:
260,208,67212,1,0,0:0:0:0:
260,208,67370,2,0,B|300:192|340:208,1,80
260,348,67686,2,0,B|220:364|180:348,1,80,8|0,0:0|0:0,0:0:0:0:
124,292,68002,6,0,B|44:260,2,80,4|0|8,0:0|0:0|0:0,0:0:0:0:
184,236,68476,2,0,B|260:208,2,80,0|0|0,0:0|0:0|0:0,0:0:0:0:
112,204,68950,2,0,B|80:168|80:132,1,80,8|0,0:0|0:0,0:0:0:0:
148,92,69266,2,0,B|132:64|80:32|28:64|12:92,2,160,0|8|0,0:0|0:0|0:0,0:0:0:0:
228,92,70056,2,0,B|260:56|260:20,2,80,8|8|0,0:0|0:0|0:0,0:0:0:0:
188,160,70530,6,0,B|188:248|276:280,1,160,4|8,0:0|0:0,0:0:0:0:
316,212,71004,2,0,B|316:124|228:92,1,160
148,92,71478,1,8,0:0:0:0:
104,160,71636,2,0,B|28:128,2,80,0|0|0,0:0|0:0|0:0,0:0:0:0:
60,228,72110,2,0,B|40:268|60:304,1,80,8|0,0:0|0:0,0:0:0:0:
136,324,72426,1,0,0:0:0:0:
212,344,72584,1,0,0:0:0:0:
288,364,72742,2,0,B|308:324|288:288,1,80,8|0,0:0|0:0,0:0:0:0:
220,244,73058,6,0,B|236:216|288:184|340:216|356:244,1,160,4|8,0:0|0:0,0:0:0:0:
368,324,73532,2,0,B|400:324|453:295|452:234|436:206,1,160
380,152,74006,2,0,B|424:84,2,80,8|0|0,0:0|0:0|0:0,0:0:0:0:
312,112,74481,1,0,0:0:0:0:
236,92,74639,1,8,0:0:0:0:
160,112,74797,1,0,0:0:0:0:
92,152,74955,2,0,B|48:84,2,80,0|0|8,0:0|0:0|0:0,0:0:0:0:
44,216,75429,1,0,0:0:0:0:
92,280,75587,6,0,B|136:356|232:356,1,160,4|8,0:0|0:0,0:0:0:0:
292,312,76061,1,0,0:0:0:0:
292,312,76219,2,0,B|376:334|440:276,1,160,0|8,0:0|0:0,0:0:0:0:
460,196,76693,1,0,0:0:0:0:
440,120,76851,2,0,B|377:57|292:80,1,160,4|8,0:0|0:0,0:0:0:0:
216,96,77325,1,0,0:0:0:0:
136,112,77483,2,0,B|72:48,2,80,0|0|8,0:0|0:0|0:0,0:0:0:0:
88,176,77957,1,0,0:0:0:0:
136,240,78115,6,0,B|72:304,2,80,4|0|8,0:0|0:0|0:0,0:0:0:0:
216,248,78589,2,0,B|288:288|372:248,1,160
416,184,79063,2,0,B|452:204|456:252,2,80,8|0|0,0:0|0:0|0:0,0:0:0:0:
416,104,79537,2,0,B|452:84|456:36,2,80,0|8|0,0:0|0:0|0:0,0:0:0:0:
348,144,80011,1,0,0:0:0:0:
244,220,80169,1,0,0:0:0:0:
284,92,80327,1,8,0:0:0:0:
324,220,80485,1,0,0:0:0:0:
216,144,80643,1,4,0:0:0:0:
88,48,90441,5,8,0:0:0:0:
88,48,90757,2,0,B|60:64|28:116|60:168|88:184,1,160,4|8,0:0|0:0,0:0:0:0:
164,200,91231,1,0,0:0:0:0:
244,216,91389,2,0,B|280:244|280:284,1,80
200,280,91705,1,8,0:0:0:0:
156,344,91863,2,0,B|120:316|120:276,2,80
236,348,92337,1,8,0:0:0:0:
316,352,92495,1,0,0:0:0:0:
356,280,92653,2,0,B|396:272|420:236,1,80
348,204,92969,2,0,B|340:164|304:140,1,80,8|0,0:0|0:0,0:0:0:0:
236,100,93285,6,0,B|152:72|80:100,1,160,0|8,0:0|0:0,0:0:0:0:
80,260,93759,1,0,0:0:0:0:
80,260,93917,2,0,B|152:288|236:260,1,160,0|8,0:0|0:0,0:0:0:0:
312,236,94391,1,0,0:0:0:0:
312,236,94549,2,0,B|338:269|381:276,1,80
424,208,94865,2,0,B|397:174|354:167,1,80,8|0,0:0|0:0,0:0:0:0:
276,160,95181,2,0,B|276:68|356:28,2,160,0|8|0,0:0|0:0|0:0,0:0:0:0:
196,160,95971,5,0,0:0:0:0:
196,160,96129,2,0,B|108:160,1,80,8|0,0:0|0:0,0:0:0:0:
36,160,96445,2,0,B|36:252|112:292,1,160,0|8,0:0|0:0,0:0:0:0:
180,328,96919,1,0,0:0:0:0:
252,292,97077,2,0,B|292:308|332:292,1,80
296,220,97393,2,0,B|329:193|336:150,1,80,8|0,0:0|0:0,0:0:0:0:
256,152,97709,2,0,B|200:92,2,80,0|0|8,0:0|0:0|0:0,0:0:0:0:
212,220,98183,1,0,0:0:0:0:
252,292,98341,6,0,B|308:352,2,80,0|0|8,0:0|0:0|0:0,0:0:0:0:
172,292,98816,1,0,0:0:0:0:
92,292,98974,2,0,B|36:232,2,80,0|0|8,0:0|0:0|0:0,0:0:0:0:
132,220,99448,2,0,B|88:144|132:64,1,160
200,104,99922,1,8,0:0:0:0:
280,104,100080,1,0,0:0:0:0:
344,56,100238,2,0,B|368:92|352:136,1,80
432,144,100554,2,0,B|423:186|384:204,1,80,8|0,0:0|0:0,0:0:0:0:
304,196,100870,6,0,B|216:216|192:304,1,160,4|8,0:0|0:0,0:0:0:0:
260,340,101344,1,0,0:0:0:0:
260,340,101502,2,0,B|244:368|192:400|140:368|124:340,1,160,0|8,0:0|0:0,0:0:0:0:
76,280,101976,2,0,B|-4:308,2,80
100,204,102450,2,0,B|80:164|100:128,1,80,8|0,0:0|0:0,0:0:0:0:
240,52,102766,2,0,B|260:92|240:128,1,80,0|0,0:0|0:0,0:0:0:0:
210,234,103082,2,0,B|172:208|172:168,1,80,8|0,0:0|0:0,0:0:0:0:
312,184,103398,5,0,0:0:0:0:
312,184,103714,2,0,B|312:144|336:108,1,80,8|0,0:0|0:0,0:0:0:0:
416,108,104030,2,0,B|480:164|480:252,1,160,0|8,0:0|0:0,0:0:0:0:
400,252,104504,2,0,B|383:335|312:380,1,160,0|0,0:0|0:0,0:0:0:0:
236,356,104978,1,8,0:0:0:0:
236,356,105136,1,0,0:0:0:0:
160,332,105294,2,0,B|120:332|88:304,1,80
148,252,105610,2,0,B|119:223|116:180,1,80,8|0,0:0|0:0,0:0:0:0:
164,116,105926,6,0,B|240:80|320:116,1,160,0|8,0:0|0:0,0:0:0:0:
400,252,106400,1,0,0:0:0:0:
400,252,106558,2,0,B|324:288|244:252,1,160,0|8,0:0|0:0,0:0:0:0:
204,184,107033,1,0,0:0:0:0:
124,184,107191,2,0,B|82:184|58:222,1,80
44,380,107507,2,0,B|85:379|109:342,1,80,8|0,0:0|0:0,0:0:0:0:
268,308,107823,2,0,L|240:336,2,40
352,308,108139,6,0,B|424:368,2,80,4|0|0,0:0|0:0|0:0,0:0:0:0:
396,240,108613,1,0,0:0:0:0:
352,172,108771,2,0,B|372:132|352:92,1,80,8|0,0:0|0:0,0:0:0:0:
284,132,109087,1,0,0:0:0:0:
284,132,109245,1,0,0:0:0:0:
216,92,109403,2,0,B|196:132|216:172,1,80,8|0,0:0|0:0,0:0:0:0:
284,212,109719,2,0,B|248:260|180:260|148:212,1,160,0|8,0:0|0:0,0:0:0:0:
88,156,110193,1,0,0:0:0:0:
28,212,110351,1,0,0:0:0:0:
88,268,110509,1,0,0:0:0:0:
148,324,110667,2,0,B|120:352,2,40
220,360,110983,6,0,B|300:388|376:360,1,160,4|8,0:0|0:0,0:0:0:0:
444,320,111457,1,0,0:0:0:0:
380,272,111615,2,0,B|344:244|344:204,2,80,0|0|8,0:0|0:0|0:0,0:0:0:0:
424,208,112089,2,0,B|460:180|460:132,2,80,4|0|0,0:0|0:0|0:0,0:0:0:0:
384,140,112563,2,0,B|304:104|228:140,1,160,8|0,0:0|0:0,0:0:0:0:
156,180,113037,1,0,0:0:0:0:
100,236,113195,1,8,0:0:0:0:
144,304,113353,1,0,0:0:0:0:
228,296,113511,6,0,B|324:296|344:208,2,160,4|8|0,0:0|0:0|0:0,0:0:0:0:
144,304,114301,1,0,0:0:0:0:
100,236,114459,1,8,0:0:0:0:
156,180,114617,2,0,B|116:112|116:112|156:40,1,160,4|0,0:0|0:0,0:0:0:0:
236,40,115092,2,0,B|275:110|275:110|235:178,1,160,8|0,0:0|0:0,0:0:0:0:
304,220,115566,1,0,0:0:0:0:
304,220,115724,6,0,B|332:188|384:188,1,80,4|0,0:0|0:0,0:0:0:0:
292,324,116040,2,0,B|264:356|220:356,1,80
140,356,116356,2,0,B|44:356|24:268,2,160,8|0|8,0:0|0:0|0:0,0:0:0:0:
180,284,117146,1,0,0:0:0:0:
140,216,117304,2,0,B|120:180|140:140,1,80,4|0,0:0|0:0,0:0:0:0:
212,172,117620,2,0,B|233:136|280:132,1,80,8|0,0:0|0:0,0:0:0:0:
432,172,117936,2,0,B|410:136|364:132,1,80,4|0,0:0|0:0,0:0:0:0:
320,200,118252,1,8,0:0:0:0:
320,200,118410,1,0,0:0:0:0:
256,344,118568,6,0,B|336:344,2,80,8|8|0,0:0|0:0|0:0,0:0:0:0:
176,344,119042,2,0,B|100:312,1,80,8|8,0:0|0:0,0:0:0:0:
92,232,119358,1,0,0:0:0:0:
84,152,119516,2,0,B|4:152,2,80,8|8|0,0:0|0:0|0:0,0:0:0:0:
164,152,119990,2,0,B|240:180,1,80,8|8,0:0|0:0,0:0:0:0:
320,180,120306,1,0,0:0:0:0:
284,252,120464,1,8,0:0:0:0:
88,64,121096,6,0,B|164:28|244:64,1,160,4|8,0:0|0:0,0:0:0:0:
284,132,121570,2,0,B|208:168|128:132,1,160
48,136,122044,1,8,0:0:0:0:
48,136,122202,2,0,B|20:168|20:208,1,80
48,364,122518,2,0,B|20:332|20:292,2,80,0|8|0,0:0|0:0|0:0,0:0:0:0:
104,304,122993,2,0,B|180:340|260:304,1,160,0|8,0:0|0:0,0:0:0:0:
324,260,123467,1,0,0:0:0:0:
380,200,123625,6,0,B|444:252,2,80,0|0|8,0:0|0:0|0:0,0:0:0:0:
380,120,124099,2,0,B|444:68,2,80,0|0|0,0:0|0:0|0:0,0:0:0:0:
312,160,124573,1,8,0:0:0:0:
244,200,124731,2,0,B|184:264|100:264,1,160
68,192,125205,2,0,B|128:128|212:128,1,160,8|0,0:0|0:0,0:0:0:0:
276,80,125679,2,0,B|224:20,2,80,0|8|0,0:0|0:0|0:0,0:0:0:0:
392,192,126153,6,0,B|412:228|392:268,1,80,4|0,0:0|0:0,0:0:0:0:
312,344,126469,2,0,B|292:304|312:268,1,80,8|0,0:0|0:0,0:0:0:0:
256,208,126785,2,0,B|168:208|116:136,1,160,0|8,0:0|0:0,0:0:0:0:
44,104,127259,1,0,0:0:0:0:
36,184,127417,2,0,B|36:264|116:316,1,160,4|8,0:0|0:0,0:0:0:0:
192,296,127891,1,0,0:0:0:0:
192,296,128049,2,0,B|208:268|256:232|308:268|324:296,1,160,0|8,0:0|0:0,0:0:0:0:
404,316,128523,1,0,0:0:0:0:
404,316,128681,6,0,B|444:292|452:252,2,80,4|0|8,0:0|0:0|0:0,0:0:0:0:
376,240,129155,2,0,B|376:156|304:104,1,160
236,60,129629,2,0,B|152:80,1,80,8|0,0:0|0:0,0:0:0:0:
84,104,129945,2,0,B|32:176|84:256,2,160,0|8|0,0:0|0:0|0:0,0:0:0:0:
144,156,130735,1,8,0:0:0:0:
204,208,130893,1,8,0:0:0:0:
324,312,131210,6,0,B|400:348|480:312,2,160,4|8|0,0:0|0:0|0:0,0:0:0:0:
264,260,132000,1,0,0:0:0:0:
324,204,132158,1,8,0:0:0:0:
264,152,132316,2,0,B|188:116|108:152,1,160
44,196,132790,2,0,B|24:232|44:272,1,80,8|0,0:0|0:0,0:0:0:0:
180,356,133106,2,0,B|200:320|180:280,1,80
116,232,133422,1,8,0:0:0:0:
192,204,133580,1,0,0:0:0:0:
260,248,133738,6,0,B|332:292,2,80,4|0|8,0:0|0:0|0:0,0:0:0:0:
260,168,134212,2,0,B|280:128|260:92,1,80
120,12,134528,2,0,B|100:52|120:88,1,80,0|8,0:0|0:0,0:0:0:0:
160,156,134844,2,0,B|92:224,2,80
228,116,135318,1,8,0:0:0:0:
308,116,135476,1,0,0:0:0:0:
380,152,135634,2,0,B|460:176|488:268,1,160,0|8,0:0|0:0,0:0:0:0:
332,308,136108,1,0,0:0:0:0:
332,308,136266,6,0,B|271:365|177:343,1,160,4|8,0:0|0:0,0:0:0:0:
108,312,136740,1,0,0:0:0:0:
48,260,136898,2,0,B|24:232|32:184,2,80,0|0|8,0:0|0:0|0:0,0:0:0:0:
108,208,137372,1,0,0:0:0:0:
168,260,137530,2,0,B|192:232|184:184,1,80,4|0,0:0|0:0,0:0:0:0:
256,148,137846,1,8,0:0:0:0:
328,116,138004,1,0,0:0:0:0:
400,148,138162,2,0,B|468:196|468:292,1,160,0|8,0:0|0:0,0:0:0:0:
328,364,138636,1,0,0:0:0:0:
248,364,138794,6,0,B|156:364,2,80,4|0|8,0:0|0:0|0:0,0:0:0:0:
260,284,139269,2,0,B|332:236,2,80
180,284,139743,2,0,B|108:236,1,80,8|0,0:0|0:0,0:0:0:0:
40,272,140059,2,0,B|20:232|40:196,1,80,0|0,0:0|0:0,0:0:0:0:
184,120,140375,2,0,B|204:160|184:196,1,80,8|0,0:0|0:0,0:0:0:0:
112,160,140691,1,0,0:0:0:0:
112,160,140849,1,0,0:0:0:0:
52,108,141007,1,8,0:0:0:0:
88,36,141165,1,0,0:0:0:0:
168,44,141323,1,4,0:0:0:0:
