osu file format v12

[General]
AudioFilename: Apollo.mp3
AudioLeadIn: 0
PreviewTime: 60417
Countdown: 0
SampleSet: Soft
StackLeniency: 0.7
Mode: 0
LetterboxInBreaks: 1

[Editor]
DistanceSpacing: 1.1
BeatDivisor: 4
GridSize: 4

[Metadata]
Title:Apollo
TitleUnicode:アポロ
Artist:Porno Graffitti
ArtistUnicode:ポルノグラフィティ
Creator:kajiyatta
Version:Easy
Source:
Tags:j-pop jpop
BeatmapID:181899
BeatmapSetID:60904

[Difficulty]
HPDrainRate:2
CircleSize:3
OverallDifficulty:2
ApproachRate:3
SliderMultiplier:0.7
SliderTickRate:1

[Events]
//Background and Video events
0,0,"BG1.JPG",0,0
//Break Periods
2,17636,18524
2,47659,48548
2,80843,89001
2,108339,109227
//Storyboard Layer 0 (Background)
//Storyboard Layer 1 (Fail)
//Storyboard Layer 2 (Pass)
//Storyboard Layer 3 (Foreground)
//Storyboard Sound Samples
//Background Colour Transformations
3,100,163,162,255

[TimingPoints]
6120,705.882352941176,4,2,1,50,1,0
6825,-100,4,2,2,5,0,0
7531,-100,4,2,1,50,0,0
9649,-100,4,2,2,5,0,0
10354,-100,4,2,1,50,0,0
12472,-100,4,2,2,5,0,0
13178,-100,4,2,1,50,0,0
17436,316.038978140637,4,2,1,70,1,0
19964,-100,4,2,1,90,0,0
20596,-100,4,2,2,5,0,0
20912,-100,4,2,1,90,0,0
21860,-100,4,2,2,5,0,0
22176,-100,4,2,1,90,0,0
23124,-100,4,2,2,5,0,0
23440,-100,4,2,1,90,0,0
24388,-100,4,2,2,5,0,0
24704,-100,4,2,1,90,0,0
25020,-100,4,2,1,60,0,0
25178,-100,4,2,1,80,0,0
27549,-100,4,2,1,60,0,0
27707,-100,4,2,1,80,0,0
28181,-100,4,2,2,5,0,0
28339,-100,4,2,1,80,0,0
28813,-100,4,2,1,60,0,0
28971,-100,4,2,1,80,0,0
29445,-100,4,2,2,5,0,0
29761,-100,4,2,1,80,0,0
40190,-100,4,2,1,60,0,0
40348,-100,4,2,1,80,0,0
47459,-100,4,2,1,60,0,0
47617,-100,4,2,1,80,0,0
50304,-100,4,2,1,60,0,0
50462,-100,4,2,1,80,0,0
52832,-100,4,2,1,60,0,0
52990,-100,4,2,1,80,0,0
55044,-100,4,2,1,60,0,0
55360,-100,4,2,2,5,0,0
55676,-100,4,2,1,80,0,0
56624,-100,4,2,1,60,0,0
56782,-100,4,2,1,80,0,0
57256,-100,4,2,1,60,0,0
57414,-100,4,2,1,80,0,0
57888,-100,4,2,0,60,0,0
60417,-100,4,2,1,100,0,1
65473,-100,4,2,1,70,0,1
65631,-100,4,2,1,100,0,1
66738,-100,4,2,1,70,0,1
66896,-100,4,2,1,100,0,1
68002,-100,4,2,1,70,0,1
68160,-100,4,2,1,100,0,1
70214,-100,4,2,1,100,0,0
70530,-100,4,2,1,70,0,1
70688,-100,4,2,1,100,0,1
73058,-100,4,2,1,70,0,1
73216,-100,4,2,1,100,0,1
75587,-100,4,2,1,70,0,1
75745,-100,4,2,1,100,0,1
76851,-100,4,2,1,70,0,1
77009,-100,4,2,1,100,0,1
78115,-100,4,2,1,70,0,1
78273,-100,4,2,1,100,0,1
80643,-100,4,2,1,100,0,0
90441,-100,4,2,1,80,0,0
100870,-100,4,2,1,60,0,0
101028,-100,4,2,1,80,0,0
108139,-100,4,2,1,60,0,0
108297,-100,4,2,1,80,0,0
110983,-100,4,2,1,60,0,0
111141,-100,4,2,1,80,0,0
113511,-100,4,2,1,60,0,0
113669,-100,4,2,1,80,0,0
115724,-100,4,2,1,60,0,0
116040,-100,4,2,2,5,0,0
116356,-100,4,2,1,80,0,0
116672,-100,4,2,2,5,0,0
116988,-100,4,2,1,80,0,0
117304,-100,4,2,1,60,0,0
117462,-100,4,2,1,80,0,0
117936,-100,4,2,1,60,0,0
118094,-100,4,2,1,80,0,0
118568,-100,4,2,0,60,0,0
121096,-100,4,2,1,100,0,1
126153,-100,4,2,1,70,0,1
126311,-100,4,2,1,100,0,1
126785,-100,4,2,2,5,0,1
127101,-100,4,2,1,100,0,1
127417,-100,4,2,1,70,0,1
127575,-100,4,2,1,100,0,1
128049,-100,4,2,2,5,0,1
128365,-100,4,2,1,100,0,1
128681,-100,4,2,1,70,0,1
128839,-100,4,2,1,100,0,1
130893,-100,4,2,1,100,0,0
131210,-100,4,2,1,70,0,1
131368,-100,4,2,1,100,0,1
133738,-100,4,2,1,70,0,1
133896,-100,4,2,1,100,0,1
136266,-100,4,2,1,70,0,1
136424,-100,4,2,1,100,0,1
137530,-100,4,2,1,70,0,1
137688,-100,4,2,1,100,0,1
138794,-100,4,2,1,60,0,1
139427,-100,4,2,1,50,0,1
140059,-100,4,2,1,40,0,1
140691,-100,4,2,1,30,0,1
141323,-100,4,2,1,70,0,0

[Colours]
Combo1 : 255,128,128
Combo2 : 3,85,158
Combo3 : 181,181,255
Combo4 : 255,132,9

[HitObjects]
140,104,6119,2,0,B|76:148|76:224,1,140,2|2,0:0|0:0,0:0:0:0:
140,264,8237,1,0,0:0:0:0:
208,300,8943,2,0,B|272:256|272:180,1,140,2|2,0:0|0:0,0:0:0:0:
208,140,11061,1,0,0:0:0:0:
280,112,11767,6,0,B|324:60|408:60,1,140,2|2,0:0|0:0,0:0:0:0:
484,60,13884,1,0,0:0:0:0:
256,192,14590,12,8,17436,0:0:0:0:
84,92,19964,6,0,B|64:120|28:132|28:132|44:168|28:204|28:204|64:216|84:240,1,210,4|8,0:0|0:0,0:0:0:0:
148,284,21228,2,0,B|176:304|188:340|188:340|224:324|260:340|260:340|272:304|296:284,1,210,0|8,0:0|0:0,0:0:0:0:
364,252,22492,2,0,B|410:286|416:343,2,105,0|0|8,0:0|0:0|0:0,0:0:0:0:
364,176,23756,2,0,B|410:142|416:85,2,105,0|0|8,0:0|0:0|0:0,0:0:0:0:
296,216,25020,5,4,0:0:0:0:
172,304,25653,1,0,0:0:0:0:
44,216,26285,1,0,0:0:0:0:
172,132,26917,1,0,0:0:0:0:
296,216,27549,6,0,B|342:249|348:306,2,105,4|0|8,0:0|0:0|0:0,0:0:0:0:
220,216,28813,2,0,B|174:249|168:304,2,105,4|0|8,0:0|0:0|0:0,0:0:0:0:
260,148,30077,6,0,B|260:68,1,70,4|8,0:0|0:0,0:0:0:0:
192,40,30709,2,0,B|160:28|124:40,1,70,0|8,0:0|0:0,0:0:0:0:
56,80,31341,2,0,B|52:112|24:140|24:140|52:168|56:204,1,140
116,252,32289,2,0,B|176:284,1,70,8|0,0:0|0:0,0:0:0:0:
334,284,33237,6,0,B|396:252,1,70,0|8,0:0|0:0,0:0:0:0:
456,201,33870,2,0,B|460:168|488:140|488:140|460:112|456:80,1,140
388,40,34818,2,0,B|352:28|320:40,1,70,8|0,0:0|0:0,0:0:0:0:
264,184,35766,6,0,B|208:140|132:140,2,140
220,248,37346,1,8,0:0:0:0:
264,312,37662,6,0,B|262:338|288:381|342:384|367:372,1,140
436,332,38610,1,8,0:0:0:0:
416,256,38926,2,0,B|417:229|391:186|337:183|312:196,1,140
256,252,39874,1,8,0:0:0:0:
200,196,40190,6,0,B|120:196,2,70,4|8|0,0:0|0:0|0:0,0:0:0:0:
256,144,41138,1,8,0:0:0:0:
296,76,41454,2,0,B|328:64|364:76,2,70,0|8|0,0:0|0:0|0:0,0:0:0:0:
220,76,42403,2,0,B|188:64|152:76,1,70,8|0,0:0|0:0,0:0:0:0:
64,192,43351,5,0,0:0:0:0:
20,256,43667,1,8,0:0:0:0:
64,320,43983,2,0,L|20:376,2,70,0|8|0,0:0|0:0|0:0,0:0:0:0:
140,320,44931,1,8,0:0:0:0:
184,256,45247,6,0,B|252:296|316:256,1,140
360,192,46195,2,0,L|436:192,2,70,8|0|8,0:0|0:0|0:0,0:0:0:0:
316,128,47143,1,0,0:0:0:0:
256,80,47459,1,4,0:0:0:0:
296,320,49988,5,8,0:0:0:0:
372,320,50304,2,0,B|440:356|508:320,2,140,4|0|0,0:0|0:0|0:0,0:0:0:0:
336,252,51884,1,8,0:0:0:0:
372,184,52200,1,0,0:0:0:0:
232,120,52832,6,0,B|168:84|96:120,2,140,4|0|0,0:0|0:0|0:0,0:0:0:0:
296,164,54412,1,8,0:0:0:0:
296,240,54728,1,0,0:0:0:0:
232,284,55044,6,0,B|168:320|96:284,1,140,4|8,0:0|0:0,0:0:0:0:
72,212,55992,2,0,B|-4:212,2,70,0|8|4,0:0|0:0|0:0,0:0:0:0:
92,136,56940,2,0,B|38:82,2,70,8|4|8,0:0|0:0|0:0,0:0:0:0:
164,104,57888,6,0,B|232:72|300:104,2,140,8|8|8,0:0|0:0|0:0,0:0:0:0:
156,180,59469,2,0,L|208:236,1,70,8|8,0:0|0:0,0:0:0:0:
72,312,60417,6,0,B|140:340|208:312,2,140,4|0|0,0:0|0:0|0:0,0:0:0:0:
44,240,61997,1,8,0:0:0:0:
60,164,62313,1,0,0:0:0:0:
120,116,62629,1,8,0:0:0:0:
200,120,62945,6,0,B|244:56|320:56,1,140
396,56,63893,2,0,L|468:56,2,70,8|0|8,0:0|0:0|0:0,0:0:0:0:
356,124,64841,1,0,0:0:0:0:
396,256,65473,6,0,B|446:306,2,70,4|8|0,0:0|0:0|0:0,0:0:0:0:
320,276,66422,1,8,0:0:0:0:
244,296,66738,2,0,B|244:368,2,70,4|8|0,0:0|0:0|0:0,0:0:0:0:
168,276,67686,1,8,0:0:0:0:
92,256,68002,6,0,B|41:306,2,70,4|8|0,0:0|0:0|0:0,0:0:0:0:
72,180,68950,1,8,0:0:0:0:
92,104,69266,2,0,B|136:44|220:60,1,140
364,92,70530,6,0,B|424:128|440:204,2,140,4|0|0,0:0|0:0|0:0,0:0:0:0:
288,92,72110,2,0,B|208:92,2,70,8|0|8,0:0|0:0|0:0,0:0:0:0:
328,156,73058,6,0,B|360:224|328:292,1,140,4|0,0:0|0:0,0:0:0:0:
256,320,74006,1,8,0:0:0:0:
196,272,74323,2,0,L|128:260,2,70,0|8|0,0:0|0:0|0:0,0:0:0:0:
188,120,75587,5,4,0:0:0:0:
56,200,76219,1,2,0:0:0:0:
112,344,76851,1,4,0:0:0:0:
264,344,77483,1,2,0:0:0:0:
320,200,78115,6,0,B|388:168|456:200,1,140,4|0,0:0|0:0,0:0:0:0:
492,268,79063,1,8,0:0:0:0:
452,332,79379,2,0,B|504:384,2,70,0|8|0,0:0|0:0|0:0,0:0:0:0:
376,332,80327,2,0,B|296:332,1,70,8|4,0:0|0:0,0:0:0:0:
120,116,90441,6,0,B|112:152|80:172,2,70,8|4|8,0:0|0:0|0:0,0:0:0:0:
188,80,91389,1,0,0:0:0:0:
264,80,91705,1,8,0:0:0:0:
332,116,92021,2,0,B|408:116|460:164,2,140
388,260,93917,6,0,B|412:292|412:328,2,70,0|8|0,0:0|0:0|0:0,0:0:0:0:
312,272,94865,1,8,0:0:0:0:
236,260,95181,2,0,B|212:292|212:328,2,70,0|8|0,0:0|0:0|0:0,0:0:0:0:
96,192,96445,6,0,B|72:176|44:132|72:84|96:72,2,140
172,192,98025,1,8,0:0:0:0:
248,192,98341,6,0,B|248:228|272:256,1,70,0|8,0:0|0:0,0:0:0:0:
328,200,98974,2,0,B|359:218|395:211,1,70,0|8,0:0|0:0,0:0:0:0:
376,136,99606,2,0,B|407:117|416:80,2,70,0|8|0,0:0|0:0|0:0,0:0:0:0:
336,68,100554,1,8,0:0:0:0:
260,56,100870,6,0,B|184:36|128:84,1,140,4|0,0:0|0:0,0:0:0:0:
64,128,101818,1,8,0:0:0:0:
44,204,102134,2,0,B|100:252|176:232,1,140
252,216,103082,1,8,0:0:0:0:
304,160,103398,1,0,0:0:0:0:
460,176,104030,6,0,B|476:144|460:108,2,70,0|8|0,0:0|0:0|0:0,0:0:0:0:
392,216,104978,1,8,0:0:0:0:
324,256,105294,2,0,B|308:288|324:324,2,70,0|8|0,0:0|0:0|0:0,0:0:0:0:
192,336,106558,6,0,B|112:336|84:264,2,140
256,292,108139,1,4,0:0:0:0:
324,56,110667,5,8,0:0:0:0:
400,84,110983,2,0,B|436:152|400:220,2,140,4|0|0,0:0|0:0|0:0,0:0:0:0:
256,152,112879,1,0,0:0:0:0:
120,220,113511,6,0,B|84:152|120:84,2,140,4|0|0,0:0|0:0|0:0,0:0:0:0:
168,280,115092,1,8,0:0:0:0:
236,316,115408,1,0,0:0:0:0:
312,316,115724,6,0,B|384:316|384:316|432:268,2,140,4|8|8,0:0|0:0|0:0,0:0:0:0:
280,248,117304,2,0,B|324:188,2,70,4|8|4,0:0|0:0|0:0,0:0:0:0:
236,316,118252,1,8,0:0:0:0:
160,316,118568,6,0,B|90:351|26:315,2,140,8|8|8,0:0|0:0|0:0,0:0:0:0:
196,248,120148,2,0,B|152:188,1,70,8|8,0:0|0:0,0:0:0:0:
104,44,121096,6,0,B|168:8|238:43,2,140,4|0|0,0:0|0:0|0:0,0:0:0:0:
72,112,122676,2,0,B|0:112,2,70,8|0|8,0:0|0:0|0:0,0:0:0:0:
100,184,123625,6,0,B|80:252|20:296,2,140
176,184,125205,2,0,L|252:184,1,70,8|0,0:0|0:0,0:0:0:0:
400,184,126153,6,0,B|444:156|444:92,2,105,4|0|8,0:0|0:0|0:0,0:0:0:0:
324,184,127417,2,0,B|280:212|280:276,2,105,4|0|8,0:0|0:0|0:0,0:0:0:0:
360,116,128681,6,0,B|304:56|236:56,1,140,4|0,0:0|0:0,0:0:0:0:
160,56,129629,1,8,0:0:0:0:
84,56,129945,2,0,B|16:56,2,70,0|8|0,0:0|0:0|0:0,0:0:0:0:
180,176,131210,6,0,B|148:240|148:240|180:300,1,140,4|0,0:0|0:0,0:0:0:0:
256,300,132158,1,8,0:0:0:0:
332,300,132474,2,0,B|364:240|364:240|332:176,1,140,0|0,0:0|0:0,0:0:0:0:
256,176,133422,1,8,0:0:0:0:
180,176,133738,6,0,B|116:138|112:58,2,140,4|0|0,0:0|0:0|0:0,0:0:0:0:
188,252,135318,1,8,0:0:0:0:
256,288,135634,1,0,0:0:0:0:
364,176,136266,6,0,B|427:138|432:58,2,140,4|0|4,0:0|0:0|0:0,0:0:0:0:
256,68,138162,1,0,0:0:0:0:
256,192,138794,12,4,141323,0:0:0:0:
