osu file format v5

[General]
AudioFilename: DearS - Happy Cosmos (TV Size).mp3
AudioLeadIn: 0
PreviewTime: -1
Countdown: 0
SampleSet: Normal
StackLeniency: 0.7
Mode: 0
LetterboxInBreaks: 1

[Metadata]
Title:HAPPY COSMOS (short edit)
Artist:PoppinS
Creator:Sushi971
Version:Normal
Source:Dears Ending
Tags:Dears

[Difficulty]
HPDrainRate:5
CircleSize:4
OverallDifficulty:4
SliderMultiplier:1
SliderTickRate:2

[Events]
//Background and Video events
0,0,"DEARS.jpg"
1,-400,"DearS - Happy Cosmos.avi"
//Break Periods
//Storyboard Layer 0 (Background)
//Storyboard Layer 1 (Failing)
//Storyboard Layer 2 (Passing)
//Storyboard Layer 3 (Foreground)
//Storyboard Sound Samples
//Background Colour Transformations
3,100,163,162,255

[TimingPoints]
1333,348.837209302326,4,1,0,79,1

[Colours]
Combo1 : 255,36,36
Combo2 : 128,255,191
Combo3 : 255,128,192
Combo4 : 253,238,53

[HitObjects]
216,192,1681,1,0
296,192,2030,1,0
256,136,3600,6,0,B|256:64|88:80,1,150,0|0
56,80,4472,2,4,B|56:128|56:184,1,100,4|4
280,344,6042,2,0,B|160:352|256:168|48:104,1,350,0|0
56,104,7612,1,4
368,288,9181,6,0,B|408:232|392:152|288:192,1,150
248,176,10053,5,0
248,176,10402,1,0
8,32,11623,2,0,B|120:160,1,150
256,192,12844,5,0
336,192,13193,1,0
416,192,13542,1,0
376,120,13891,1,0
296,120,14240,2,0,B|232:120,1,50
168,120,14763,2,2,B|16:120|32:200|64:208,1,150,2|2
48,256,15635,5,0
128,256,15984,1,0
208,256,16333,2,0,B|272:256,3,50
336,256,17205,2,2,B|448:256|440:72,1,200
440,112,18077,1,8
440,32,18426,5,0
360,32,18774,1,0
280,32,19123,2,0,B|248:32|232:88,3,50
200,64,19821,2,2,B|200:112|136:112,3,50
256,288,21216,5,0
256,208,21565,1,0
304,144,21914,2,2,B|256:112|208:144,1,100,2|2
210,142,22437,1,2
232,64,22786,6,0,B|312:64,3,50
256,136,23658,1,0
256,216,24007,1,2
256,296,24356,1,2
256,24,25926,6,0,B|256:184,1,150,0|0
256,256,26798,1,2
256,336,27146,1,2
256,192,27321,12,4,28891
216,192,29588,5,0
296,192,29937,1,8
216,192,30286,1,0
296,192,30635,1,8
256,264,30984,2,8,B|256:344,1,50
256,232,31507,2,6,B|168:240|256:168|104:152,1,150
56,160,32379,5,0
56,80,32728,1,0
136,80,33077,2,0,B|177:52|177:52|211:90|211:90|257:52,1,150
249,58,33774,2,4,B|384:56|480:192|320:264,1,300
280,232,35170,5,0
200,232,35519,1,0
120,232,35867,2,0,B|120:144,1,50
120,144,36216,2,0,B|120:80,1,50
120,56,36565,2,0,B|192:56,3,50
368,56,37960,5,0
312,112,38309,1,0
256,168,38658,1,0
256,168,39007,1,0
256,168,39181,2,0,B|432:256|240:349,1,250
216,344,40228,6,8,B|152:344,3,50
88,344,41100,2,2,B|-40:240|152:40,1,350
224,48,42670,2,0,B|288:120,1,50,0|0
344,200,43542,6,2,B|245:289|162:187,2,200
344,200,45112,1,8
320,120,45460,2,2,B|248:48|166:134,1,150,2|2
104,120,46333,5,8
104,200,46681,1,8
104,280,47030,1,8
184,280,47379,1,8
264,280,47728,1,0
264,280,47902,1,8
344,280,48251,2,2,B|424:224|232:232|344:144,1,150
184,256,49472,5,4
344,256,50170,5,4
392,144,50693,6,4,B|112:144,1,250
256,192,51914,12,4,53135
256,192,53658,5,0
256,192,53833,1,0
256,192,54007,1,0
112,272,54705,5,0
112,192,55053,1,0
112,112,55402,1,0
112,192,55751,2,0,B|192:192,1,50
240,192,56274,1,0
320,192,56623,1,0
176,328,57495,2,0,L|208:288|208:288|238:327|238:327|271:288|271:288|301:328|301:328|328:288|360:328|393:290|393:290,1,350
392,208,59065,1,4
392,208,59414,1,4
256,56,60286,5,0
256,136,60635,1,0
256,216,60984,1,0
256,296,61333,2,0,L|256:352,1,50
176,352,61856,1,0
96,352,62205,1,0
168,192,63077,6,2,B|255:104|344:200,1,200
256,280,64298,2,2,B|64:280|32:128,1,250,2|2
192,104,65867,5,0
248,160,66216,1,0
312,208,66565,1,0
376,256,66914,1,0
376,256,67088,2,0,B|480:256|480:112,1,200
280,80,68658,6,0,B|352:80,7,50
304,152,70228,2,4,B|304:264,1,100,4|4
112,192,71449,5,0
168,136,71798,1,8
112,192,72146,1,0
56,136,72495,1,8
56,136,72670,1,8
112,192,73019,1,10
168,136,73367,1,10
360,192,74240,5,0
280,192,74588,1,0
200,192,74937,1,0
120,192,75286,1,0
120,72,75809,1,0
120,72,75984,1,0
120,72,76158,1,0
120,72,76333,2,2,B|120:168|312:88,1,200
256,216,77553,6,0,B|256:312,2,50
256,136,78251,1,4
360,192,78774,5,0
200,192,79472,5,0
200,192,79646,6,0,L|100:192|88:144|40:144|40:40|88:40|88:88|192:88|192:40|240:40|240:144|288:144|288:192,1,750
256,192,82437,12,4,84007
