osu file format v14

[General]
AudioFilename: Christmas song.mp3
AudioLeadIn: 0
PreviewTime: 77869
Countdown: 0
SampleSet: Soft
StackLeniency: 0.2
Mode: 0
LetterboxInBreaks: 0
WidescreenStoryboard: 0

[Editor]
Bookmarks: 92543,127760
DistanceSpacing: 0.7
BeatDivisor: 4
GridSize: 16
TimelineZoom: 4.599998

[Metadata]
Title:Christmas no Uta
TitleUnicode:クリスマスのうた
Artist:Poppin'Party
ArtistUnicode:Poppin’Party
Creator:-Aqua
Version:newqua's Insane
Source:バンドリ! ガールズバンドパーティ!
Tags:newqua StarrStyx newton- Kurisumasu BanG Dream! Bandori! Girls Band Party! ガルパ Garupa 8th single insert song Bandori project PoPiPa Girl Party Garupa! 戸山香澄 Toyama Kasumi 愛美 Aimi 山吹 沙綾 Yamabuki Saaya 大橋彩香 Ohashi Ayaka 牛込 りみ Ushigome Rimi 西本 りみ Nishimoto 花園 たえ Hanazono Tae 大塚紗英 Otsuka Sae 大塚紗英 Ichigaya Arisa 伊藤 彩沙 Itou Ayasa
BeatmapID:1489530
BeatmapSetID:700927

[Difficulty]
HPDrainRate:6
CircleSize:5
OverallDifficulty:7.5
ApproachRate:9
SliderMultiplier:1.2
SliderTickRate:1

[Events]
//Background and Video events
0,0,"Kasumeme and Friends.jpg",0,0
//Break Periods
//Storyboard Layer 0 (Background)
//Storyboard Layer 1 (Fail)
//Storyboard Layer 2 (Pass)
//Storyboard Layer 3 (Foreground)
//Storyboard Sound Samples

[TimingPoints]
17761,434.782608695652,4,2,1,50,1,0
31674,-66.6666666666667,4,2,1,60,0,0
44717,-83.3333333333333,4,2,1,50,0,0
52108,-50,4,2,1,50,0,0
52543,-83.3333333333333,4,2,1,50,0,0
61565,-83.3333333333333,4,2,1,5,0,0
61674,-83.3333333333333,4,2,1,50,0,0
62000,-83.3333333333333,4,2,1,5,0,0
62108,-83.3333333333333,4,2,1,50,0,0
62434,-83.3333333333333,4,2,1,5,0,0
62543,-83.3333333333333,4,2,1,50,0,0
65043,-83.3333333333333,4,2,1,5,0,0
65152,-83.3333333333333,4,2,1,50,0,0
65478,-83.3333333333333,4,2,1,5,0,0
65587,-83.3333333333333,4,2,1,50,0,0
65913,-83.3333333333333,4,2,1,5,0,0
66021,-83.3333333333333,4,2,1,50,0,0
78630,-55.5555555555556,4,2,1,70,0,1
85152,-55.5555555555556,4,2,1,70,0,0
85587,-55.5555555555556,4,2,1,70,0,1
92543,-86.9565217391304,4,2,1,60,0,0
103956,-86.9565217391304,4,2,1,5,0,0
104065,-86.9565217391304,4,2,1,60,0,0
104500,-256.410256410256,4,2,1,60,0,0
104826,-256.410256410256,4,2,1,5,0,0
104934,-83.3333333333333,4,2,1,60,0,0
108195,-71.4285714285714,4,2,1,55,0,0
117869,-71.4285714285714,4,2,1,5,0,0
117978,-71.4285714285714,4,2,1,55,0,0
118630,-76.9230769230769,4,2,1,50,0,0
126456,-100,4,2,1,40,0,0
126891,-100,4,2,1,30,0,0
127326,-100,4,2,1,20,0,0
127760,-100,4,2,1,30,0,0

[Colours]
Combo1 : 202,197,174
Combo2 : 209,78,78
Combo3 : 120,200,100
Combo4 : 213,209,89

[HitObjects]
184,185,17761,6,0,P|253:149|294:155,1,120,0|2,0:0|0:0,0:0:0:0:
256,237,18413,1,0,0:0:0:0:
101,225,18630,2,0,P|93:196|95:166,1,60
175,276,19065,2,0,P|153:297|126:310,1,60,2|0,0:0|0:0,0:0:0:0:
147,82,19500,6,0,B|189:125|189:125|184:185,1,120,0|2,0:0|0:0,0:0:0:0:
256,237,20152,1,0,0:0:0:0:
328,184,20369,2,0,L|323:125,1,60
189,125,20804,2,0,L|184:184,1,60,2|0,0:0|0:0,0:0:0:0:
261,295,21239,6,0,P|262:265|255:236,1,60
184,185,21674,1,2,0:0:0:0:
175,273,21891,1,0,0:0:0:0:
336,200,22108,2,0,L|395:194,1,60
477,156,22543,2,0,P|484:184|482:214,1,60,2|0,0:0|0:0,0:0:0:0:
403,105,22978,6,0,P|437:76|522:80,1,120,0|2,0:0|0:0,0:0:0:0:
477,156,23630,1,0,0:0:0:0:
329,54,23847,2,0,L|269:59,1,60
180,42,24282,2,0,B|174:69|174:69|185:99,1,60,2|0,0:0|0:0,0:0:0:0:
267,209,24717,6,0,B|272:181|272:181|261:151,1,60,4|0,3:0|0:0,0:0:0:0:
177,191,25152,2,0,L|117:185,1,60,2|0,0:0|0:0,0:0:0:0:
211,274,25587,2,0,P|264:295|331:266,1,120,4|2,3:0|0:0,0:0:0:0:
267,209,26239,1,0,0:0:0:0:
155,339,26456,6,0,L|35:328,1,120,4|2,3:0|0:0,0:0:0:0:
1,250,27108,1,0,0:0:0:0:
115,184,27326,2,0,L|174:189,1,60,4|0,3:0|0:0,0:0:0:0:
210,273,27760,2,0,L|270:279,1,60,2|0,0:0|0:0,0:0:0:0:
232,95,28195,6,0,P|187:130|178:202,1,120,4|2,3:0|0:0,0:0:0:0:
210,273,28847,1,0,0:0:0:0:
324,196,29065,2,0,L|265:202,1,60,4|0,3:0|0:0,0:0:0:0:
237,238,29391,1,0,0:0:0:0:
210,273,29500,1,4,3:0:0:0:
232,94,29717,1,8,3:0:0:0:
233,95,30152,6,0,L|169:100,2,60,0|2|0,0:0|0:0|0:0,0:0:0:0:
324,196,30804,2,0,L|265:202,1,60,0|0,1:0|1:0,0:0:0:0:
92,281,31239,1,8,3:0:0:0:
121,279,31347,1,0,0:0:0:0:
151,276,31456,1,4,3:0:0:0:
181,273,31565,1,0,0:0:0:0:
211,270,31674,6,0,L|258:274,1,45.0000017166138,4|0,0:0|0:0,0:0:0:0:
265,202,31891,2,0,L|312:197,1,45.0000017166138,0|0,1:0|0:0,0:0:0:0:
318,125,32108,2,0,L|363:129,1,45.0000017166138,2|0,0:0|0:0,0:0:0:0:
435,177,32326,2,0,P|448:119|438:89,1,90.0000034332277,0|0,1:0|0:0,0:0:0:0:
322,39,32760,2,0,P|309:97|319:127,1,90.0000034332277,0|2,1:0|0:0,0:0:0:0:
435,177,33195,6,0,P|511:165|465:246,1,180.000006866455,0|0,1:0|1:0,0:0:0:0:
410,265,33847,2,0,P|419:286|432:304,1,45.0000017166138,2|0,0:0|0:0,0:0:0:0:
435,177,34065,2,0,L|243:193,1,180.000006866455,0|0,1:0|1:0,0:0:0:0:
170,208,34717,2,0,P|174:160|193:140,1,45.0000017166138,2|0,0:0|0:0,0:0:0:0:
255,192,34934,2,0,P|250:239|232:260,1,45.0000017166138,0|0,1:0|0:0,0:0:0:0:
141,289,35152,6,0,P|110:207|177:215,1,180.000006866455,0|2,1:0|0:0,0:0:0:0:
222,318,35804,2,0,L|333:308,1,90.0000034332277,0|0,1:0|0:0,0:0:0:0:
297,231,36239,2,0,L|249:235,1,45.0000017166138,0|0,1:0|0:0,0:0:0:0:
321,151,36456,2,0,L|273:155,1,45.0000017166138,2|0,0:0|0:0,0:0:0:0:
378,211,36674,6,0,P|402:141|321:67,1,180.000006866455,0|0,1:0|1:0,0:0:0:0:
231,159,37326,2,0,L|321:151,1,90.0000034332277,0|0,1:0|0:0,0:0:0:0:
378,211,37652,1,0,0:0:0:0:
378,211,37760,2,0,L|468:219,1,90.0000034332277,0|4,1:0|3:0,0:0:0:0:
311,229,38195,1,0,1:0:0:0:
282,231,38303,1,0,0:0:0:0:
252,234,38412,1,4,3:0:0:0:
222,237,38521,1,0,0:0:0:0:
192,240,38630,6,0,L|145:244,1,45.0000017166138,4|0,0:0|0:0,0:0:0:0:
231,159,38847,2,0,L|184:163,1,45.0000017166138,0|0,1:0|0:0,0:0:0:0:
270,78,39065,2,0,L|223:82,1,45.0000017166138,2|0,0:0|0:0,0:0:0:0:
311,229,39282,2,0,P|264:289|190:229,1,180.000006866455,0|0,1:0|1:0,0:0:0:0:
231,159,39934,1,2,0:0:0:0:
270,78,40152,6,0,B|400:89|400:89|358:119,1,180.000006866455,0|0,1:0|1:0,0:0:0:0:
275,162,40804,2,0,L|230:158,1,45.0000017166138,2|0,0:0|0:0,0:0:0:0:
138,164,41021,2,0,P|113:237|191:240,1,180.000006866455,0|0,1:0|1:0,0:0:0:0:
134,119,41674,2,0,L|138:166,1,45.0000017166138,2|0,0:0|0:0,0:0:0:0:
191,239,41891,2,0,L|187:283,1,45.0000017166138,0|0,1:0|0:0,0:0:0:0:
240,359,42108,6,0,P|264:332|272:310,1,45.0000017166138,4|0,0:0|0:0,0:0:0:0:
354,313,42326,2,0,P|342:278|327:260,1,45.0000017166138,0|0,1:0|0:0,0:0:0:0:
371,191,42543,2,0,P|335:183|312:187,1,45.0000017166138,2|0,0:0|0:0,0:0:0:0:
191,239,42760,2,0,P|113:237|138:164,1,180.000006866455,0|0,1:0|1:0,0:0:0:0:
230,158,43413,1,4,3:0:0:0:
267,324,43630,5,4,0:0:0:0:
267,324,44065,5,0,1:0:0:0:
302,297,44282,5,0,1:0:0:0:
337,271,44500,5,0,1:0:0:0:
372,244,44717,5,0,1:0:0:0:
446,339,44934,5,8,3:0:0:0:
416,336,45042,1,0,0:0:0:0:
386,333,45151,1,0,1:0:0:0:
356,331,45260,1,0,0:0:0:0:
326,328,45368,1,8,3:0:0:0:
296,325,45477,1,0,0:0:0:0:
266,323,45587,6,0,L|218:327,1,35.9999989013672,4|0,3:0|0:0,0:0:0:0:
158,360,45804,2,0,P|156:300|227:246,1,143.999995605469,4|0,3:0|0:0,0:0:0:0:
311,198,46456,2,0,L|263:193,1,35.9999989013672,4|0,3:0|0:0,0:0:0:0:
163,172,46674,2,0,L|210:167,1,35.9999989013672,0|0,0:0|0:0,0:0:0:0:
294,119,46891,2,0,L|246:114,1,35.9999989013672,4|0,3:0|0:0,0:0:0:0:
146,93,47108,2,0,L|193:88,1,35.9999989013672,0|0,0:0|0:0,0:0:0:0:
277,40,47326,6,0,L|229:35,1,35.9999989013672,4|0,3:0|0:0,0:0:0:0:
127,175,47543,2,0,L|206:168,1,71.9999978027344,0|4,0:0|3:0,0:0:0:0:
258,115,47978,2,0,L|329:121,1,71.9999978027344,0|4,0:0|3:0,0:0:0:0:
398,161,48413,2,0,P|409:124|398:83,1,71.9999978027344,0|4,0:0|3:0,0:0:0:0:
329,200,48847,2,0,P|342:218|359:229,1,35.9999989013672,0|0,0:0|0:0,0:0:0:0:
469,154,49065,6,0,L|397:160,1,71.9999978027344,8|0,3:0|0:0,0:0:0:0:
329,121,49500,2,0,L|258:115,1,71.9999978027344,4|0,3:0|0:0,0:0:0:0:
198,168,49934,2,0,L|127:175,1,71.9999978027344,8|0,3:0|0:0,0:0:0:0:
57,212,50369,2,0,P|70:230|87:241,1,35.9999989013672,4|0,3:0|0:0,0:0:0:0:
84,106,50587,2,0,P|69:116|58:130,1,35.9999989013672,0|0,0:0|0:0,0:0:0:0:
126,175,50804,6,0,L|173:170,1,35.9999989013672,4|0,3:0|0:0,0:0:0:0:
193,244,51021,2,0,L|228:247,1,35.9999989013672,0|0,0:0|0:0,0:0:0:0:
257,322,51239,2,0,L|304:317,1,35.9999989013672,4|0,3:0|0:0,0:0:0:0:
450,266,51456,2,0,L|343:257,1,107.999996704102,4|0,3:0|0:0,0:0:0:0:
292,318,51891,6,0,L|257:322,1,35.9999989013672,8|0,3:0|0:0,0:0:0:0:
228,246,52108,6,0,P|305:198|343:257,1,180,4|0,0:0|0:0,0:0:0:0:
292,318,52543,6,0,P|315:333|333:337,1,35.9999989013672,4|0,3:0|0:0,0:0:0:0:
414,250,52760,2,0,L|342:256,1,71.9999978027344,0|0,0:0|1:0,0:0:0:0:
292,318,53195,2,0,L|257:322,1,35.9999989013672,0|0,0:0|0:0,0:0:0:0:
227,246,53413,2,0,L|192:250,1,35.9999989013672,4|0,3:0|0:0,0:0:0:0:
162,174,53630,2,0,L|90:180,1,71.9999978027344,0|0,0:0|1:0,0:0:0:0:
155,254,54065,2,0,L|190:250,1,35.9999989013672,0|0,0:0|0:0,0:0:0:0:
240,88,54282,6,0,L|168:94,1,71.9999978027344,4|0,3:0|0:0,0:0:0:0:
162,174,54717,2,0,L|197:170,1,35.9999989013672,0|0,1:0|0:0,0:0:0:0:
263,215,54934,2,0,P|269:231|270:260,1,35.9999989013672
155,254,55152,2,0,L|190:250,1,35.9999989013672,4|0,3:0|0:0,0:0:0:0:
238,353,55369,2,0,P|231:336|230:307,1,35.9999989013672
382,314,55587,2,0,L|310:320,1,71.9999978027344,0|0,1:0|0:0,0:0:0:0:
118,255,56021,6,0,L|190:249,1,71.9999978027344,4|0,3:0|0:0,0:0:0:0:
229,318,56456,2,0,L|157:324,1,71.9999978027344,0|0,1:0|0:0,0:0:0:0:
271,249,56891,2,0,L|318:244,1,35.9999989013672,4|0,3:0|0:0,0:0:0:0:
229,318,57108,2,0,L|193:321,1,35.9999989013672,8|0,3:0|0:0,0:0:0:0:
153,252,57326,2,0,L|189:249,1,35.9999989013672,4|0,3:0|0:0,0:0:0:0:
308,318,57543,6,0,P|376:269|363:199,1,143.999995605469,4|4,0:0|3:0,0:0:0:0:
300,174,58195,2,0,L|306:245,1,71.9999978027344,4|4,3:0|3:0,0:0:0:0:
370,129,58630,2,0,L|377:58,1,71.9999978027344,4|4,3:0|3:0,0:0:0:0:
227,135,59065,2,0,P|220:156|218:179,1,35.9999989013672,4|0,3:0|0:0,0:0:0:0:
297,91,59282,2,0,P|282:74|263:61,1,35.9999989013672,4|0,3:0|0:0,0:0:0:0:
303,209,59500,6,0,L|300:174,1,35.9999989013672,4|0,3:0|0:0,0:0:0:0:
306,244,59717,6,0,L|303:209,1,35.9999989013672,4|0,3:0|0:0,0:0:0:0:
309,280,59934,6,0,L|305:244,1,35.9999989013672,4|0,0:0|0:0,0:0:0:0:
312,315,60152,6,0,L|308:279,1,35.9999989013672,4|0,3:0|0:0,0:0:0:0:
208,209,60369,6,0,L|212:174,1,35.9999989013672,4|0,0:0|0:0,0:0:0:0:
306,244,60587,2,0,L|303:209,1,35.9999989013672,4|0,3:0|0:0,0:0:0:0:
200,315,60804,2,0,L|203:279,1,35.9999989013672,0|0,1:0|0:0,0:0:0:0:
315,350,61021,2,0,L|311:314,1,35.9999989013672,8|0,3:0|0:0,0:0:0:0:
208,209,61239,6,0,P|172:239|212:279,1,107.999996704102,4|0,0:0|0:0,0:0:0:0:
197,200,61674,6,0,P|163:239|192:286,1,107.999996704102,8|0,3:0|0:0,0:0:0:0:
179,193,62108,6,0,P|152:230|177:297,1,107.999996704102,4|0,3:0|0:0,0:0:0:0:
311,314,62543,1,8,3:0:0:0:
311,314,62760,6,0,L|462:300,1,143.999995605469,0|0,0:0|0:0,0:0:0:0:
486,228,63413,1,4,3:0:0:0:
454,154,63630,1,0,0:0:0:0:
375,146,63847,2,0,L|304:140,1,71.9999978027344,8|0,3:0|0:0,0:0:0:0:
258,205,64282,2,0,L|187:211,1,71.9999978027344,4|0,3:0|0:0,0:0:0:0:
108,227,64717,6,0,P|98:167|140:152,1,107.999996704102,8|0,3:0|0:0,0:0:0:0:
97,235,65152,6,0,P|77:189|112:138,1,107.999996704102,4|0,3:0|0:0,0:0:0:0:
86,243,65587,6,0,P|66:197|83:143,1,107.999996704102,8|0,3:0|0:0,0:0:0:0:
176,77,66021,1,4,3:0:0:0:
176,77,66239,6,0,L|247:71,1,71.9999978027344,0|8,0:0|3:0,0:0:0:0:
304,126,66674,2,0,L|375:132,1,71.9999978027344,0|4,0:0|3:0,0:0:0:0:
441,88,67108,1,0,0:0:0:0:
446,165,67326,2,0,P|402:206|366:206,1,71.9999978027344,8|0,3:0|0:0,0:0:0:0:
375,132,67760,1,4,3:0:0:0:
441,88,67978,1,0,0:0:0:0:
441,88,68087,1,0,0:0:0:0:
441,88,68195,6,0,L|512:94,1,71.9999978027344,4|0,0:0|0:0,0:0:0:0:
375,132,68630,1,8,3:0:0:0:
436,9,68847,2,0,L|365:15,1,71.9999978027344,4|0,0:0|0:0,0:0:0:0:
441,88,69282,1,0,0:0:0:0:
317,184,69500,1,8,3:0:0:0:
368,60,69717,6,0,L|374:131,1,71.9999978027344,4|0,0:0|0:0,0:0:0:0:
317,184,70152,2,0,L|311:255,1,71.9999978027344,0|8,0:0|3:0,0:0:0:0:
394,356,70587,2,0,P|397:320|383:288,1,71.9999978027344,4|0,0:0|0:0,0:0:0:0:
310,255,71021,1,0,0:0:0:0:
254,311,71239,2,0,L|183:317,1,71.9999978027344,8|0,3:0|0:0,0:0:0:0:
41,271,71674,6,0,L|112:277,1,71.9999978027344,4|0,3:0|0:0,0:0:0:0:
181,237,72108,2,0,P|192:203|186:168,1,71.9999978027344,8|0,3:0|0:0,0:0:0:0:
112,277,72543,2,0,P|100:310|106:345,1,71.9999978027344,4|0,3:0|0:0,0:0:0:0:
182,317,72978,1,4,3:0:0:0:
111,197,73195,6,0,L|40:191,1,71.9999978027344,4|0,0:0|0:0,0:0:0:0:
112,277,73630,1,0,0:0:0:0:
186,168,73847,1,8,3:0:0:0:
253,310,74065,2,0,L|182:316,1,71.9999978027344,0|4,0:0|3:0,0:0:0:0:
181,237,74500,5,4,3:0:0:0:
204,234,74608,1,0,0:0:0:0:
228,232,74717,1,0,1:0:0:0:
252,230,74826,1,0,0:0:0:0:
276,228,74934,1,4,3:0:0:0:
300,226,75043,1,0,0:0:0:0:
324,224,75152,6,0,L|379:228,1,35.9999989013672,0|0,1:0|0:0,0:0:0:0:
186,143,75369,2,0,L|151:147,1,35.9999989013672,0|0,1:0|0:0,0:0:0:0:
326,62,75587,2,0,L|361:65,1,35.9999989013672,0|0,1:0|0:0,0:0:0:0:
188,224,76021,6,0,L|132:228,1,35.9999989013672,0|0,1:0|0:0,0:0:0:0:
325,143,76239,2,0,L|361:147,1,35.9999989013672,0|0,1:0|0:0,0:0:0:0:
186,62,76456,2,0,L|150:65,1,35.9999989013672,0|0,1:0|0:0,0:0:0:0:
324,224,76891,6,0,L|379:228,1,35.9999989013672,0|0,1:0|0:0,0:0:0:0:
188,224,77108,2,0,L|132:228,1,35.9999989013672,4|0,3:0|0:0,0:0:0:0:
325,143,77326,6,0,L|361:147,1,35.9999989013672,0|0,1:0|0:0,0:0:0:0:
186,143,77543,2,0,L|151:147,1,35.9999989013672,4|0,3:0|0:0,0:0:0:0:
256,285,77760,5,0,1:0:0:0:
256,265,77978,1,4,3:0:0:0:
256,245,78195,1,2,0:0:0:0:
256,225,78413,1,4,3:0:0:0:
325,141,78630,6,0,L|380:145,1,53.9999983520508,4|0,0:0|0:0,0:0:0:0:
359,227,78847,2,0,L|412:231,1,53.9999983520508,0|0,1:0|0:0,0:0:0:0:
393,311,79065,2,0,L|446:315,1,53.9999983520508,2|0,0:0|0:0,0:0:0:0:
503,242,79282,2,0,P|464:182|412:231,1,161.999995056153,0|0,1:0|0:0,0:0:0:0:
393,311,79717,2,0,P|344:329|303:298,1,107.999996704102,0|0,1:0|0:0,0:0:0:0:
138,221,80152,6,0,P|117:311|208:298,1,215.999993408203,0|0,1:0|1:0,0:0:0:0:
255,216,80804,2,0,L|250:162,1,53.9999983520508,2|0,0:0|0:0,0:0:0:0:
193,32,81021,2,0,L|189:86,1,53.9999983520508,0|0,1:0|0:0,0:0:0:0:
250,162,81239,1,8,3:0:0:0:
289,134,81347,1,0,0:0:0:0:
329,106,81456,2,0,L|383:111,1,53.9999983520508,4|0,3:0|0:0,0:0:0:0:
329,217,81674,1,8,3:0:0:0:
250,162,81891,1,4,3:0:0:0:
196,166,81999,1,0,0:0:0:0:
142,171,82108,6,0,L|88:166,1,53.9999983520508,4|0,0:0|0:0,0:0:0:0:
174,252,82326,2,0,L|120:247,1,53.9999983520508,0|0,1:0|0:0,0:0:0:0:
206,333,82543,2,0,L|152:328,1,53.9999983520508,2|0,0:0|0:0,0:0:0:0:
261,265,82760,2,0,P|310:247|351:278,1,107.999996704102,0|0,1:0|0:0,0:0:0:0:
206,333,83195,2,0,L|152:328,1,53.9999983520508,0|0,1:0|0:0,0:0:0:0:
174,252,83413,2,0,L|120:247,1,53.9999983520508,2|0,0:0|0:0,0:0:0:0:
296,346,83630,2,0,P|247:364|206:333,1,107.999996704102,0|0,1:0|0:0,0:0:0:0:
261,265,84065,6,0,P|310:247|351:278,1,107.999996704102,0|2,1:0|0:0,0:0:0:0:
407,206,84500,2,0,P|366:172|373:121,1,107.999996704102,0|0,1:0|0:0,0:0:0:0:
463,134,84934,1,0,1:0:0:0:
351,278,85152,1,8,3:0:0:0:
306,271,85260,1,0,0:0:0:0:
261,265,85369,1,0,1:0:0:0:
217,258,85478,1,0,0:0:0:0:
174,252,85587,6,0,L|120:247,1,53.9999983520508,4|0,0:0|0:0,0:0:0:0:
142,171,85804,2,0,L|88:166,1,53.9999983520508,0|0,1:0|0:0,0:0:0:0:
110,90,86021,2,0,L|56:85,1,53.9999983520508,2|0,0:0|0:0,0:0:0:0:
196,102,86239,2,0,L|371:86,1,161.999995056153,0|0,1:0|0:0,0:0:0:0:
404,160,86674,2,0,L|515:169,1,107.999996704102,0|2,1:0|0:0,0:0:0:0:
351,278,87108,1,0,1:0:0:0:
306,271,87216,1,0,0:0:0:0:
261,265,87326,6,0,L|266:319,1,53.9999983520508,0|0,1:0|0:0,0:0:0:0:
171,252,87543,2,0,L|176:306,1,53.9999983520508,0|0,1:0|0:0,0:0:0:0:
81,239,87760,2,0,L|86:293,1,53.9999983520508,2|0,0:0|0:0,0:0:0:0:
137,167,87978,2,0,P|90:146|34:159,1,107.999996704102,0|0,1:0|0:0,0:0:0:0:
171,252,88413,2,0,P|212:221|229:166,1,107.999996704102,0|2,1:0|0:0,0:0:0:0:
180,35,88847,2,0,L|185:89,1,53.9999983520508,0|0,1:0|0:0,0:0:0:0:
224,223,89065,6,0,L|229:169,1,53.9999983520508,0|0,1:0|0:0,0:0:0:0:
314,210,89283,2,0,L|319:156,1,53.9999983520508,0|0,1:0|0:0,0:0:0:0:
404,197,89500,2,0,L|409:143,1,53.9999983520508,2|0,0:0|0:0,0:0:0:0:
494,184,89717,2,0,L|483:295,1,107.999996704102,0|2,1:0|0:0,0:0:0:0:
399,250,90152,2,0,L|404:196,1,53.9999983520508,0|0,1:0|0:0,0:0:0:0:
423,8,90369,2,0,L|418:62,1,53.9999983520508,2|0,0:0|0:0,0:0:0:0:
404,197,90587,1,4,0:0:0:0:
404,197,91021,5,0,1:0:0:0:
418,62,91239,1,2,0:0:0:0:
394,276,91456,1,0,1:0:0:0:
399,237,91565,1,0,0:0:0:0:
404,198,91674,1,0,0:0:0:0:
418,62,91891,5,4,3:0:0:0:
364,66,91999,1,0,0:0:0:0:
310,71,92108,1,0,1:0:0:0:
256,76,92217,1,0,0:0:0:0:
202,80,92325,1,4,3:0:0:0:
149,85,92434,1,0,0:0:0:0:
95,90,92543,6,0,P|95:124|80:155,1,69.0000013160706,4|0,0:0|0:0,0:0:0:0:
129,275,92978,2,0,P|99:258|80:229,1,69.0000013160706,4|0,3:0|0:0,0:0:0:0:
200,329,93413,2,0,L|263:334,1,34.5000006580353,2|0,0:0|0:0,0:0:0:0:
310,275,93630,2,0,L|344:271,1,34.5000006580353,0|0,0:0|0:0,0:0:0:0:
428,321,93847,2,0,L|462:324,1,34.5000006580353,4|0,3:0|0:0,0:0:0:0:
310,275,94065,6,0,P|308:205|369:149,1,138.000002632141,2|2,0:0|0:0,0:0:0:0:
393,237,94717,1,4,3:0:0:0:
243,101,94934,2,0,L|209:98,1,34.5000006580353,0|0,0:0|0:0,0:0:0:0:
145,130,95152,1,2,0:0:0:0:
316,153,95369,6,0,L|350:156,1,34.5000006580353,0|0,0:0|0:0,0:0:0:0:
451,101,95587,2,0,L|417:98,1,34.5000006580353,4|0,3:0|0:0,0:0:0:0:
316,42,95804,2,0,L|350:39,1,34.5000006580353,0|0,0:0|0:0,0:0:0:0:
316,153,96021,6,0,P|282:153|251:138,1,69.0000013160706,2|0,0:0|0:0,0:0:0:0:
202,80,96456,1,4,3:0:0:0:
398,224,96674,6,0,P|373:248|341:259,1,69.0000013160706,0|2,0:0|0:0,0:0:0:0:
265,252,97109,1,0,0:0:0:0:
504,215,97326,5,4,3:0:0:0:
265,252,97543,6,0,P|295:266|330:267,1,69.0000013160706,0|2,0:0|0:0,0:0:0:0:
398,224,97978,1,0,0:0:0:0:
132,224,98195,5,4,3:0:0:0:
345,297,98413,1,0,0:0:0:0:
302,77,98630,1,2,0:0:0:0:
302,77,98739,1,0,0:0:0:0:
302,77,98847,1,8,3:0:0:0:
187,297,99065,5,2,0:0:0:0:
221,300,99173,1,0,0:0:0:0:
255,303,99282,1,8,3:0:0:0:
290,306,99391,1,0,0:0:0:0:
324,309,99500,6,0,L|392:302,1,69.0000013160706,4|0,0:0|0:0,0:0:0:0:
241,370,99934,2,0,L|172:363,1,69.0000013160706,4|0,3:0|0:0,0:0:0:0:
96,256,100369,2,0,L|98:290,1,34.5000006580353,2|0,0:0|0:0,0:0:0:0:
160,160,100587,2,0,L|162:194,1,34.5000006580353,0|0,0:0|0:0,0:0:0:0:
224,64,100804,2,0,L|226:98,1,34.5000006580353,4|0,3:0|0:0,0:0:0:0:
162,194,101021,6,0,P|232:192|288:253,1,138.000002632141,2|2,0:0|0:0,0:0:0:0:
200,278,101674,1,4,3:0:0:0:
384,128,101891,2,0,L|418:125,1,34.5000006580353,0|0,0:0|0:0,0:0:0:0:
490,143,102108,1,2,0:0:0:0:
324,314,102326,5,0,0:0:0:0:
259,85,102543,1,4,3:0:0:0:
407,228,102760,1,0,0:0:0:0:
81,237,102978,6,0,P|132:280|199:277,1,138.000002632141,4|4,0:0|3:0,0:0:0:0:
430,239,103630,2,0,P|383:199|323:202,1,103.500001974106,0|0,0:0|0:0,0:0:0:0:
196,189,104065,6,0,P|173:194|132:189,1,34.5000006580353,0|0,0:0|0:0,0:0:0:0:
288,141,104282,2,0,P|295:119|320:86,1,34.5000006580353,4|0,3:0|0:0,0:0:0:0:
283,245,104500,6,0,P|294:256|305:283,1,35.1000011782837,4|0,0:0|0:0,0:0:0:0:
150,65,104934,6,0,L|186:68,1,35.9999989013672,8|0,3:0|0:0,0:0:0:0:
362,65,105152,2,0,L|326:68,1,35.9999989013672,4|0,3:0|0:0,0:0:0:0:
122,135,105369,6,0,L|169:138,1,35.9999989013672,8|0,3:0|0:0,0:0:0:0:
397,135,105587,2,0,L|351:138,1,35.9999989013672,4|0,3:0|0:0,0:0:0:0:
84,205,105804,6,0,L|145:210,1,35.9999989013672,8|0,3:0|0:0,0:0:0:0:
442,205,106022,2,0,L|381:210,1,35.9999989013672,4|0,3:0|0:0,0:0:0:0:
256,64,106239,6,0,B|272:100|256:140|256:140|240:180|256:224,1,143.999995605469,4|4,0:0|3:0,0:0:0:0:
312,288,106891,1,8,3:0:0:0:
209,300,107108,1,4,3:0:0:0:
271,384,107326,1,8,3:0:0:0:
250,204,107543,6,0,L|245:143,1,35.9999989013672,4|0,3:0|0:0,0:0:0:0:
287,82,107760,1,4,0:0:0:0:
480,192,108195,6,0,L|416:197,1,41.9999987182618,4|0,0:0|0:0,0:0:0:0:
368,227,108413,2,0,L|304:221,1,41.9999987182618,0|0,1:0|0:0,0:0:0:0:
250,204,108630,2,0,L|208:207,1,41.9999987182618,2|0,0:0|0:0,0:0:0:0:
132,209,108847,2,0,P|151:250|140:304,1,83.9999974365235,0|0,1:0|0:0,0:0:0:0:
0,245,109282,2,0,P|41:242|78:261,1,83.9999974365235,0|2,1:0|0:0,0:0:0:0:
205,343,109717,6,0,L|372:328,1,167.999994873047,0|0,1:0|1:0,0:0:0:0:
460,347,110369,2,0,P|449:372|418:396,1,41.9999987182618,2|0,0:0|0:0,0:0:0:0:
320,188,110587,2,0,P|399:204|431:278,1,167.999994873047,0|0,1:0|1:0,0:0:0:0:
256,160,111239,2,0,L|253:118,1,41.9999987182618,2|0,0:0|0:0,0:0:0:0:
320,188,111456,2,0,L|317:230,1,41.9999987182618,0|0,1:0|0:0,0:0:0:0:
176,328,111674,6,0,B|216:338|256:322|256:322|296:306|340:322,1,167.999994873047,0|2,1:0|0:0,0:0:0:0:
467,368,112326,2,0,P|464:327|483:290,1,83.9999974365235,0|0,1:0|0:0,0:0:0:0:
507,157,112760,2,0,L|465:160,1,41.9999987182618,0|0,1:0|0:0,0:0:0:0:
454,92,112978,2,0,L|412:95,1,41.9999987182618,2|0,0:0|0:0,0:0:0:0:
184,144,113195,6,0,L|351:159,1,167.999994873047,0|0,1:0|1:0,0:0:0:0:
259,257,113847,2,0,P|256:298|275:335,1,83.9999974365235,0|0,1:0|1:0,0:0:0:0:
349,281,114174,1,0,0:0:0:0:
349,281,114282,2,0,L|357:185,1,83.9999974365235,0|4,1:0|3:0,0:0:0:0:
336,128,114608,1,0,0:0:0:0:
306,131,114717,1,0,1:0:0:0:
277,133,114825,1,0,0:0:0:0:
247,136,114934,1,4,3:0:0:0:
217,139,115043,1,0,0:0:0:0:
104,164,115152,6,0,L|146:167,1,41.9999987182618,4|0,0:0|0:0,0:0:0:0:
226,243,115369,2,0,L|184:246,1,41.9999987182618,0|0,1:0|0:0,0:0:0:0:
104,322,115587,2,0,L|146:325,1,41.9999987182618,2|0,0:0|0:0,0:0:0:0:
160,97,115804,2,0,P|81:79|23:135,1,167.999994873047,0|0,1:0|1:0,0:0:0:0:
104,164,116456,1,2,0:0:0:0:
258,93,116674,6,0,B|298:82|338:98|338:98|378:114|422:98,1,167.999994873047,0|0,1:0|1:0,0:0:0:0:
498,31,117326,2,0,P|500:51|508:70,1,41.9999987182618,2|0,0:0|0:0,0:0:0:0:
422,98,117543,2,0,L|408:257,1,125.999996154785,0|0,1:0|0:0,0:0:0:0:
352,320,117978,2,0,L|349:278,1,41.9999987182618,8|0,3:0|0:0,0:0:0:0:
272,352,118195,2,0,L|269:310,1,41.9999987182618,0|0,1:0|0:0,0:0:0:0:
192,384,118413,2,0,L|189:342,1,41.9999987182618,8|0,3:0|0:0,0:0:0:0:
46,272,118630,6,0,P|78:287|142:272,1,77.9999964294435,4|0,0:0|1:0,0:0:0:0:
202,225,119065,1,2,0:0:0:0:
299,252,119282,2,0,L|458:238,1,155.999992858887,4|0,0:0|1:0,0:0:0:0:
507,151,119934,1,2,0:0:0:0:
454,238,120152,6,0,P|435:311|473:377,1,155.999992858887,4|0,0:0|1:0,0:0:0:0:
507,151,120804,2,0,L|498:55,1,77.9999964294435,2|0,0:0|1:0,0:0:0:0:
308,244,121239,6,0,P|318:263|333:278,1,38.9999982147218,8|0,3:0|0:0,0:0:0:0:
203,139,121456,2,0,P|193:120|178:105,1,38.9999982147218,0|0,1:0|0:0,0:0:0:0:
203,244,121674,6,0,P|184:254|169:269,1,38.9999982147218,8|0,3:0|0:0,0:0:0:0:
308,139,121891,2,0,P|327:129|342:114,1,38.9999982147218,0|0,1:0|0:0,0:0:0:0:
256,192,122108,5,4,0:0:0:0:
256,192,122217,12,0,127760,0:0:0:0:
