osu file format v14

[General]
AudioFilename: Christmas song.mp3
AudioLeadIn: 0
PreviewTime: 77869
Countdown: 0
SampleSet: Soft
StackLeniency: 0.5
Mode: 0
LetterboxInBreaks: 0
WidescreenStoryboard: 0

[Editor]
Bookmarks: 127760
DistanceSpacing: 1.7
BeatDivisor: 4
GridSize: 32
TimelineZoom: 1.7

[Metadata]
Title:Christmas no Uta
TitleUnicode:クリスマスのうた
Artist:Poppin'Party
ArtistUnicode:Poppin’Party
Creator:-Aqua
Version:Advanced
Source:バンドリ! ガールズバンドパーティ!
Tags:newqua StarrStyx newton- Kurisumasu BanG Dream! Bandori! Girls Band Party! ガルパ Garupa 8th single insert song Bandori project PoPiPa Girl Party Garupa! 戸山香澄 Toyama Kasumi 愛美 Aimi 山吹 沙綾 Yamabuki Saaya 大橋彩香 Ohashi Ayaka 牛込 りみ Ushigome Rimi 西本 りみ Nishimoto 花園 たえ Hanazono Tae 大塚紗英 Otsuka Sae 大塚紗英 Ichigaya Arisa 伊藤 彩沙 Itou Ayasa
BeatmapID:1484688
BeatmapSetID:700927

[Difficulty]
HPDrainRate:4.5
CircleSize:3.8
OverallDifficulty:5
ApproachRate:6
SliderMultiplier:0.9
SliderTickRate:1

[Events]
//Background and Video events
0,0,"Kasumeme and Friends.jpg",0,0
//Break Periods
//Storyboard Layer 0 (Background)
//Storyboard Layer 1 (Fail)
//Storyboard Layer 2 (Pass)
//Storyboard Layer 3 (Foreground)
//Storyboard Sound Samples

[TimingPoints]
17761,434.782608695652,4,2,1,50,1,0
31674,-100,4,2,1,60,0,0
44717,-100,4,2,1,50,0,0
78630,-100,4,2,1,70,0,1
85152,-100,4,2,1,70,0,0
85587,-100,4,2,1,70,0,1
92543,-100,4,2,1,60,0,0
108195,-100,4,2,1,55,0,0
118630,-100,4,2,1,50,0,0
126456,-100,4,2,1,40,0,0
126891,-100,4,2,1,30,0,0
127326,-100,4,2,1,20,0,0
127760,-100,4,2,1,30,0,0

[Colours]
Combo1 : 202,197,174
Combo2 : 209,78,78
Combo3 : 120,200,100
Combo4 : 213,209,89

[HitObjects]
64,288,17761,5,0,0:0:0:0:
121,338,17978,2,0,L|116:401,2,45,0|2|0,0:0|0:0|0:0,0:0:0:0:
192,308,18630,2,0,P|239:322|298:303,1,90,0|2,0:0|0:0,0:0:0:0:
345,279,19282,1,0,0:0:0:0:
314,208,19500,5,0,0:0:0:0:
350,140,19717,2,0,P|328:133|306:131,2,45,0|2|0,0:0|0:0|0:0,0:0:0:0:
426,149,20369,2,0,L|417:53,1,90,0|2,0:0|0:0,0:0:0:0:
354,15,21021,1,0,0:0:0:0:
291,60,21239,5,0,0:0:0:0:
214,55,21456,2,0,L|219:-8,2,45,0|2|0,0:0|0:0|0:0,0:0:0:0:
145,88,22108,2,0,L|153:177,1,90,0|2,0:0|0:0,0:0:0:0:
217,219,22761,1,0,0:0:0:0:
288,191,22978,5,0,0:0:0:0:
361,210,23195,2,0,P|383:217|405:219,2,45,0|2|0,0:0|0:0|0:0,0:0:0:0:
288,191,23847,2,0,P|266:184|244:182,2,45,0|0|2,0:0|0:0|0:0,0:0:0:0:
308,265,24500,1,0,0:0:0:0:
381,284,24717,6,0,L|425:287,1,45,4|0,3:0|0:0,0:0:0:0:
405,213,25152,2,0,L|361:210,1,45,2|0,0:0|0:0,0:0:0:0:
308,265,25587,2,0,P|305:287|298:308,2,45,4|0|2,3:0|0:0|0:0,0:0:0:0:
262,203,26239,1,0,0:0:0:0:
227,270,26456,6,0,L|175:275,1,45,4|0,3:0|0:0,0:0:0:0:
133,333,26891,2,0,L|81:327,1,45,2|0,0:0|0:0,0:0:0:0:
11,321,27326,2,0,P|13:343|20:364,2,45,4|0|2,3:0|0:0|0:0,0:0:0:0:
58,261,27978,1,0,0:0:0:0:
31,189,28195,6,0,P|53:187|74:180,1,45,4|0,3:0|0:0,0:0:0:0:
145,150,28630,2,0,P|167:152|188:159,1,45,2|0,0:0|0:0,0:0:0:0:
244,212,29065,1,4,3:0:0:0:
307,168,29282,2,0,L|305:136,2,22.5,0|0|4,0:0|0:0|3:0,0:0:0:0:
377,197,29717,1,8,3:0:0:0:
444,334,30152,6,0,L|449:386,2,45,0|2|0,0:0|0:0|0:0,0:0:0:0:
467,261,30804,1,0,1:0:0:0:
467,261,31021,1,0,1:0:0:0:
467,261,31239,1,8,3:0:0:0:
467,261,31456,1,8,3:0:0:0:
390,269,31674,6,0,P|368:267|347:260,2,45,4|0|2,0:0|1:0|0:0,0:0:0:0:
384,192,32326,2,0,L|376:103,1,90,0|0,1:0|1:0,0:0:0:0:
231,51,33195,6,0,P|187:58|144:44,1,90,0|0,1:0|1:0,0:0:0:0:
74,13,33847,1,2,0:0:0:0:
43,83,34065,2,0,L|35:172,1,90,0|0,1:0|1:0,0:0:0:0:
105,203,34717,2,0,L|109:158,1,45,2|0,0:0|1:0,0:0:0:0:
149,89,35152,6,0,L|144:44,2,45,0|0|2,1:0|1:0|0:0,0:0:0:0:
191,152,35804,2,0,L|280:160,1,90,0|0,1:0|1:0,0:0:0:0:
352,133,36456,1,2,0:0:0:0:
412,179,36674,6,0,P|414:201|421:222,1,45,0|0,1:0|0:0,0:0:0:0:
491,191,37108,1,0,1:0:0:0:
491,191,37326,1,0,1:0:0:0:
511,264,37543,2,0,P|484:300|445:320,1,90,0|4,1:0|3:0,0:0:0:0:
375,287,38195,2,0,L|330:292,1,45,0|4,1:0|3:0,0:0:0:0:
268,337,38630,6,0,L|273:382,2,45,4|0|2,0:0|1:0|0:0,0:0:0:0:
210,286,39282,2,0,P|167:272|123:279,1,90,0|0,1:0|1:0,0:0:0:0:
3,184,40152,6,0,L|92:176,1,90,0|0,1:0|1:0,0:0:0:0:
163,147,40804,1,2,0:0:0:0:
216,199,41021,2,0,P|202:241|209:285,1,90,0|0,1:0|1:0,0:0:0:0:
285,294,41674,2,0,L|280:249,1,45,2|0,0:0|1:0,0:0:0:0:
340,202,42108,6,0,L|345:157,2,45,4|0|2,0:0|1:0|0:0,0:0:0:0:
398,251,42760,2,0,L|406:340,1,90,0|0,1:0|1:0,0:0:0:0:
339,379,43413,1,4,3:0:0:0:
267,351,43630,6,0,P|224:336|180:344,1,90,4|0,0:0|1:0,0:0:0:0:
105,357,44282,2,0,L|60:352,1,45,0|0,1:0|1:0,0:0:0:0:
8,295,44717,1,0,1:0:0:0:
48,230,44934,1,8,3:0:0:0:
48,230,45152,2,0,P|38:210|23:193,1,45,0|8,1:0|3:0,0:0:0:0:
87,150,45587,6,0,P|108:157|130:159,1,45,4|0,3:0|0:0,0:0:0:0:
204,140,46021,2,0,L|249:145,1,45,4|0,3:0|0:0,0:0:0:0:
301,200,46456,2,0,L|346:195,2,45,4|0|4,3:0|0:0|3:0,0:0:0:0:
236,243,47108,1,0,0:0:0:0:
245,319,47326,5,4,3:0:0:0:
245,319,47543,2,0,P|288:334|332:326,1,90,0|0,0:0|0:0,0:0:0:0:
474,271,48413,2,0,L|469:316,2,45,0|4|0,0:0|3:0|0:0,0:0:0:0:
436,203,49065,6,0,B|428:186|436:162|436:162|444:138|436:114,2,90,8|4|8,3:0|3:0|3:0,0:0:0:0:
474,271,50152,2,0,P|452:278|430:279,2,45,0|4|0,0:0|3:0|0:0,0:0:0:0:
436,203,50804,6,0,L|391:208,1,45,4|0,3:0|0:0,0:0:0:0:
327,250,51239,1,4,3:0:0:0:
258,215,51456,2,0,P|272:173|265:129,1,90,4|8,3:0|3:0,0:0:0:0:
197,92,52108,2,0,L|199:60,2,22.5,4|0|8,0:0|0:0|3:0,0:0:0:0:
147,150,52543,5,4,3:0:0:0:
179,219,52760,2,0,L|174:264,1,45,0|0,0:0|1:0,0:0:0:0:
107,302,53195,1,0,0:0:0:0:
114,378,53413,2,0,P|91:376|71:369,2,45,4|0|0,3:0|0:0|1:0,0:0:0:0:
179,337,54065,1,0,0:0:0:0:
247,302,54282,6,0,L|336:294,1,90,4|4,3:0|3:0,0:0:0:0:
410,315,54934,2,0,P|384:351|343:370,1,90,0|4,1:0|3:0,0:0:0:0:
267,383,55587,2,0,L|222:378,1,45,0|0,1:0|0:0,0:0:0:0:
146,370,56021,5,4,3:0:0:0:
146,370,56239,1,0,0:0:0:0:
185,304,56456,2,0,L|193:215,2,90,0|4|4,1:0|3:0|3:0,0:0:0:0:
226,368,57543,6,0,P|270:376|312:362,1,90,4|4,0:0|3:0,0:0:0:0:
325,286,58195,2,0,L|370:281,1,45,4|4,3:0|3:0,0:0:0:0:
388,355,58630,2,0,L|433:360,1,45,4|4,3:0|3:0,0:0:0:0:
505,334,59065,1,4,3:0:0:0:
494,259,59282,6,0,P|486:215|500:173,1,90,4|4,3:0|3:0,0:0:0:0:
486,97,59934,2,0,L|397:89,1,90,4|4,0:0|0:0,0:0:0:0:
331,131,60587,1,4,3:0:0:0:
264,93,60804,1,0,1:0:0:0:
204,139,61021,1,8,3:0:0:0:
135,104,61239,6,0,P|91:112|48:97,2,90,4|8|4,0:0|3:0|3:0,0:0:0:0:
197,58,62326,1,0,0:0:0:0:
264,93,62543,1,8,3:0:0:0:
340,88,62760,6,0,L|429:80,1,90,4|8,3:0|3:0,0:0:0:0:
501,111,63413,2,0,P|494:133|493:155,1,45,4|0,3:0|0:0,0:0:0:0:
505,230,63847,2,0,L|500:275,2,45,8|0|4,3:0|0:0|3:0,0:0:0:0:
492,154,64500,1,0,0:0:0:0:
421,128,64717,6,0,L|413:39,2,90,8|4|8,3:0|3:0|3:0,0:0:0:0:
382,194,65804,1,0,0:0:0:0:
312,164,66021,1,4,3:0:0:0:
257,218,66239,6,0,P|214:203|171:211,2,90,8|4|8,3:0|3:0|3:0,0:0:0:0:
284,289,67326,2,0,L|329:284,2,45,8|0|4,3:0|0:0|3:0,0:0:0:0:
207,294,67978,1,0,0:0:0:0:
144,249,68195,6,0,L|55:241,1,90,4|8,0:0|3:0,0:0:0:0:
44,316,68847,2,0,L|133:324,1,90,4|0,0:0|0:0,0:0:0:0:
207,294,69500,1,8,3:0:0:0:
271,335,69717,6,0,B|288:343|312:335|312:335|336:327|360:335,2,90,4|0|4,0:0|0:0|0:0,0:0:0:0:
144,249,71021,2,0,L|139:204,2,45,0|8|0,0:0|3:0|0:0,0:0:0:0:
220,259,71674,2,0,P|261:244|305:251,1,90,4|8,3:0|3:0,0:0:0:0:
443,318,72543,2,0,L|448:363,2,45,4|0|4,3:0|0:0|3:0,0:0:0:0:
397,256,73195,6,0,P|382:214|389:170,1,90,4|0,0:0|0:0,0:0:0:0:
433,107,73847,1,8,3:0:0:0:
356,97,74065,2,0,L|267:89,1,90,0|4,0:0|3:0,0:0:0:0:
196,120,74717,2,0,L|151:125,1,45,0|4,1:0|3:0,0:0:0:0:
108,188,75152,6,0,L|63:183,2,45,0|0|0,1:0|1:0|1:0,0:0:0:0:
233,275,76021,2,0,L|278:270,2,45,0|0|0,1:0|1:0|1:0,0:0:0:0:
95,342,76891,6,0,L|50:337,1,45,0|4,1:0|3:0,0:0:0:0:
21,265,77326,2,0,L|66:260,1,45,0|4,1:0|3:0,0:0:0:0:
139,278,77760,1,0,1:0:0:0:
171,347,77978,1,0,1:0:0:0:
171,347,78195,2,0,L|173:369,2,22.5,2|0|4,0:0|0:0|3:0,0:0:0:0:
215,284,78630,6,0,P|236:291|258:293,2,45,4|0|2,0:0|1:0|0:0,0:0:0:0:
178,216,79282,2,0,L|89:224,2,90,0|0|0,1:0|1:0|1:0,0:0:0:0:
211,147,80369,6,0,P|252:161|296:155,1,90,0|2,1:0|0:0,0:0:0:0:
342,92,81021,2,0,P|381:75|428:84,1,90,0|4,1:0|3:0,0:0:0:0:
390,151,81674,2,0,L|388:173,2,22.5,8|0|4,3:0|0:0|3:0,0:0:0:0:
461,176,82108,6,0,L|469:265,1,90,4|2,0:0|0:0,0:0:0:0:
403,304,82760,2,0,P|359:297|317:312,1,90,0|0,1:0|1:0,0:0:0:0:
250,350,83413,1,2,0:0:0:0:
181,316,83630,1,0,1:0:0:0:
105,326,83847,5,0,0:0:0:0:
43,280,84065,2,0,L|35:191,2,90,0|0|0,1:0|1:0|1:0,0:0:0:0:
114,251,85152,2,0,L|116:229,2,22.5,8|0|0,3:0|0:0|1:0,0:0:0:0:
190,258,85587,6,0,L|235:253,2,45,4|0|2,0:0|1:0|0:0,0:0:0:0:
184,181,86239,2,0,P|225:166|269:172,2,90,0|0|0,1:0|1:0|1:0,0:0:0:0:
232,240,87326,2,0,L|321:248,1,90,0|2,1:0|0:0,0:0:0:0:
372,305,87978,2,0,L|461:297,1,90,0|0,1:0|1:0,0:0:0:0:
510,238,88630,1,2,0:0:0:0:
455,184,88847,6,0,P|456:161|463:140,2,45,0|0|0,1:0|1:0|1:0,0:0:0:0:
510,238,89500,1,2,0:0:0:0:
461,296,89717,2,0,P|416:289|374:304,2,90,0|0|4,1:0|1:0|0:0,0:0:0:0:
319,353,91021,6,0,L|274:348,1,45,0|2,1:0|0:0,0:0:0:0:
221,294,91456,2,0,L|176:299,1,45,0|0,1:0|0:0,0:0:0:0:
101,279,91891,1,4,3:0:0:0:
101,279,92108,1,0,1:0:0:0:
101,279,92326,1,4,3:0:0:0:
141,214,92543,6,0,P|186:221|228:206,1,90,4|4,0:0|3:0,0:0:0:0:
277,148,93195,1,0,0:0:0:0:
343,186,93413,2,0,L|348:231,2,45,2|0|4,0:0|0:0|3:0,0:0:0:0:
370,115,94065,6,0,L|378:26,1,90,2|2,0:0|0:0,0:0:0:0:
305,1,94717,1,4,3:0:0:0:
242,45,94934,1,0,0:0:0:0:
166,31,95152,1,2,0:0:0:0:
102,73,95369,2,0,L|57:68,1,45,0|4,0:0|3:0,0:0:0:0:
53,144,95804,6,0,P|95:158|139:151,1,90,2|2,0:0|0:0,0:0:0:0:
207,115,96456,1,4,3:0:0:0:
280,136,96674,2,0,L|369:144,1,90,2|2,0:0|0:0,0:0:0:0:
444,160,97326,1,4,3:0:0:0:
394,218,97543,6,0,L|305:226,1,90,2|2,0:0|0:0,0:0:0:0:
232,198,98195,1,4,3:0:0:0:
161,228,98413,2,0,P|116:220|74:234,1,90,2|8,0:0|3:0,0:0:0:0:
100,305,99065,2,0,L|122:303,2,22.5,2|0|8,0:0|0:0|3:0,0:0:0:0:
129,375,99500,6,0,L|218:383,1,90,4|4,0:0|3:0,0:0:0:0:
276,332,100152,1,0,0:0:0:0:
351,324,100369,2,0,P|349:346|342:367,2,45,2|0|4,0:0|0:0|3:0,0:0:0:0:
306,261,101021,6,0,P|292:218|300:174,1,90,2|2,0:0|0:0,0:0:0:0:
343,111,101674,1,4,3:0:0:0:
266,103,101891,1,0,0:0:0:0:
208,52,102108,1,2,0:0:0:0:
136,80,102326,2,0,L|131:35,2,45,0|4|0,0:0|3:0|0:0,0:0:0:0:
184,139,102978,6,0,L|176:228,1,90,4|4,0:0|3:0,0:0:0:0:
167,304,103630,2,0,P|187:313|204:328,1,45,0|2,0:0|0:0,0:0:0:0:
147,380,104065,1,0,0:0:0:0:
147,380,104282,1,4,3:0:0:0:
92,325,104500,6,0,L|84:236,1,90,4|8,0:0|3:0,0:0:0:0:
93,159,105152,2,0,P|115:157|136:149,1,45,4|8,3:0|3:0,0:0:0:0:
196,100,105587,2,0,P|218:101|239:109,1,45,4|8,3:0|3:0,0:0:0:0:
310,136,106021,1,4,3:0:0:0:
376,98,106239,6,0,P|385:140|369:184,1,90,4|4,0:0|3:0,0:0:0:0:
329,248,106891,2,0,L|334:293,2,45,8|4|8,3:0|3:0|3:0,0:0:0:0:
268,202,107543,1,4,3:0:0:0:
268,202,107760,1,4,0:0:0:0:
128,265,108195,6,0,L|83:270,2,45,4|0|2,0:0|1:0|0:0,0:0:0:0:
189,311,108847,2,0,P|233:317|275:304,1,90,0|0,1:0|1:0,0:0:0:0:
429,295,109717,6,0,L|421:206,1,90,0|0,1:0|1:0,0:0:0:0:
466,143,110369,1,2,0:0:0:0:
407,95,110587,2,0,P|364:81|320:88,1,90,0|0,1:0|1:0,0:0:0:0:
256,131,111239,2,0,L|211:136,1,45,2|0,0:0|1:0,0:0:0:0:
145,95,111674,6,0,L|100:90,2,45,0|0|2,1:0|1:0|0:0,0:0:0:0:
211,135,112326,2,0,P|197:177|204:221,1,90,0|0,1:0|1:0,0:0:0:0:
254,279,112978,1,2,0:0:0:0:
327,259,113195,6,0,P|349:260|370:268,1,45,0|0,1:0|0:0,0:0:0:0:
426,320,113630,1,0,1:0:0:0:
426,320,113847,1,0,1:0:0:0:
490,279,114065,2,0,L|482:190,1,90,0|4,1:0|3:0,0:0:0:0:
409,165,114717,2,0,L|404:210,1,45,0|4,1:0|3:0,0:0:0:0:
337,247,115152,6,0,L|342:292,2,45,4|0|2,0:0|1:0|0:0,0:0:0:0:
271,207,115804,2,0,P|228:193|184:200,1,90,0|0,1:0|1:0,0:0:0:0:
43,139,116674,6,0,P|87:145|129:132,1,90,0|0,1:0|1:0,0:0:0:0:
184,78,117326,1,2,0:0:0:0:
256,100,117543,2,0,L|301:95,1,45,0|0,1:0|0:0,0:0:0:0:
373,70,117978,1,8,3:0:0:0:
373,70,118195,1,0,1:0:0:0:
373,70,118413,1,8,3:0:0:0:
412,135,118630,6,0,L|404:224,1,90,4|2,0:0|0:0,0:0:0:0:
352,281,119282,2,0,P|331:272|308:271,1,45,4|0,0:0|0:0,0:0:0:0:
242,309,119717,2,0,L|197:304,1,45,0|2,1:0|0:0,0:0:0:0:
123,283,120152,6,0,P|129:239|116:197,1,90,4|0,0:0|1:0,0:0:0:0:
79,128,120804,2,0,L|124:123,1,45,2|0,0:0|1:0,0:0:0:0:
197,142,121239,2,0,P|219:140|239:131,1,45,8|0,3:0|1:0,0:0:0:0:
312,106,121674,2,0,P|334:107|354:116,1,45,8|0,3:0|1:0,0:0:0:0:
411,167,122108,5,4,0:0:0:0:
256,192,122326,12,0,127760,0:0:0:0:
