osu file format v14

[General]
AudioFilename: Christmas song.mp3
AudioLeadIn: 0
PreviewTime: 77869
Countdown: 0
SampleSet: Soft
StackLeniency: 0.4
Mode: 0
LetterboxInBreaks: 0
WidescreenStoryboard: 1

[Editor]
Bookmarks: 122108,127760
DistanceSpacing: 1.1
BeatDivisor: 4
GridSize: 32
TimelineZoom: 8

[Metadata]
Title:Christmas no Uta
TitleUnicode:クリスマスのうた
Artist:Poppin'Party
ArtistUnicode:Poppin’Party
Creator:-Aqua
Version:StarR's Snowy Carols
Source:バンドリ! ガールズバンドパーティ!
Tags:newqua StarrStyx newton- Kurisumasu BanG Dream! Bandori! Girls Band Party! ガルパ Garupa 8th single insert song Bandori project PoPiPa Girl Party Garupa! 戸山香澄 Toyama Kasumi 愛美 Aimi 山吹 沙綾 Yamabuki Saaya 大橋彩香 Ohashi Ayaka 牛込 りみ Ushigome Rimi 西本 りみ Nishimoto 花園 たえ Hanazono Tae 大塚紗英 Otsuka Sae 大塚紗英 Ichigaya Arisa 伊藤 彩沙 Itou Ayasa
BeatmapID:1491819
BeatmapSetID:700927

[Difficulty]
HPDrainRate:6.5
CircleSize:4
OverallDifficulty:8.3
ApproachRate:9.3
SliderMultiplier:1.76
SliderTickRate:1

[Events]
//Background and Video events
0,0,"Kasumeme and Friends.jpg",0,0
//Break Periods
//Storyboard Layer 0 (Background)
//Storyboard Layer 1 (Fail)
//Storyboard Layer 2 (Pass)
//Storyboard Layer 3 (Foreground)
//Storyboard Sound Samples

[TimingPoints]
17761,434.782608695652,4,2,1,60,1,0
17761,-83.3333333333333,4,2,1,60,0,0
30152,-71.4285714285714,4,2,1,60,0,0
31674,-57.1428571428571,4,2,1,70,0,0
45587,-71.4285714285714,4,2,1,60,0,0
57543,-71.4285714285714,4,2,1,70,0,0
59500,-62.5,4,2,1,80,0,0
61239,-71.4285714285714,4,2,1,55,0,0
68195,-71.4285714285714,4,2,1,60,0,0
71674,-71.4285714285714,4,2,1,70,0,0
75152,-52.6315789473684,4,2,1,85,0,0
75587,-100,4,2,1,85,0,0
76021,-52.6315789473684,4,2,1,85,0,0
76456,-100,4,2,1,85,0,0
76891,-52.6315789473684,4,2,1,85,0,0
78195,-66.6666666666667,4,2,1,85,0,0
78521,-66.6666666666667,4,2,1,5,0,0
78630,-57.1428571428571,4,2,1,75,0,1
92543,-62.5,4,2,1,75,0,1
105369,-57.1428571428571,4,2,1,75,0,1
105804,-52.6315789473684,4,2,1,75,0,1
106239,-57.1428571428571,4,2,1,75,0,1
106674,-52.6315789473684,4,2,1,75,0,1
107760,-100,4,2,1,75,0,1
108195,-57.1428571428571,4,2,1,70,0,0
118630,-62.5,4,2,1,60,0,0
120152,-76.9230769230769,4,2,1,50,0,0
122108,-181.818181818182,4,2,1,40,0,0
125587,-181.818181818182,4,2,1,30,0,0
127760,-181.818181818182,4,2,1,20,0,0

[Colours]
Combo1 : 202,197,174
Combo2 : 209,78,78
Combo3 : 120,200,100
Combo4 : 213,209,89

[HitObjects]
401,70,17761,6,0,B|426:117|426:117|407:181,1,105.599996777344,0|0,0:0|0:0,0:0:0:0:
310,128,18195,2,0,L|191:108,1,105.599996777344,2|0,0:0|0:0,0:0:0:0:
128,200,18630,2,0,L|7:209,2,105.599996777344,0|0|2,0:0|0:0|0:0,0:0:0:0:
209,281,19282,1,0,0:0:0:0:
128,200,19500,6,0,P|108:152|128:88,1,105.599996777344
321,30,19934,2,0,P|331:80|311:128,1,105.599996777344,2|0,0:0|0:0,0:0:0:0:
404,231,20369,1,0,0:0:0:0:
404,231,20587,1,0,0:0:0:0:
311,128,20804,1,2,0:0:0:0:
311,128,21021,1,0,0:0:0:0:
247,224,21239,6,0,L|257:340,1,105.599996777344,0|0,0:0|0:0,0:0:0:0:
404,231,21674,2,0,L|413:125,1,105.599996777344,2|0,0:0|0:0,0:0:0:0:
245,72,22108,2,0,P|297:41|362:58,2,105.599996777344,0|0|2,0:0|0:0|0:0,0:0:0:0:
128,22,22761,1,0,0:0:0:0:
162,138,22978,6,0,L|46:115,1,105.599996777344,0|0,0:0|0:0,0:0:0:0:
0,265,23413,2,0,L|117:252,1,105.599996777344,2|0,0:0|0:0,0:0:0:0:
196,349,23847,2,0,P|220:295|211:242,1,105.599996777344,0|0,0:0|0:0,0:0:0:0:
292,93,24282,2,0,P|287:144|310:191,1,105.599996777344,2|0,0:0|0:0,0:0:0:0:
421,273,24717,5,4,3:0:0:0:
421,273,24934,1,0,0:0:0:0:
421,273,25152,1,2,0:0:0:0:
421,273,25369,1,0,0:0:0:0:
310,191,25587,5,4,3:0:0:0:
408,154,25804,1,0,0:0:0:0:
326,86,26021,1,2,0:0:0:0:
228,123,26238,1,0,0:0:0:0:
130,86,26456,5,4,3:0:0:0:
130,86,26674,1,0,0:0:0:0:
130,86,26891,1,2,0:0:0:0:
130,86,27108,1,0,0:0:0:0:
37,187,27326,5,4,3:0:0:0:
140,168,27543,1,0,0:0:0:0:
235,211,27760,1,2,0:0:0:0:
288,300,27978,1,0,0:0:0:0:
428,193,28195,5,4,3:0:0:0:
428,193,28413,1,0,0:0:0:0:
428,193,28630,1,2,0:0:0:0:
428,193,28847,1,0,0:0:0:0:
256,94,29065,5,4,3:0:0:0:
327,212,29282,2,0,L|336:173,3,35.1999989257813,0|0|0|4,0:0|0:0|0:0|3:0,0:0:0:0:
256,317,29717,1,8,3:0:0:0:
256,317,30152,6,0,L|319:306,1,61.5999981201172,0|0,0:0|0:0,0:0:0:0:
408,229,30369,2,0,L|345:218,1,61.5999981201172,2|0,0:0|0:0,0:0:0:0:
277,161,30587,2,0,P|292:139|297:101,1,61.5999981201172
394,9,30804,2,0,P|397:39|412:65,1,61.5999981201172,0|0,1:0|0:0,0:0:0:0:
297,105,31021,2,0,P|268:92|238:92,1,61.5999981201172,0|0,1:0|0:0,0:0:0:0:
118,80,31239,2,0,L|128:39,4,41.0666654134115,8|0|0|8|0,3:0|0:0|0:0|3:0|0:0,0:0:0:0:
64,143,31674,6,0,P|99:160|143:159,1,77.0000007343292,4|0,0:0|0:0,0:0:0:0:
275,59,31891,2,0,P|236:59|202:76,1,77.0000007343292,0|0,1:0|0:0,0:0:0:0:
357,151,32108,2,0,P|389:131|411:99,1,77.0000007343292,2|0,0:0|0:0,0:0:0:0:
275,59,32326,2,0,P|238:121|263:206,1,154.000001468658,0|0,1:0|0:0,0:0:0:0:
462,286,32760,6,0,L|473:206,1,77.0000007343292,0|0,1:0|0:0,0:0:0:0:
338,138,32978,2,0,L|341:214,1,77.0000007343292,2|0,0:0|0:0,0:0:0:0:
498,70,33195,2,0,L|342:49,1,154.000001468658,0|0,1:0|0:0,0:0:0:0:
72,152,33630,6,0,P|60:119|69:63,1,77.0000007343292,0|0,1:0|0:0,0:0:0:0:
218,148,33847,2,0,P|221:186|208:222,1,77.0000007343292,2|0,0:0|0:0,0:0:0:0:
34,343,34065,2,0,P|99:301|182:325,1,154.000001468658,0|0,1:0|0:0,0:0:0:0:
464,226,34500,6,0,P|465:262|445:310,1,77.0000007343292,0|0,1:0|0:0,0:0:0:0:
316,219,34717,1,2,0:0:0:0:
316,219,34826,1,0,0:0:0:0:
316,219,34934,2,0,P|302:183|303:144,1,77.0000007343292,0|0,1:0|0:0,0:0:0:0:
432,1,35152,6,0,P|470:65|439:156,1,154.000001468658,0|0,1:0|0:0,0:0:0:0:
291,55,35478,1,0,0:0:0:0:
291,55,35587,2,0,P|331:59|372:86,1,77.0000007343292,2|0,0:0|0:0,0:0:0:0:
277,172,35804,2,0,B|223:179|223:179|196:198|196:198|125:208,1,154.000001468658,0|0,1:0|0:0,0:0:0:0:
64,79,36130,1,0,0:0:0:0:
64,79,36239,2,0,P|104:87|136:115,1,77.0000007343292,0|0,1:0|0:0,0:0:0:0:
221,270,36456,2,0,P|194:300|153:314,1,77.0000007343292,2|0,0:0|0:0,0:0:0:0:
11,242,36674,1,0,1:0:0:0:
11,242,36891,5,0,0:0:0:0:
11,242,37000,1,0,0:0:0:0:
11,242,37108,2,0,L|96:256,1,77.0000007343292,0|0,1:0|0:0,0:0:0:0:
227,127,37326,2,0,L|142:141,1,77.0000007343292,0|0,1:0|0:0,0:0:0:0:
359,159,37543,5,0,0:0:0:0:
359,159,37652,1,0,0:0:0:0:
359,159,37760,2,0,P|375:123|377:79,1,77.0000007343292,0|0,1:0|0:0,0:0:0:0:
209,246,37978,2,0,P|212:284|227:319,1,77.0000007343292,4|0,3:0|0:0,0:0:0:0:
415,365,38195,5,0,1:0:0:0:
475,304,38304,1,0,0:0:0:0:
459,219,38413,1,4,3:0:0:0:
380,183,38521,1,0,0:0:0:0:
305,227,38630,6,0,L|222:211,1,77.0000007343292,4|0,0:0|0:0,0:0:0:0:
63,306,38847,2,0,L|147:297,1,77.0000007343292,0|0,1:0|0:0,0:0:0:0:
320,154,39065,2,0,P|321:192|301:230,1,77.0000007343292,2|0,0:0|0:0,0:0:0:0:
139,297,39282,2,0,P|110:220|146:151,1,154.000001468658,0|0,1:0|0:0,0:0:0:0:
377,46,39717,6,0,L|461:60,1,77.0000007343292,0|0,1:0|0:0,0:0:0:0:
320,154,39934,2,0,L|235:160,1,77.0000007343292,2|0,0:0|0:0,0:0:0:0:
406,278,40152,2,0,B|440:203|440:203|415:126,1,154.000001468658,0|0,1:0|0:0,0:0:0:0:
184,52,40587,6,0,P|166:87|169:138,1,77.0000007343292,0|0,1:0|0:0,0:0:0:0:
300,252,40804,2,0,P|298:213|281:179,1,77.0000007343292,2|0,0:0|0:0,0:0:0:0:
44,159,41021,2,0,P|104:199|194:199,1,154.000001468658,0|0,1:0|0:0,0:0:0:0:
427,51,41456,6,0,P|389:56|356:76,1,77.0000007343292,0|0,1:0|0:0,0:0:0:0:
255,98,41674,2,0,P|272:60|271:12,1,77.0000007343292,2|0,0:0|0:0,0:0:0:0:
160,81,41891,2,0,P|160:119|175:154,1,77.0000007343292,0|0,1:0|0:0,0:0:0:0:
380,269,42108,6,0,L|397:187,1,77.0000007343292,4|0,0:0|0:0,0:0:0:0:
172,331,42326,2,0,L|155:249,1,77.0000007343292,0|0,1:0|0:0,0:0:0:0:
300,182,42543,2,0,L|317:100,1,77.0000007343292,2|0,0:0|0:0,0:0:0:0:
66,158,42760,1,0,1:0:0:0:
66,158,42869,1,0,0:0:0:0:
66,158,42978,6,0,B|98:140|98:140|142:142,1,77.0000007343292,8|0,3:0|0:0,0:0:0:0:
287,287,43195,2,0,B|251:268|251:268|232:236,1,77.0000007343292,0|0,1:0|0:0,0:0:0:0:
399,94,43413,2,0,B|398:130|398:130|376:164,1,77.0000007343292,4|0,3:0|0:0,0:0:0:0:
232,236,43630,5,4,0:0:0:0:
232,236,44065,2,0,L|322:249,1,77.0000007343292,0|0,1:0|0:0,0:0:0:0:
171,129,44282,2,0,L|261:116,1,77.0000007343292,0|0,1:0|0:0,0:0:0:0:
119,300,44500,2,0,L|205:328,1,77.0000007343292,0|0,1:0|0:0,0:0:0:0:
16,193,44717,1,0,1:0:0:0:
16,193,44934,5,8,3:0:0:0:
16,193,45043,1,0,0:0:0:0:
16,193,45152,1,0,1:0:0:0:
96,216,45260,1,0,0:0:0:0:
168,175,45369,1,8,3:0:0:0:
222,110,45478,1,0,0:0:0:0:
306,116,45587,6,0,P|318:145|318:176,1,61.5999981201172,4|0,3:0|0:0,0:0:0:0:
361,268,45804,2,0,P|387:252|405:227,1,61.5999981201172
228,174,46021,2,0,P|231:204|246:231,1,61.5999981201172,4|0,3:0|0:0,0:0:0:0:
387,144,46239,2,0,P|362:125|333:116,1,61.5999981201172,0|0,0:0|0:0,0:0:0:0:
240,79,46456,6,0,L|259:8,1,61.5999981201172,4|0,3:0|0:0,0:0:0:0:
143,50,46674,2,0,L|153:110,1,61.5999981201172,0|0,0:0|0:0,0:0:0:0:
89,165,46891,2,0,L|18:146,1,61.5999981201172,4|0,3:0|0:0,0:0:0:0:
174,238,47108,2,0,L|245:219,1,61.5999981201172,0|0,0:0|0:0,0:0:0:0:
335,283,47326,6,0,L|347:220,1,61.5999981201172,4|0,3:0|0:0,0:0:0:0:
233,222,47543,2,0,B|174:238|174:238|111:213,1,123.199996240234,0|4,0:0|3:0,0:0:0:0:
262,109,47978,2,0,B|321:93|321:93|384:118,1,123.199996240234,0|4,0:0|3:0,0:0:0:0:
469,184,48304,1,0,0:0:0:0:
469,184,48413,2,0,P|485:161|492:115,1,61.5999981201172,0|0,0:0|0:0,0:0:0:0:
316,168,48630,2,0,P|336:190|364:204,1,61.5999981201172,4|0,3:0|0:0,0:0:0:0:
491,276,48847,2,0,P|460:273|431:283,1,61.5999981201172,0|0,0:0|0:0,0:0:0:0:
332,350,49065,6,0,L|203:329,1,123.199996240234,8|0,3:0|0:0,0:0:0:0:
210,330,49391,1,0,0:0:0:0:
89,240,49500,6,0,P|145:213|218:238,1,123.199996240234,4|0,3:0|0:0,0:0:0:0:
202,226,49826,1,0,0:0:0:0:
391,165,49934,6,0,B|345:127|345:127|278:134,1,123.199996240234,8|0,3:0|0:0,0:0:0:0:
281,133,50260,1,0,0:0:0:0:
196,48,50369,6,0,L|185:113,1,61.5999981201172,4|0,3:0|0:0,0:0:0:0:
97,188,50587,2,0,L|86:127,1,61.5999981201172,0|0,0:0|0:0,0:0:0:0:
203,227,50804,6,0,P|230:243|266:243,1,61.5999981201172,4|0,3:0|0:0,0:0:0:0:
391,165,51021,2,0,P|359:164|328:182,1,61.5999981201172,0|0,0:0|0:0,0:0:0:0:
242,301,51239,2,0,P|258:273|258:238,1,61.5999981201172,4|0,3:0|0:0,0:0:0:0:
213,110,51456,2,0,P|197:137|166:155,1,61.5999981201172,4|0,3:0|0:0,0:0:0:0:
48,104,51674,6,0,L|125:96,1,61.5999981201172,0|0,0:0|0:0,0:0:0:0:
256,40,51891,2,0,L|179:25,1,61.5999981201172,8|0,3:0|0:0,0:0:0:0:
282,144,52108,1,4,0:0:0:0:
305,137,52217,1,0,0:0:0:0:
365,81,52326,1,8,3:0:0:0:
388,88,52435,1,0,0:0:0:0:
464,148,52543,6,0,P|481:117|483:84,1,61.5999981201172,4|0,3:0|0:0,0:0:0:0:
377,164,52760,2,0,P|381:194|396:220,1,61.5999981201172,0|0,0:0|0:0,0:0:0:0:
500,240,52978,2,0,L|487:300,1,61.5999981201172,0|0,1:0|0:0,0:0:0:0:
396,361,53195,2,0,L|383:300,1,61.5999981201172,0|0,0:0|0:0,0:0:0:0:
312,254,53413,6,0,P|282:255|255:242,1,61.5999981201172,4|0,3:0|0:0,0:0:0:0:
191,160,53630,2,0,P|175:186|172:216,1,61.5999981201172,0|0,0:0|0:0,0:0:0:0:
272,129,53847,2,0,P|272:98|258:71,1,61.5999981201172,0|0,1:0|0:0,0:0:0:0:
177,24,54065,2,0,L|103:30,1,61.5999981201172,0|0,0:0|0:0,0:0:0:0:
27,153,54282,2,0,L|9:30,1,123.199996240234,4|0,3:0|0:0,0:0:0:0:
185,156,54717,6,0,L|172:216,1,61.5999981201172,0|0,1:0|0:0,0:0:0:0:
78,333,54934,2,0,P|129:303|196:321,1,123.199996240234,0|4,0:0|3:0,0:0:0:0:
384,367,55369,6,0,L|371:306,1,61.5999981201172,0|0,0:0|0:0,0:0:0:0:
471,177,55587,2,0,B|487:224|487:224|461:292,1,123.199996240234,0|0,1:0|0:0,0:0:0:0:
351,169,55913,1,0,0:0:0:0:
351,169,56021,6,0,P|337:142|336:103,1,61.5999981201172,4|0,3:0|0:0,0:0:0:0:
445,27,56239,2,0,P|442:57|428:84,1,61.5999981201172,0|0,0:0|0:0,0:0:0:0:
244,65,56456,2,0,P|260:39|293:19,1,61.5999981201172,0|0,1:0|0:0,0:0:0:0:
170,142,56674,2,0,P|139:139|112:125,1,61.5999981201172,0|0,0:0|0:0,0:0:0:0:
17,262,56891,5,4,3:0:0:0:
86,237,57000,1,0,0:0:0:0:
156,256,57108,1,8,3:0:0:0:
216,298,57217,1,0,0:0:0:0:
288,297,57326,2,0,L|301:232,1,61.5999981201172,4|0,3:0|0:0,0:0:0:0:
425,146,57543,5,4,0:0:0:0:
425,146,57978,1,4,3:0:0:0:
425,146,58195,6,0,L|435:228,1,61.5999981201172,4|0,3:0|0:0,0:0:0:0:
223,60,58413,2,0,L|213:142,1,61.5999981201172,4|0,3:0|0:0,0:0:0:0:
359,31,58630,6,0,L|369:113,1,61.5999981201172,4|0,3:0|0:0,0:0:0:0:
158,212,58848,2,0,L|148:294,1,61.5999981201172,4|0,3:0|0:0,0:0:0:0:
336,225,59065,6,0,L|346:307,1,61.5999981201172,4|0,3:0|0:0,0:0:0:0:
91,127,59282,2,0,L|81:209,1,61.5999981201172,4|0,3:0|0:0,0:0:0:0:
228,366,59500,5,4,3:0:0:0:
228,366,59717,2,0,P|243:336|242:287,1,70.4,4|0,3:0|0:0,0:0:0:0:
49,258,59934,2,0,P|50:292|66:324,1,70.4,4|0,0:0|0:0,0:0:0:0:
180,189,60152,1,4,3:0:0:0:
180,189,60260,1,0,0:0:0:0:
180,189,60369,2,0,L|105:173,1,70.4,4|0,0:0|0:0,0:0:0:0:
47,51,60587,5,4,3:0:0:0:
47,51,60695,1,0,0:0:0:0:
47,51,60804,2,0,P|87:70|132:69,1,70.4,0|0,1:0|0:0,0:0:0:0:
216,122,61021,2,0,P|256:103|301:104,1,70.4,8|0,3:0|0:0,0:0:0:0:
447,26,61239,6,0,L|431:170,1,123.199996240234,4|0,0:0|0:0,0:0:0:0:
281,101,61674,2,0,L|294:223,1,123.199996240234,8|0,3:0|0:0,0:0:0:0:
433,148,62108,2,0,L|411:346,1,184.799994360352,4|0,3:0|0:0,0:0:0:0:
412,331,62543,1,8,3:0:0:0:
294,223,62760,1,0,0:0:0:0:
294,223,62978,6,0,B|214:241|214:241|154:223,1,123.199996240234,8|0,3:0|0:0,0:0:0:0:
31,167,63413,2,0,L|40:305,1,123.199996240234,4|0,3:0|0:0,0:0:0:0:
174,229,63847,2,0,P|203:169|191:104,1,123.199996240234,8|0,3:0|0:0,0:0:0:0:
73,14,64282,1,4,3:0:0:0:
204,122,64500,1,0,0:0:0:0:
204,122,64608,1,0,0:0:0:0:
204,122,64717,6,0,L|336:101,1,123.199996240234,8|0,3:0|0:0,0:0:0:0:
133,255,65152,2,0,L|265:276,1,123.199996240234,4|0,3:0|0:0,0:0:0:0:
49,193,65587,2,0,B|81:142|81:142|204:121,1,184.799994360352,8|0,3:0|0:0,0:0:0:0:
204,120,66021,1,4,3:0:0:0:
133,255,66239,1,0,0:0:0:0:
133,255,66456,6,0,L|144:384,1,123.199996240234,8|0,3:0|0:0,0:0:0:0:
307,349,66891,2,0,P|340:298|334:230,1,123.199996240234,4|0,3:0|0:0,0:0:0:0:
194,112,67326,1,8,3:0:0:0:
337,237,67543,1,0,0:0:0:0:
133,255,67760,1,4,3:0:0:0:
194,112,67978,5,0,0:0:0:0:
194,112,68087,1,0,0:0:0:0:
194,112,68195,2,0,L|269:123,1,61.5999981201172,4|0,0:0|0:0,0:0:0:0:
303,47,68413,2,0,L|363:38,1,61.5999981201172,0|0,0:0|0:0,0:0:0:0:
430,110,68630,1,8,3:0:0:0:
241,234,68847,6,0,P|228:175|254:120,1,123.199996240234,4|0,0:0|0:0,0:0:0:0:
395,147,69282,1,0,0:0:0:0:
395,147,69500,1,8,3:0:0:0:
241,234,69717,6,0,L|31:200,1,184.799994360352,4|0,0:0|0:0,0:0:0:0:
58,204,70152,1,0,0:0:0:0:
140,130,70369,1,8,3:0:0:0:
272,333,70587,6,0,B|332:368|332:368|451:347,1,184.799994360352,4|0,0:0|0:0,0:0:0:0:
445,347,71021,1,0,0:0:0:0:
329,220,71239,1,8,3:0:0:0:
457,126,71456,1,0,0:0:0:0:
457,126,71565,1,0,0:0:0:0:
457,126,71674,6,0,L|439:259,1,123.199996240234,4|0,3:0|0:0,0:0:0:0:
178,99,72108,2,0,L|196:232,1,123.199996240234,8|0,3:0|0:0,0:0:0:0:
344,22,72543,2,0,L|326:155,1,123.199996240234,4|0,3:0|0:0,0:0:0:0:
89,288,72978,1,4,3:0:0:0:
89,288,73195,2,0,B|72:155|72:155|113:190,1,184.799994360352,4|0,0:0|0:0,0:0:0:0:
110,187,73630,1,0,0:0:0:0:
159,321,73847,6,0,L|37:338,1,123.199996240234,8|0,3:0|0:0,0:0:0:0:
227,232,74282,2,0,L|349:249,1,123.199996240234,4|4,3:0|3:0,0:0:0:0:
451,329,74608,1,0,0:0:0:0:
451,329,74717,2,0,L|469:268,1,61.5999981201172,0|0,1:0|0:0,0:0:0:0:
404,133,74934,2,0,L|416:193,1,61.5999981201172,4|0,3:0|0:0,0:0:0:0:
494,61,75152,6,0,P|454:40|380:47,1,83.5999977676392,0|0,1:0|0:0,0:0:0:0:
296,89,75369,2,0,P|256:110|182:103,1,83.5999977676392,0|0,1:0|0:0,0:0:0:0:
140,37,75587,6,0,L|5:47,1,132,0|0,1:0|0:0,0:0:0:0:
165,121,76021,6,0,B|185:157|185:157|173:210,1,83.5999977676392,0|0,1:0|0:0,0:0:0:0:
1,232,76239,2,0,B|-8:191|-8:191|12:155,1,83.5999977676392,0|0,1:0|0:0,0:0:0:0:
96,227,76456,6,0,L|81:359,1,132,0|0,1:0|0:0,0:0:0:0:
232,258,76891,6,0,P|254:223|261:182,1,83.5999977676392,0|0,1:0|0:0,0:0:0:0:
170,33,77108,2,0,P|197:64|235:80,1,83.5999977676392,4|0,3:0|0:0,0:0:0:0:
434,40,77326,5,0,1:0:0:0:
425,81,77434,1,0,0:0:0:0:
329,129,77543,1,4,3:0:0:0:
338,170,77651,1,0,0:0:0:0:
431,241,77760,1,0,1:0:0:0:
276,322,77978,5,4,3:0:0:0:
276,322,78087,1,0,0:0:0:0:
276,322,78195,2,0,B|386:286|367:382|481:335,1,198.000007553101,2|0,0:0|0:0,0:0:0:0:
431,241,78630,6,0,P|416:210|424:154,1,77.0000007343292,4|0,0:0|0:0,0:0:0:0:
374,33,78847,2,0,P|357:67|326:89,1,77.0000007343292,0|0,1:0|0:0,0:0:0:0:
155,63,79065,2,0,P|186:41|224:38,1,77.0000007343292,2|0,0:0|0:0,0:0:0:0:
158,178,79282,2,0,L|1:147,1,154.000001468658,0|0,1:0|0:0,0:0:0:0:
75,262,79608,1,0,0:0:0:0:
75,262,79717,2,0,P|104:286|146:295,1,77.0000007343292,0|0,1:0|0:0,0:0:0:0:
264,356,79934,2,0,P|239:326|230:284,1,77.0000007343292,2|0,0:0|0:0,0:0:0:0:
342,156,80152,2,0,P|333:193|308:222,1,77.0000007343292,0|0,1:0|0:0,0:0:0:0:
265,58,80369,6,0,L|246:138,1,77.0000007343292,2|0,0:0|0:0,0:0:0:0:
142,208,80587,2,0,L|130:131,1,77.0000007343292,0|0,1:0|0:0,0:0:0:0:
265,58,80804,2,0,P|299:77|348:78,1,77.0000007343292,2|0,0:0|0:0,0:0:0:0:
499,118,81021,2,0,P|460:121|427:140,1,77.0000007343292,0|0,1:0|0:0,0:0:0:0:
361,259,81239,1,8,3:0:0:0:
361,259,81347,1,0,0:0:0:0:
361,259,81456,2,0,L|447:282,1,77.0000007343292,4|0,3:0|0:0,0:0:0:0:
269,343,81674,1,8,3:0:0:0:
269,343,81782,1,0,0:0:0:0:
269,343,81891,2,0,L|183:320,1,77.0000007343292,4|0,3:0|0:0,0:0:0:0:
121,178,82108,6,0,L|131:254,1,77.0000007343292,4|0,0:0|0:0,0:0:0:0:
10,310,82326,2,0,L|20:234,1,77.0000007343292,0|0,1:0|0:0,0:0:0:0:
112,106,82543,2,0,P|128:142|118:182,1,77.0000007343292,2|0,0:0|0:0,0:0:0:0:
176,283,82760,2,0,B|238:274|238:274|271:281|271:281|336:272,1,154.000001468658,0|0,1:0|0:0,0:0:0:0:
425,349,83087,1,0,0:0:0:0:
425,349,83195,2,0,P|445:316|447:272,1,77.0000007343292,0|0,1:0|0:0,0:0:0:0:
320,199,83413,2,0,P|300:166|298:122,1,77.0000007343292,2|0,0:0|0:0,0:0:0:0:
473,14,83630,2,0,P|469:52|449:84,1,77.0000007343292,0|0,1:0|0:0,0:0:0:0:
296,128,83847,5,0,0:0:0:0:
296,128,83956,1,0,0:0:0:0:
296,128,84065,2,0,L|190:107,1,77.0000007343292,0|0,1:0|0:0,0:0:0:0:
97,22,84282,2,0,P|126:56|131:96,1,77.0000007343292,2|0,0:0|0:0,0:0:0:0:
1,204,84500,1,0,1:0:0:0:
1,204,84608,1,0,0:0:0:0:
1,204,84717,2,0,P|0:165|17:132,1,77.0000007343292
148,254,84934,2,0,L|132:339,1,77.0000007343292,0|0,1:0|0:0,0:0:0:0:
287,246,85152,5,8,3:0:0:0:
249,177,85260,1,0,0:0:0:0:
264,103,85369,1,0,1:0:0:0:
327,59,85478,1,0,0:0:0:0:
402,72,85587,6,0,P|438:87|481:84,1,77.0000007343292,4|0,0:0|0:0,0:0:0:0:
317,146,85804,2,0,P|279:154|249:178,1,77.0000007343292,0|0,1:0|0:0,0:0:0:0:
395,249,86021,2,0,L|477:236,1,77.0000007343292,2|0,0:0|0:0,0:0:0:0:
320,351,86239,2,0,L|166:328,1,154.000001468658,0|0,1:0|0:0,0:0:0:0:
56,249,86565,1,0,0:0:0:0:
56,249,86674,2,0,P|74:280|71:336,1,77.0000007343292,0|0,1:0|0:0,0:0:0:0:
170,212,86891,2,0,P|195:186|250:174,1,77.0000007343292,2|0,0:0|0:0,0:0:0:0:
96,134,87108,2,0,P|64:116|39:66,1,77.0000007343292,0|0,1:0|0:0,0:0:0:0:
147,25,87326,6,0,L|225:39,1,77.0000007343292,0|0,1:0|0:0,0:0:0:0:
280,131,87543,2,0,L|356:118,1,77.0000007343292,0|0,1:0|0:0,0:0:0:0:
497,63,87760,2,0,P|465:41|428:37,1,77.0000007343292,2|0,0:0|0:0,0:0:0:0:
279,131,87978,2,0,P|260:203|302:265,1,154.000001468658,0|0,1:0|0:0,0:0:0:0:
453,224,88304,1,0,0:0:0:0:
453,224,88413,2,0,B|421:205|421:205|372:210,1,77.0000007343292,0|0,1:0|0:0,0:0:0:0:
262,358,88630,2,0,B|294:339|294:339|314:294,1,77.0000007343292,2|0,0:0|0:0,0:0:0:0:
223,184,88847,1,0,1:0:0:0:
223,184,88956,1,0,0:0:0:0:
223,184,89065,6,0,B|136:167,1,77.0000007343292,0|0,1:0|0:0,0:0:0:0:
59,89,89282,2,0,B|65:177,1,77.0000007343292,0|0,1:0|0:0,0:0:0:0:
6,270,89500,2,0,B|81:255,1,77.0000007343292,2|0,0:0|0:0,0:0:0:0:
209,320,89717,2,0,P|246:254|219:180,1,154.000001468658,0|0,1:0|0:0,0:0:0:0:
222,183,90152,5,0,1:0:0:0:
296,205,90260,1,0,0:0:0:0:
367,174,90369,1,2,0:0:0:0:
400,104,90478,1,0,0:0:0:0:
380,30,90587,1,4,0:0:0:0:
380,30,91021,6,0,L|470:21,1,77.0000007343292,0|0,1:0|0:0,0:0:0:0:
290,121,91239,2,0,L|200:112,1,77.0000007343292,2|0,0:0|0:0,0:0:0:0:
96,14,91456,1,0,1:0:0:0:
96,14,91565,1,0,0:0:0:0:
96,14,91674,2,0,P|107:49|85:101,1,77.0000007343292,0|0,0:0|0:0,0:0:0:0:
6,238,91891,5,4,3:0:0:0:
81,224,91999,1,0,0:0:0:0:
145,266,92108,1,0,1:0:0:0:
202,317,92217,1,0,0:0:0:0:
277,329,92325,1,4,3:0:0:0:
342,287,92434,1,0,0:0:0:0:
380,219,92543,6,0,P|385:185|373:144,1,70.4,4|0,0:0|0:0,0:0:0:0:
424,163,92760,2,0,P|411:131|380:101,1,70.4,0|0,0:0|0:0,0:0:0:0:
227,29,92978,2,0,P|213:60|214:103,1,70.4,4|0,3:0|0:0,0:0:0:0:
170,70,93195,2,0,P|173:103|195:140,1,70.4,0|0,0:0|0:0,0:0:0:0:
357,255,93413,6,0,L|446:245,1,70.4,2|0,0:0|0:0,0:0:0:0:
269,355,93630,2,0,L|180:345,1,70.4,0|0,0:0|0:0,0:0:0:0:
48,235,93847,2,0,L|137:225,1,70.4,4|0,3:0|0:0,0:0:0:0:
276,122,94065,5,2,0:0:0:0:
276,122,94174,1,0,0:0:0:0:
276,122,94282,2,0,P|274:159|253:195,1,70.4,0|0,0:0|0:0,0:0:0:0:
315,189,94500,2,0,P|294:220|258:240,1,70.4,2|0,0:0|0:0,0:0:0:0:
107,150,94717,2,0,P|90:116|90:75,1,70.4,4|0,3:0|0:0,0:0:0:0:
39,110,94935,2,0,P|41:73|62:37,1,70.4,0|0,0:0|0:0,0:0:0:0:
240,100,95152,6,0,L|315:93,1,70.4,2|0,0:0|0:0,0:0:0:0:
398,156,95369,2,0,P|416:123|413:74,1,70.4,0|0,0:0|0:0,0:0:0:0:
254,186,95587,2,0,P|256:220|273:251,1,70.4,4|0,3:0|0:0,0:0:0:0:
415,358,95804,6,0,P|350:321|278:339,1,140.8,0|2,0:0|0:0,0:0:0:0:
201,281,96130,1,0,0:0:0:0:
201,281,96239,2,0,P|163:277|118:291,1,70.4,0|0,0:0|0:0,0:0:0:0:
11,286,96456,2,0,P|36:313|48:365,1,70.4,4|0,3:0|0:0,0:0:0:0:
91,208,96674,2,0,P|120:144|101:73,1,140.8,0|2,0:0|0:0,0:0:0:0:
204,188,97000,1,0,0:0:0:0:
204,188,97108,2,0,P|232:211|272:216,1,70.4,0|0,0:0|0:0,0:0:0:0:
365,287,97326,2,0,P|398:274|423:242,1,70.4,4|0,3:0|0:0,0:0:0:0:
477,100,97543,6,0,L|339:77,1,140.8,0|2,0:0|0:0,0:0:0:0:
230,68,97869,1,0,0:0:0:0:
230,68,97978,2,0,P|232:106|256:147,1,70.4,0|0,0:0|0:0,0:0:0:0:
420,247,98195,2,0,P|391:221|345:209,1,70.4,4|0,3:0|0:0,0:0:0:0:
226,304,98413,2,0,L|85:315,1,140.8,0|2,0:0|0:0,0:0:0:0:
173,191,98739,1,0,0:0:0:0:
173,191,98847,2,0,P|170:227|141:269,1,70.4,8|0,3:0|0:0,0:0:0:0:
52,186,99065,5,2,0:0:0:0:
24,120,99174,1,0,0:0:0:0:
61,58,99282,1,8,3:0:0:0:
133,52,99391,1,0,0:0:0:0:
191,93,99500,6,0,P|229:103|269:96,1,70.4,4|0,0:0|0:0,0:0:0:0:
250,149,99717,2,0,P|283:129|307:95,1,70.4,0|0,0:0|0:0,0:0:0:0:
500,31,99934,2,0,P|472:58|458:97,1,70.4,4|0,3:0|0:0,0:0:0:0:
422,54,100151,2,0,P|422:93|439:130,1,70.4,0|0,0:0|0:0,0:0:0:0:
511,254,100369,6,0,P|481:241|441:239,1,70.4,2|0,0:0|0:0,0:0:0:0:
302,105,100587,2,0,P|322:130|334:168,1,70.4,0|0,0:0|0:0,0:0:0:0:
175,259,100804,2,0,P|167:224|172:190,1,70.4,4|0,3:0|0:0,0:0:0:0:
328,242,101021,6,0,L|307:389,1,140.8,2|0,0:0|0:0,0:0:0:0:
192,299,101347,1,0,0:0:0:0:
192,299,101456,2,0,P|224:286|252:247,1,70.4,2|0,0:0|0:0,0:0:0:0:
318,141,101674,2,0,P|322:175|352:212,1,70.4,4|0,3:0|0:0,0:0:0:0:
450,272,101891,2,0,P|476:249|489:216,1,70.4,0|0,0:0|0:0,0:0:0:0:
462,75,102108,6,0,L|393:58,1,70.4,2|0,0:0|0:0,0:0:0:0:
257,111,102326,2,0,P|287:135|331:139,1,70.4,0|0,0:0|0:0,0:0:0:0:
202,19,102543,2,0,P|171:41|155:83,1,70.4,4|0,3:0|0:0,0:0:0:0:
60,146,102760,2,0,P|49:112|25:88,1,70.4,0|0,0:0|0:0,0:0:0:0:
125,242,102978,6,0,P|88:297|108:378,1,140.8,4|0,0:0|0:0,0:0:0:0:
240,308,103304,1,0,0:0:0:0:
240,308,103413,2,0,L|171:317,1,70.4,4|0,3:0|0:0,0:0:0:0:
316,238,103630,2,0,P|342:258|387:261,1,70.4,0|0,0:0|0:0,0:0:0:0:
494,179,103847,2,0,P|459:174|427:187,1,70.4,2|0,0:0|0:0,0:0:0:0:
478,331,104065,2,0,L|470:262,1,70.4,0|0,0:0|0:0,0:0:0:0:
324,168,104282,2,0,L|315:237,1,70.4,4|0,3:0|0:0,0:0:0:0:
190,365,104500,5,4,0:0:0:0:
190,365,104934,6,0,P|222:343|237:306,1,70.4,8|0,3:0|0:0,0:0:0:0:
323,335,105152,2,0,P|287:318|266:285,1,70.4,4|0,3:0|0:0,0:0:0:0:
145,270,105369,6,0,P|183:263|221:222,1,77.0000007343292,8|0,3:0|0:0,0:0:0:0:
359,233,105587,2,0,P|320:236|274:207,1,77.0000007343292,4|0,3:0|0:0,0:0:0:0:
94,146,105804,6,0,P|130:158|185:140,1,83.5999977676392,8|0,3:0|0:0,0:0:0:0:
386,118,106021,2,0,P|354:140|296:136,1,83.5999977676392,4|0,3:0|0:0,0:0:0:0:
233,9,106239,6,0,L|211:246,1,231.000002202988,4|0,0:0|0:0,0:0:0:0:
141,308,106674,6,0,L|145:349,1,41.7999988838196,4|0,3:0|0:0,0:0:0:0:
291,237,106891,2,0,L|286:278,1,41.7999988838196,8|0,3:0|0:0,0:0:0:0:
163,163,107108,2,0,L|170:204,1,41.7999988838196,4|0,3:0|0:0,0:0:0:0:
263,76,107326,2,0,L|255:117,1,41.7999988838196,8|0,3:0|0:0,0:0:0:0:
396,273,107543,5,4,3:0:0:0:
396,273,107652,1,0,0:0:0:0:
396,273,107760,2,0,P|428:222|409:152,1,132,4|0,0:0|0:0,0:0:0:0:
488,88,108195,6,0,P|463:67|404:57,1,77.0000007343292,4|0,0:0|0:0,0:0:0:0:
233,199,108413,2,0,P|271:200|306:185,1,77.0000007343292,0|0,1:0|0:0,0:0:0:0:
187,45,108630,2,0,P|148:43|113:58,1,77.0000007343292,2|0,0:0|0:0,0:0:0:0:
6,26,108847,2,0,L|20:180,1,154.000001468658,0|0,1:0|0:0,0:0:0:0:
233,199,109282,6,0,P|251:232|246:285,1,77.0000007343292,0|0,1:0|0:0,0:0:0:0:
116,369,109500,2,0,P|116:330|134:297,1,77.0000007343292,2|0,0:0|0:0,0:0:0:0:
211,356,109717,2,0,P|285:357|339:304,1,154.000001468658,0|0,1:0|0:0,0:0:0:0:
218,159,110152,6,0,L|142:146,1,77.0000007343292,0|0,1:0|0:0,0:0:0:0:
292,64,110369,2,0,L|367:51,1,77.0000007343292,2|0,0:0|0:0,0:0:0:0:
497,94,110587,2,0,B|460:149|460:149|488:237,1,154.000001468658,0|0,1:0|0:0,0:0:0:0:
288,373,111021,6,0,B|304:335|304:335|289:293,1,77.0000007343292,0|0,1:0|0:0,0:0:0:0:
161,227,111239,1,2,0:0:0:0:
161,227,111347,1,0,0:0:0:0:
161,227,111456,2,0,L|150:318,1,77.0000007343292,0|0,1:0|0:0,0:0:0:0:
32,179,111674,6,0,P|109:191|173:137,1,154.000001468658,0|0,1:0|0:0,0:0:0:0:
61,40,112000,1,0,0:0:0:0:
61,40,112108,2,0,P|63:77|87:108,1,77.0000007343292,2|0,0:0|0:0,0:0:0:0:
241,215,112326,2,0,L|257:44,1,154.000001468658,0|0,1:0|0:0,0:0:0:0:
374,138,112652,1,0,0:0:0:0:
374,138,112760,2,0,P|344:168|330:223,1,77.0000007343292,0|0,1:0|0:0,0:0:0:0:
241,215,112978,2,0,P|241:257|270:306,1,77.0000007343292,2|0,0:0|0:0,0:0:0:0:
413,354,113195,2,0,P|448:288|427:216,1,154.000001468658,0|0,1:0|0:0,0:0:0:0:
339,278,113521,1,0,0:0:0:0:
339,278,113630,6,0,P|300:280|266:264,1,77.0000007343292,0|0,1:0|0:0,0:0:0:0:
207,172,113848,2,0,P|172:156|134:158,1,77.0000007343292,0|0,1:0|0:0,0:0:0:0:
32,237,114065,5,0,1:0:0:0:
32,237,114174,1,0,0:0:0:0:
32,237,114282,2,0,L|43:330,1,77.0000007343292,0|0,1:0|0:0,0:0:0:0:
207,172,114500,2,0,L|196:265,1,77.0000007343292,4|0,3:0|0:0,0:0:0:0:
346,305,114717,5,0,1:0:0:0:
418,260,114826,1,0,0:0:0:0:
437,177,114934,1,4,3:0:0:0:
391,104,115043,1,0,0:0:0:0:
306,84,115152,6,0,P|271:100|226:97,1,77.0000007343292,4|0,0:0|0:0,0:0:0:0:
77,39,115369,2,0,P|110:56|131:88,1,77.0000007343292,0|0,1:0|0:0,0:0:0:0:
22,210,115587,2,0,P|21:172|38:138,1,77.0000007343292,2|0,0:0|0:0,0:0:0:0:
147,220,115804,2,0,L|123:377,1,154.000001468658,0|0,1:0|0:0,0:0:0:0:
327,333,116239,6,0,P|361:316|400:315,1,77.0000007343292,0|0,1:0|0:0,0:0:0:0:
512,261,116456,2,0,P|475:250|447:223,1,77.0000007343292,2|0,0:0|0:0,0:0:0:0:
338,120,116674,2,0,P|413:130|473:80,1,154.000001468658,0|0,1:0|0:0,0:0:0:0:
253,31,117108,6,0,P|228:62|219:120,1,77.0000007343292,0|0,1:0|0:0,0:0:0:0:
144,152,117326,2,0,P|116:125|80:112,1,77.0000007343292,2|0,0:0|0:0,0:0:0:0:
2,276,117543,2,0,L|167:260,1,154.000001468658,0|0,1:0|0:0,0:0:0:0:
416,349,117978,5,8,3:0:0:0:
416,349,118087,1,0,0:0:0:0:
416,349,118195,2,0,P|397:312|407:268,1,77.0000007343292,0|0,1:0|0:0,0:0:0:0:
494,148,118413,2,0,P|487:185|461:212,1,77.0000007343292,8|0,3:0|0:0,0:0:0:0:
338,153,118630,6,0,L|408:145,1,70.4,4|0,0:0|0:0,0:0:0:0:
306,64,118847,2,0,L|236:55,1,70.4,0|0,1:0|0:0,0:0:0:0:
186,128,119065,2,0,L|117:137,1,70.4,2|0,0:0|0:0,0:0:0:0:
83,57,119282,2,0,P|34:113|41:178,1,140.8,4|0,0:0|0:0,0:0:0:0:
271,252,119717,2,0,L|289:113,1,140.8,0|2,1:0|0:0,0:0:0:0:
116,137,120152,6,0,L|125:365,1,228.799989526368,4|0,0:0|1:0,0:0:0:0:
271,252,120804,2,0,P|326:228|392:245,1,114.399994763184,2|0,0:0|1:0,0:0:0:0:
459,157,121239,5,8,3:0:0:0:
426,123,121347,1,0,0:0:0:0:
382,110,121456,1,0,1:0:0:0:
338,120,121565,1,0,0:0:0:0:
309,155,121674,1,8,3:0:0:0:
274,185,121782,1,0,0:0:0:0:
230,195,121891,1,0,1:0:0:0:
187,182,122000,1,0,0:0:0:0:
156,145,122108,6,0,B|101:110|149:37|149:37|224:95|188:133|188:133|219:74|304:97|304:97|272:186|224:164|224:164|289:176|293:263|293:263|198:260|205:208|205:208|212:273|130:304|130:304|103:213|155:203|155:203|93:230|38:162|38:162|110:111|157:164,1,1258.40003840332,4|0,0:0|0:0,0:0:0:0:
