osu file format v14

[General]
AudioFilename: Christmas song.mp3
AudioLeadIn: 0
PreviewTime: 77869
Countdown: 0
SampleSet: Soft
StackLeniency: 0.7
Mode: 0
LetterboxInBreaks: 0
WidescreenStoryboard: 0

[Editor]
Bookmarks: 127760
DistanceSpacing: 1.1
BeatDivisor: 2
GridSize: 8
TimelineZoom: 1.7

[Metadata]
Title:Christmas no Uta
TitleUnicode:クリスマスのうた
Artist:Poppin'Party
ArtistUnicode:Poppin’Party
Creator:-Aqua
Version:Normal
Source:バンドリ! ガールズバンドパーティ!
Tags:newqua StarrStyx newton- Kurisumasu BanG Dream! Bandori! Girls Band Party! ガルパ Garupa 8th single insert song Bandori project PoPiPa Girl Party Garupa! 戸山香澄 Toyama Kasumi 愛美 Aimi 山吹 沙綾 Yamabuki Saaya 大橋彩香 Ohashi Ayaka 牛込 りみ Ushigome Rimi 西本 りみ Nishimoto 花園 たえ Hanazono Tae 大塚紗英 Otsuka Sae 大塚紗英 Ichigaya Arisa 伊藤 彩沙 Itou Ayasa
BeatmapID:1483749
BeatmapSetID:700927

[Difficulty]
HPDrainRate:4
CircleSize:3.5
OverallDifficulty:4
ApproachRate:5
SliderMultiplier:0.8
SliderTickRate:1

[Events]
//Background and Video events
0,0,"Kasumeme and Friends.jpg",0,0
//Break Periods
//Storyboard Layer 0 (Background)
//Storyboard Layer 1 (Fail)
//Storyboard Layer 2 (Pass)
//Storyboard Layer 3 (Foreground)
//Storyboard Sound Samples

[TimingPoints]
17761,434.782608695652,4,2,1,50,1,0
31674,-100,4,2,1,60,0,0
44717,-100,4,2,1,50,0,0
78630,-100,4,2,1,70,0,1
85152,-100,4,2,1,70,0,0
85587,-100,4,2,1,70,0,1
92543,-100,4,2,1,60,0,0
108195,-100,4,2,1,55,0,0
118630,-100,4,2,1,50,0,0
126456,-100,4,2,1,40,0,0
126891,-100,4,2,1,30,0,0
127326,-100,4,2,1,20,0,0
127760,-100,4,2,1,30,0,0

[Colours]
Combo1 : 202,197,174
Combo2 : 209,78,78
Combo3 : 120,200,100
Combo4 : 213,209,89

[HitObjects]
64,96,17761,6,0,L|159:87,1,80,0|2,0:0|0:0,0:0:0:0:
222,128,18630,2,0,L|301:134,1,80,0|2,0:0|0:0,0:0:0:0:
376,180,19500,2,0,P|387:147|380:93,2,80,0|2|0,0:0|0:0|0:0,0:0:0:0:
302,228,20804,1,2,0:0:0:0:
257,304,21239,6,0,P|290:315|344:308,1,80,0|2,0:0|0:0,0:0:0:0:
417,282,22108,2,0,L|423:202,1,80,0|2,0:0|0:0,0:0:0:0:
431,114,22978,2,0,L|510:107,2,80,0|2|0,0:0|0:0|0:0,0:0:0:0:
346,89,24282,1,2,0:0:0:0:
259,84,24717,6,0,L|195:78,1,40,4|0,3:0|0:0,0:0:0:0:
188,112,25152,2,0,L|108:118,1,80,2|4,0:0|3:0,0:0:0:0:
23,94,26021,1,2,0:0:0:0:
14,181,26456,2,0,L|8:244,1,40,4|0,3:0|0:0,0:0:0:0:
35,257,26891,2,0,P|74:252|112:264,1,80,2|4,0:0|3:0,0:0:0:0:
184,315,27760,1,2,0:0:0:0:
258,267,28195,6,0,L|263:203,1,40,4|0,3:0|0:0,0:0:0:0:
280,187,28630,2,0,L|273:107,1,80,2|4,0:0|3:0,0:0:0:0:
242,75,29282,2,0,L|247:11,1,40,0|4,0:0|3:0,0:0:0:0:
281,9,29717,1,8,3:0:0:0:
72,80,30804,6,0,L|69:119,1,40,0|0,1:0|1:0,0:0:0:0:
106,142,31239,2,0,L|109:181,1,40,8|8,3:0|3:0,0:0:0:0:
139,215,31674,6,0,P|178:210|216:222,1,80,4|2,0:0|0:0,0:0:0:0:
255,242,32326,2,0,P|292:254|332:249,1,80,0|0,1:0|1:0,0:0:0:0:
413,216,33195,2,0,L|406:296,1,80,0|0,1:0|1:0,0:0:0:0:
401,339,33847,1,2,0:0:0:0:
391,381,34065,2,0,P|351:386|313:374,1,80,0|0,1:0|1:0,0:0:0:0:
281,343,34717,1,2,0:0:0:0:
193,351,35152,6,0,L|113:344,1,80,0|2,1:0|0:0,0:0:0:0:
76,320,35804,2,0,P|88:282|82:242,1,80,0|0,1:0|1:0,0:0:0:0:
60,208,36456,1,2,0:0:0:0:
66,164,36674,2,0,L|73:84,2,80,0|0|0,1:0|1:0|1:0,0:0:0:0:
41,248,37978,2,0,L|2:245,2,40,0|2|0,1:0|0:0|1:0,0:0:0:0:
78,271,38630,6,0,L|158:264,1,80,4|2,0:0|0:0,0:0:0:0:
189,294,39282,2,0,P|228:299|266:287,1,80,0|0,1:0|1:0,0:0:0:0:
328,224,40152,2,0,L|335:144,1,80,0|0,1:0|1:0,0:0:0:0:
341,100,40804,1,2,0:0:0:0:
344,56,41021,2,0,P|306:68|266:62,1,80,0|0,1:0|1:0,0:0:0:0:
225,46,41674,1,2,0:0:0:0:
167,112,42108,6,0,L|174:192,1,80,4|2,0:0|0:0,0:0:0:0:
149,228,42760,2,0,L|142:308,2,80,0|0|4,1:0|1:0|0:0,0:0:0:0:
105,151,44065,2,0,L|66:148,2,40,0|0|0,1:0|1:0|1:0,0:0:0:0:
143,129,44717,1,0,1:0:0:0:
278,241,45587,6,0,P|317:246|355:234,1,80,4|4,3:0|3:0,0:0:0:0:
307,160,46456,2,0,P|267:154|229:166,1,80,4|4,3:0|3:0,0:0:0:0:
172,233,47326,1,4,3:0:0:0:
87,207,47760,2,0,L|7:200,2,80,4|4|4,3:0|3:0|3:0,0:0:0:0:
153,147,49065,6,0,L|233:140,1,80,8|4,3:0|3:0,0:0:0:0:
312,177,49934,2,0,P|351:171|389:183,1,80,8|4,3:0|3:0,0:0:0:0:
426,263,50804,2,0,L|419:343,1,80,4|4,3:0|3:0,0:0:0:0:
380,364,51456,2,0,L|300:371,1,80,4|8,3:0|3:0,0:0:0:0:
261,350,52108,1,4,0:0:0:0:
174,367,52543,6,0,L|168:303,1,40,4|0,3:0|0:0,0:0:0:0:
138,296,52978,2,0,P|98:291|60:303,1,80,0|4,1:0|3:0,0:0:0:0:
27,331,53630,1,0,0:0:0:0:
27,331,53847,1,0,1:0:0:0:
8,244,54282,2,0,L|1:164,1,80,4|4,3:0|3:0,0:0:0:0:
37,139,54934,2,0,P|76:143|114:131,1,80,0|4,1:0|3:0,0:0:0:0:
154,112,55587,1,0,1:0:0:0:
176,197,56021,6,0,L|215:200,1,40,4|0,3:0|0:0,0:0:0:0:
254,178,56456,2,0,L|334:171,2,80,0|4|0,1:0|3:0|1:0,0:0:0:0:
215,200,57543,1,4,0:0:0:0:
128,288,58195,6,0,P|89:294|51:282,2,80,4|4|4,3:0|3:0|3:0,0:0:0:0:
170,275,59282,2,0,L|250:282,1,80,4|4,3:0|3:0,0:0:0:0:
288,261,59934,2,0,L|368:254,1,80,4|4,0:0|0:0,0:0:0:0:
451,282,60804,1,0,1:0:0:0:
503,211,61239,6,0,B|505:197|505:197|497:157|497:157|501:133,2,80,4|8|4,0:0|3:0|3:0,0:0:0:0:
451,282,62543,1,8,3:0:0:0:
378,232,62978,2,0,P|341:221|301:226,1,80,4|8,3:0|3:0,0:0:0:0:
226,273,63847,2,0,L|146:280,1,80,4|8,3:0|3:0,0:0:0:0:
84,216,64717,6,0,B|70:217|70:217|30:209|30:209|6:213,2,80,4|8|4,3:0|3:0|3:0,0:0:0:0:
155,164,66021,1,8,3:0:0:0:
240,185,66456,2,0,L|247:105,1,80,4|8,3:0|3:0,0:0:0:0:
332,83,67326,2,0,L|339:163,1,80,4|8,3:0|3:0,0:0:0:0:
298,240,68195,6,0,L|289:325,1,80,4|8,0:0|3:0,0:0:0:0:
282,363,68847,2,0,P|242:357|204:368,2,80,4|0|4,0:0|0:0|0:0,0:0:0:0:
368,379,70152,2,0,P|407:384|445:373,1,80,0|4,0:0|0:0,0:0:0:0:
400,297,71021,2,0,L|439:293,2,40,0|8|0,0:0|3:0|0:0,0:0:0:0:
371,263,71674,6,0,L|291:256,1,80,4|8,3:0|3:0,0:0:0:0:
209,288,72543,2,0,L|212:327,2,40,4|0|8,3:0|0:0|3:0,0:0:0:0:
183,252,73195,2,0,P|144:264|105:258,1,80,4|0,0:0|0:0,0:0:0:0:
65,240,73847,1,8,3:0:0:0:
44,194,74065,2,0,L|37:114,1,80,0|4,0:0|3:0,0:0:0:0:
66,81,74717,1,0,1:0:0:0:
142,124,75152,6,0,P|181:129|219:117,1,80,0|0,1:0|1:0,0:0:0:0:
251,35,76021,2,0,P|211:29|173:41,1,80,0|0,1:0|1:0,0:0:0:0:
86,52,76891,2,0,L|6:45,2,80,0|0|0,1:0|1:0|1:0,0:0:0:0:
144,117,78195,1,2,0:0:0:0:
229,103,78630,6,0,L|309:96,1,80,4|2,0:0|0:0,0:0:0:0:
351,107,79282,2,0,P|345:147|357:185,1,80,0|0,1:0|1:0,0:0:0:0:
388,214,79934,1,2,0:0:0:0:
432,290,80369,2,0,P|394:301|354:295,1,80,0|2,1:0|0:0,0:0:0:0:
313,279,81021,2,0,P|273:272|235:284,1,80,0|0,1:0|1:0,0:0:0:0:
203,314,81674,1,2,0:0:0:0:
129,266,82108,6,0,L|122:186,1,80,4|2,0:0|0:0,0:0:0:0:
147,150,82760,1,0,1:0:0:0:
223,106,83195,2,0,L|262:109,1,40,0|2,1:0|0:0,0:0:0:0:
288,145,83630,2,0,P|328:152|366:140,1,80,0|0,1:0|1:0,0:0:0:0:
403,61,84500,2,0,L|323:54,1,80,0|0,1:0|1:0,0:0:0:0:
281,66,85152,1,2,0:0:0:0:
205,111,85587,6,0,P|165:118|128:106,1,80,4|2,0:0|0:0,0:0:0:0:
96,137,86239,2,0,L|89:217,1,80,0|0,1:0|1:0,0:0:0:0:
60,250,86891,1,2,0:0:0:0:
76,337,87326,2,0,L|156:330,1,80,0|2,1:0|0:0,0:0:0:0:
193,352,87978,2,0,L|273:359,1,80,0|0,1:0|1:0,0:0:0:0:
311,338,88630,1,2,0:0:0:0:
397,353,89065,6,0,P|390:313|402:275,1,80,0|2,1:0|0:0,0:0:0:0:
436,249,89717,2,0,P|447:211|440:172,1,80,0|0,1:0|1:0,0:0:0:0:
406,143,90369,1,2,0:0:0:0:
363,156,90587,2,0,B|287:180|223:156|223:156|159:132|83:156,1,280,4|0,0:0|1:0,0:0:0:0:
64,69,92543,6,0,L|144:62,1,80,4|4,0:0|3:0,0:0:0:0:
230,44,93413,2,0,L|233:5,2,40,2|0|4,0:0|0:0|3:0,0:0:0:0:
256,80,94065,2,0,P|295:87|332:75,1,80,2|2,0:0|0:0,0:0:0:0:
367,47,94717,1,4,3:0:0:0:
367,47,94934,1,0,0:0:0:0:
405,126,95369,6,0,L|402:165,2,40,2|4|2,0:0|3:0|0:0,0:0:0:0:
489,101,96239,2,0,L|482:181,1,80,2|2,0:0|0:0,0:0:0:0:
437,256,97108,2,0,L|398:259,1,40,2|4,0:0|3:0,0:0:0:0:
358,239,97543,2,0,P|319:232|282:244,2,80,2|2|2,0:0|0:0|0:0,0:0:0:0:
325,320,98847,2,0,L|286:323,1,40,4|2,3:0|0:0,0:0:0:0:
241,317,99282,1,8,3:0:0:0:
201,336,99500,6,0,P|163:348|124:341,1,80,4|4,0:0|3:0,0:0:0:0:
38,320,100369,2,0,L|41:359,2,40,2|0|4,0:0|0:0|3:0,0:0:0:0:
61,282,101021,2,0,L|68:202,1,80,2|2,0:0|0:0,0:0:0:0:
44,164,101674,1,4,3:0:0:0:
44,164,101891,1,0,0:0:0:0:
92,90,102326,2,0,L|89:51,2,40,2|4|2,0:0|3:0|0:0,0:0:0:0:
120,123,102978,6,0,P|158:130|196:117,1,80,4|4,0:0|3:0,0:0:0:0:
240,112,103630,2,0,L|233:192,2,80,2|2|4,0:0|0:0|0:0,0:0:0:0:
323,85,104934,2,0,L|316:5,2,80,8|8|8,3:0|3:0|3:0,0:0:0:0:
348,120,106021,1,4,3:0:0:0:
395,131,106239,6,0,P|433:138|471:125,2,80,4|4|4,0:0|3:0|3:0,0:0:0:0:
348,120,107326,1,8,3:0:0:0:
277,172,107760,1,4,0:0:0:0:
194,140,108195,6,0,L|187:220,1,80,4|2,0:0|0:0,0:0:0:0:
152,247,108847,2,0,L|159:327,1,80,0|0,1:0|1:0,0:0:0:0:
244,349,109717,2,0,P|281:335|320:342,1,80,0|0,1:0|1:0,0:0:0:0:
360,360,110369,1,2,0:0:0:0:
402,372,110587,2,0,P|440:378|478:365,1,80,0|0,1:0|1:0,0:0:0:0:
511,337,111239,1,2,0:0:0:0:
475,256,111674,6,0,L|468:176,1,80,0|2,1:0|0:0,0:0:0:0:
443,139,112326,2,0,P|405:152|366:145,1,80,0|0,1:0|1:0,0:0:0:0:
330,120,112978,1,2,0:0:0:0:
292,97,113195,2,0,L|212:104,2,80,0|0|0,1:0|1:0|1:0,0:0:0:0:
363,44,114500,2,0,L|402:47,2,40,4|0|0,3:0|1:0|3:0,0:0:0:0:
326,19,115152,6,0,L|246:12,1,80,4|2,0:0|0:0,0:0:0:0:
216,44,115804,2,0,P|229:81|222:120,1,80,0|0,1:0|1:0,0:0:0:0:
175,195,116674,2,0,P|168:233|181:271,1,80,0|0,1:0|1:0,0:0:0:0:
216,297,117326,1,2,0:0:0:0:
259,292,117543,2,0,L|339:285,1,80,0|0,1:0|1:0,0:0:0:0:
415,242,118413,1,8,3:0:0:0:
454,222,118630,6,0,L|461:142,1,80,4|2,0:0|0:0,0:0:0:0:
438,104,119282,2,0,P|400:117|361:110,2,80,4|0|4,0:0|1:0|0:0,0:0:0:0:
393,27,120587,1,0,1:0:0:0:
350,17,120804,2,0,L|270:24,2,80,4|8|8,0:0|3:0|3:0,0:0:0:0:
436,35,122108,5,4,0:0:0:0:
256,192,122326,12,0,127760,0:0:0:0:
