osu file format v14

[General]
AudioFilename: Syrufit & Poplica_ ft. Tsubaki Ichimatsu-Ten Desires.mp3
AudioLeadIn: 0
PreviewTime: 136976
Countdown: 1
SampleSet: None
StackLeniency: 0.7
Mode: 0
LetterboxInBreaks: 1
SkinPreference:Minimalist Miku - Edit
WidescreenStoryboard: 1

[Editor]
DistanceSpacing: 0.6
BeatDivisor: 4
GridSize: 8
TimelineZoom: 1

[Metadata]
Title:10 Desires
TitleUnicode:10 Desires
Artist:Poplica Feat. Tsubaki Ichimatsu
ArtistUnicode:Poplica Feat. Tsubaki Ichimatsu
Creator:xTr1gger
Version:Insane
Source:
Tags:Poplika, 10 Desires, Tsubaki Ichimatsu
BeatmapID:745742
BeatmapSetID:337023

[Difficulty]
HPDrainRate:6
CircleSize:5
OverallDifficulty:6
ApproachRate:8
SliderMultiplier:1.7
SliderTickRate:1

[Events]
//Background and Video events
0,0,"Ten Desires.jpg",0,0
//Break Periods
2,100026,109255
//Storyboard Layer 0 (Background)
//Storyboard Layer 1 (Fail)
//Storyboard Layer 2 (Pass)
//Storyboard Layer 3 (Foreground)
//Storyboard Sound Samples

[TimingPoints]
-30.5218595377406,428.571428571429,4,3,0,60,1,0

[Colours]
Combo1 : 204,204,204
Combo2 : 87,160,221
Combo3 : 0,255,255
Combo4 : 54,156,54

[HitObjects]
256,280,290,5,8,0:0:0:0:
200,216,505,1,8,0:0:0:0:
312,216,719,1,8,0:0:0:0:
256,104,933,2,4,L|256:64|256:48,3,42.5
256,168,1469,1,8,0:0:0:0:
256,104,2005,5,8,0:0:0:0:
192,232,2218,1,8,0:0:0:0:
320,232,2432,1,8,0:0:0:0:
256,176,2648,2,4,L|256:232,3,42.5
256,352,3184,1,2,0:0:0:0:
256,352,3398,1,8,0:0:0:0:
256,352,3505,1,8,0:0:0:0:
256,280,3719,5,8,0:0:0:0:
208,200,3932,1,8,0:0:0:0:
304,200,4148,1,8,0:0:0:0:
256,120,4362,2,4,L|256:80|256:64,3,42.5
256,176,4898,1,8,0:0:0:0:
256,104,5432,5,8,0:0:0:0:
192,232,5648,1,8,0:0:0:0:
320,232,5862,1,8,0:0:0:0:
256,176,6076,2,4,L|256:232,3,42.5
256,304,6611,1,2,0:0:0:0:
256,304,6826,1,8,0:0:0:0:
256,304,6933,1,8,0:0:0:0:
120,104,7148,5,0,0:0:0:0:
72,184,7361,1,0,0:0:0:0:
168,184,7575,1,0,0:0:0:0:
120,264,7790,2,0,L|120:304|120:320,3,42.5
120,208,8325,1,0,0:0:0:0:
120,280,8861,5,0,0:0:0:0:
56,152,9076,1,0,0:0:0:0:
184,152,9290,1,0,0:0:0:0:
120,208,9504,2,0,L|120:152,3,42.5
120,32,10040,1,0,0:0:0:0:
120,32,10254,1,0,0:0:0:0:
120,32,10361,1,0,0:0:0:0:
120,104,10575,5,0,0:0:0:0:
72,184,10790,1,0,0:0:0:0:
168,184,11005,1,0,0:0:0:0:
120,264,11219,2,0,L|120:304|120:320,3,42.5
120,208,11755,1,0,0:0:0:0:
120,280,12290,5,0,0:0:0:0:
56,152,12505,1,0,0:0:0:0:
184,152,12719,1,0,0:0:0:0:
120,208,12933,2,0,L|120:152,3,42.5
120,80,13469,1,0,0:0:0:0:
120,80,13683,1,0,0:0:0:0:
120,80,13790,1,0,0:0:0:0:
200,32,14005,5,8,0:0:0:0:
288,40,14219,1,8,0:0:0:0:
376,56,14433,2,0,B|432:64|456:96|440:160,1,127.5
320,184,15076,1,8,0:0:0:0:
408,184,15290,1,4,0:0:0:0:
200,352,15719,5,0,0:0:0:0:
288,344,15934,1,0,0:0:0:0:
368,328,16148,2,0,B|408:344|408:344|480:320,1,85
448,288,16469,2,0,B|408:272|408:272|352:296,1,85
376,200,16789,1,0,0:0:0:0:
461,200,17005,1,0,0:0:0:0:
312,32,17433,5,0,0:0:0:0:
224,40,17648,1,0,0:0:0:0:
136,56,17862,2,0,B|80:64|56:96|72:160,1,127.5
144,184,18505,1,0,0:0:0:0:
56,184,18719,1,0,0:0:0:0:
312,352,19148,5,0,0:0:0:0:
224,344,19362,1,0,0:0:0:0:
143,318,19576,2,0,B|103:334|103:334|31:310,1,85
64,280,19898,2,0,B|104:264|104:264|176:288,1,85
144,200,20219,1,0,0:0:0:0:
56,200,20433,1,0,0:0:0:0:
136,264,20862,5,0,0:0:0:0:
224,256,21077,1,0,0:0:0:0:
312,240,21291,2,0,B|368:232|392:200|376:136,1,127.5
304,112,21932,1,0,0:0:0:0:
392,112,22148,1,0,0:0:0:0:
320,184,22576,5,0,0:0:0:0:
232,176,22791,1,0,0:0:0:0:
152,152,23005,2,0,B|120:168|72:152|64:104,1,85
88,88,23326,2,0,B|120:72|168:88|176:136,1,85
152,32,23648,1,0,0:0:0:0:
64,32,23862,1,0,0:0:0:0:
64,134,24290,1,0,0:0:0:0:
64,219,24505,1,0,0:0:0:0:
124,279,24719,2,0,P|223:292|232:288,1,85
288,280,25148,5,0,0:0:0:0:
311,269,25255,1,0,0:0:0:0:
332,255,25362,1,8,0:0:0:0:
350,236,25469,1,8,0:0:0:0:
364,214,25576,1,12,0:0:0:0:
373,190,25683,1,12,0:0:0:0:
383,166,25790,1,10,0:0:0:0:
383,140,25898,1,10,0:0:0:0:
256,192,26112,12,0,27398,0:0:0:0:
45,292,27719,6,0,B|93:340|149:340|197:292,1,170
255,233,28362,1,0,0:0:0:0:
315,172,28576,2,0,B|363:124|419:124|467:172,1,170
404,230,29219,1,2,0:0:0:0:
464,290,29433,2,0,B|416:338|360:338|312:290,1,170
255,233,30076,1,0,0:0:0:0:
194,172,30290,2,0,B|146:124|90:124|42:172,1,170
104,230,30933,1,0,0:0:0:0:
45,292,31148,6,0,B|93:340|149:340|197:292,1,170
255,233,31791,1,0,0:0:0:0:
315,172,32005,2,0,B|363:124|419:124|467:172,1,170
404,230,32648,1,2,0:0:0:0:
464,290,32862,2,0,B|416:338|360:338|312:290,1,170
255,233,33505,1,0,0:0:0:0:
194,172,33719,1,0,0:0:0:0:
175,153,33826,1,0,0:0:0:0:
151,142,33933,1,4,0:0:0:0:
125,142,34040,1,0,0:0:0:0:
99,142,34148,1,4,0:0:0:0:
120,77,34362,5,8,0:0:0:0:
200,64,34576,2,0,B|248:16|304:16|352:64,1,170
404,116,35219,1,0,0:0:0:0:
343,176,35433,2,0,B|295:224|239:224|191:176,1,170
132,238,36076,1,2,0:0:0:0:
192,298,36290,2,0,B|240:346|296:346|344:298,1,170
427,299,36933,1,0,0:0:0:0:
432,216,37148,2,0,B|472:144|472:104|432:56,1,170
349,58,37790,5,0,0:0:0:0:
264,64,38005,2,0,B|216:16|160:16|112:64,1,170
28,62,38648,1,0,0:0:0:0:
28,146,38862,2,0,B|76:194|132:194|180:146,1,170
238,87,39505,1,2,0:0:0:0:
390,161,39719,5,0,0:0:0:0:
390,330,39933,1,0,0:0:0:0:
236,255,40148,1,4,0:0:0:0:
92,345,40362,1,8,0:0:0:0:
92,345,40469,2,0,L|164:264|164:264,1,85
88,221,40790,1,4,0:0:0:0:
88,50,41005,2,0,L|160:131|160:131,1,85
45,92,41433,6,0,B|93:44|149:44|197:92,1,170
255,151,42076,1,0,0:0:0:0:
315,212,42290,2,0,B|363:260|419:260|467:212,1,170
404,154,42933,1,2,0:0:0:0:
464,94,43147,2,0,B|416:46|360:46|312:94,1,170
255,151,43790,1,0,0:0:0:0:
194,212,44004,2,0,B|146:260|90:260|42:212,1,170
104,154,44647,1,0,0:0:0:0:
45,92,44862,6,0,B|93:44|149:44|197:92,1,170
255,151,45505,1,0,0:0:0:0:
315,212,45719,2,0,B|363:260|419:260|467:212,1,170
404,154,46362,1,2,0:0:0:0:
464,94,46576,2,0,B|416:46|360:46|312:94,1,170
255,151,47219,1,0,0:0:0:0:
194,212,47433,1,0,0:0:0:0:
175,231,47540,1,0,0:0:0:0:
151,242,47647,1,8,0:0:0:0:
125,242,47754,1,0,0:0:0:0:
99,242,47862,1,8,0:0:0:0:
120,307,48076,5,4,0:0:0:0:
200,320,48290,2,0,B|248:368|304:368|352:320,1,170
404,268,48933,1,0,0:0:0:0:
343,208,49147,2,0,B|295:160|239:160|191:208,1,170
132,146,49790,1,0,0:0:0:0:
192,86,50004,2,0,B|240:38|296:38|344:86,1,170
427,85,50647,1,0,0:0:0:0:
432,168,50862,2,0,B|472:240|472:280|432:328,1,170
349,326,51504,5,0,0:0:0:0:
264,320,51719,2,0,B|216:368|160:368|112:320,1,170
28,322,52362,1,0,0:0:0:0:
28,238,52576,2,0,B|76:190|132:190|180:238,1,170
238,297,53219,1,0,0:0:0:0:
398,243,53433,5,0,0:0:0:0:
398,73,53647,1,0,0:0:0:0:
235,125,53862,1,4,0:0:0:0:
79,49,54076,1,8,0:0:0:0:
79,49,54183,2,0,L|151:130|151:130,1,85
74,173,54505,1,4,0:0:0:0:
74,342,54719,2,0,L|146:261|146:261,1,85
320,176,55148,5,0,0:0:0:0:
378,56,55362,1,0,0:0:0:0:
432,176,55576,1,0,0:0:0:0:
304,96,55790,1,0,0:0:0:0:
456,96,56005,1,0,0:0:0:0:
72,232,56433,5,0,0:0:0:0:
130,352,56647,1,0,0:0:0:0:
184,232,56861,1,0,0:0:0:0:
56,312,57075,1,0,0:0:0:0:
208,312,57290,1,0,0:0:0:0:
256,69,57719,5,0,0:0:0:0:
176,168,57933,1,0,0:0:0:0:
255,261,58148,1,0,0:0:0:0:
336,168,58362,1,0,0:0:0:0:
424,48,58576,2,0,B|457:77|481:125|505:157|481:197|457:245|425:293,1,255
352,296,59433,2,0,B|329:333|289:349|249:373|201:357|153:341|113:293,1,255
128,80,60290,6,0,L|208:128,1,85
328,80,60719,2,0,L|248:128,1,85
128,144,61148,2,0,L|208:192,1,85
328,144,61577,2,0,L|248:192,1,85
184,88,62005,5,0,0:0:0:0:
266,88,62219,2,0,L|352:88|352:88,1,85
411,27,62648,1,0,0:0:0:0:
471,87,62862,1,0,0:0:0:0:
411,281,63290,5,0,0:0:0:0:
329,281,63504,2,0,L|243:281|243:281,2,85
411,281,64148,1,0,0:0:0:0:
411,111,64576,1,0,0:0:0:0:
70,111,65005,1,0,0:0:0:0:
70,280,65433,6,0,B|93:317|133:333|173:357|221:341|269:325|309:277,1,255
324,262,66183,1,0,0:0:0:0:
324,262,66290,1,0,0:0:0:0:
146,84,66933,2,0,P|147:41|144:40,2,42.5
40,232,67576,1,0,0:0:0:0:
195,163,68005,1,4,0:0:0:0:
195,163,68112,1,0,0:0:0:0:
195,163,68219,1,4,0:0:0:0:
195,163,68326,1,0,0:0:0:0:
256,320,68648,5,0,0:0:0:0:
335,348,68862,2,0,L|432:344,1,85
479,284,69290,1,0,0:0:0:0:
418,223,69505,1,8,0:0:0:0:
399,204,69612,1,4,0:0:0:0:
380,185,69719,1,8,0:0:0:0:
384,80,69933,2,0,L|464:32,1,85
456,121,70362,1,0,0:0:0:0:
256,64,70576,5,0,0:0:0:0:
195,124,70790,2,0,L|292:128,1,85
279,212,71218,1,0,0:0:0:0:
193,212,71433,1,0,0:0:0:0:
174,230,71540,1,0,0:0:0:0:
155,248,71647,1,0,0:0:0:0:
58,315,71861,2,0,L|138:363,1,85
216,358,72290,2,0,L|440:296,1,212.5
424,248,72933,6,0,L|464:168,2,85
407,65,73576,2,0,B|359:17|303:17|255:65,1,170
196,123,74219,1,0,0:0:0:0:
194,212,74433,1,0,0:0:0:0:
175,231,74540,1,0,0:0:0:0:
151,242,74647,1,4,0:0:0:0:
125,242,74754,1,0,0:0:0:0:
99,242,74862,1,4,0:0:0:0:
120,307,75076,1,0,0:0:0:0:
256,64,75505,5,0,0:0:0:0:
177,36,75719,2,0,L|80:40,1,85
33,100,76147,1,0,0:0:0:0:
94,161,76362,1,8,0:0:0:0:
112,179,76469,1,0,0:0:0:0:
130,197,76576,1,8,0:0:0:0:
128,304,76790,2,0,L|48:352,1,85
56,263,77219,1,0,0:0:0:0:
256,320,77433,5,0,0:0:0:0:
317,260,77647,2,0,L|220:256,1,85
233,172,78075,1,0,0:0:0:0:
319,172,78290,1,0,0:0:0:0:
337,153,78397,1,0,0:0:0:0:
355,134,78504,1,0,0:0:0:0:
454,69,78718,2,0,L|374:21,1,85
296,26,79147,2,0,L|72:88,1,212.5
88,136,79790,6,0,L|48:216,2,85
105,319,80433,2,0,B|153:367|209:367|257:319,1,170
316,261,81076,1,0,0:0:0:0:
318,172,81290,1,0,0:0:0:0:
337,153,81397,1,0,0:0:0:0:
361,142,81504,1,4,0:0:0:0:
387,142,81611,1,0,0:0:0:0:
413,142,81719,1,4,0:0:0:0:
392,77,81933,5,0,0:0:0:0:
256,64,82362,5,0,0:0:0:0:
335,36,82576,2,0,L|432:40,1,85
479,100,83004,1,0,0:0:0:0:
418,161,83219,1,0,0:0:0:0:
399,179,83326,1,0,0:0:0:0:
380,197,83433,1,0,0:0:0:0:
384,304,83647,2,0,L|464:352,1,85
456,263,84076,1,0,0:0:0:0:
256,320,84290,5,0,0:0:0:0:
195,260,84504,2,0,L|292:256,1,85
279,172,84932,1,0,0:0:0:0:
193,172,85147,1,0,0:0:0:0:
174,153,85254,1,0,0:0:0:0:
155,134,85361,1,0,0:0:0:0:
58,69,85575,2,0,L|138:21,1,85
216,26,86004,2,0,L|440:88,1,212.5
424,136,86647,6,0,L|464:216,2,85
407,319,87290,2,0,B|359:367|303:367|255:319,1,170
196,261,87933,1,0,0:0:0:0:
194,172,88147,1,0,0:0:0:0:
175,153,88254,1,0,0:0:0:0:
151,142,88361,1,0,0:0:0:0:
125,142,88468,1,0,0:0:0:0:
99,142,88576,1,0,0:0:0:0:
120,77,88790,1,0,0:0:0:0:
296,192,89433,5,0,0:0:0:0:
235,131,89648,1,0,0:0:0:0:
280,202,89862,1,0,0:0:0:0:
252,121,90076,1,0,0:0:0:0:
264,208,90290,1,0,0:0:0:0:
264,120,90505,1,0,0:0:0:0:
243,202,90719,1,0,0:0:0:0:
281,126,90933,1,0,0:0:0:0:
224,192,91148,5,0,0:0:0:0:
288,136,91362,1,0,0:0:0:0:
213,176,91576,1,0,0:0:0:0:
295,154,91790,1,0,0:0:0:0:
209,154,92005,1,0,0:0:0:0:
291,172,92219,1,0,0:0:0:0:
215,133,92433,1,0,0:0:0:0:
280,184,92648,1,0,0:0:0:0:
344,248,92862,5,0,0:0:0:0:
336,263,92969,1,0,0:0:0:0:
327,277,93076,1,0,0:0:0:0:
312,286,93183,1,0,0:0:0:0:
296,293,93290,1,0,0:0:0:0:
280,299,93398,1,0,0:0:0:0:
263,303,93505,1,0,0:0:0:0:
246,303,93612,1,0,0:0:0:0:
229,298,93719,1,0,0:0:0:0:
214,289,93826,1,0,0:0:0:0:
201,276,93933,1,0,0:0:0:0:
186,267,94040,1,0,0:0:0:0:
173,254,94148,1,0,0:0:0:0:
160,241,94255,5,0,0:0:0:0:
154,225,94362,1,0,0:0:0:0:
154,208,94469,1,0,0:0:0:0:
152,184,94576,2,0,L|216:48,1,127.5
224,64,95005,2,0,B|288:48|376:64|376:72,1,127.5
368,64,95433,2,0,P|408:112|400:192,1,127.5
408,192,95862,2,0,L|264:192,1,127.5
256,192,96398,12,0,99826,0:0:0:0:
467,292,110005,6,0,B|419:340|363:340|315:292,1,170
257,233,110648,1,0,0:0:0:0:
197,172,110862,2,0,B|149:124|93:124|45:172,1,170
108,230,111505,1,0,0:0:0:0:
48,290,111719,2,0,B|96:338|152:338|200:290,1,170
257,233,112362,1,0,0:0:0:0:
318,172,112576,2,0,B|366:124|422:124|470:172,1,170
408,230,113219,1,0,0:0:0:0:
467,292,113434,6,0,B|419:340|363:340|315:292,1,170
257,233,114077,1,0,0:0:0:0:
197,172,114291,2,0,B|149:124|93:124|45:172,1,170
108,230,114934,1,0,0:0:0:0:
48,290,115148,2,0,B|96:338|152:338|200:290,1,170
257,233,115791,1,0,0:0:0:0:
318,172,116005,1,0,0:0:0:0:
337,153,116112,1,0,0:0:0:0:
361,142,116219,1,0,0:0:0:0:
387,142,116326,1,0,0:0:0:0:
413,142,116434,1,0,0:0:0:0:
392,77,116648,5,0,0:0:0:0:
312,64,116862,2,0,B|264:16|208:16|160:64,1,170
108,116,117505,1,0,0:0:0:0:
169,176,117719,2,0,B|217:224|273:224|321:176,1,170
380,238,118362,1,0,0:0:0:0:
320,298,118576,2,0,B|272:346|216:346|168:298,1,170
85,299,119219,1,0,0:0:0:0:
80,216,119434,2,0,B|40:144|40:104|80:56,1,170
163,58,120076,5,0,0:0:0:0:
248,64,120291,2,0,B|296:16|352:16|400:64,1,170
484,62,120934,1,0,0:0:0:0:
484,146,121148,2,0,B|436:194|380:194|332:146,1,170
274,87,121791,1,0,0:0:0:0:
114,141,122005,5,0,0:0:0:0:
114,310,122219,1,0,0:0:0:0:
268,237,122434,1,0,0:0:0:0:
433,335,122648,1,0,0:0:0:0:
433,335,122755,2,0,L|361:254|361:254,1,85
436,211,123076,1,0,0:0:0:0:
436,40,123291,2,0,L|364:121|364:121,1,85
80,160,123719,5,0,0:0:0:0:
138,40,123933,1,0,0:0:0:0:
192,160,124147,1,0,0:0:0:0:
64,80,124361,1,0,0:0:0:0:
208,80,124576,1,0,0:0:0:0:
328,232,125004,5,0,0:0:0:0:
378,352,125218,1,0,0:0:0:0:
424,232,125432,1,0,0:0:0:0:
304,312,125648,1,0,0:0:0:0:
448,312,125861,1,0,0:0:0:0:
256,69,126290,5,0,0:0:0:0:
336,168,126504,1,0,0:0:0:0:
257,261,126719,1,0,0:0:0:0:
176,168,126933,1,0,0:0:0:0:
88,48,127147,2,0,B|55:77|31:125|7:157|31:197|55:245|87:293,1,255
160,296,128005,2,0,B|183:333|223:349|263:373|311:357|359:341|399:293,1,255
384,80,128861,6,0,L|304:128,1,85
184,80,129290,2,0,L|264:128,1,85
384,144,129719,2,0,L|304:192,1,85
184,144,130148,2,0,L|264:192,1,85
328,88,130576,5,0,0:0:0:0:
246,88,130790,2,0,L|160:88|160:88,1,85
101,27,131219,1,0,0:0:0:0:
101,132,131433,1,0,0:0:0:0:
101,301,131861,5,0,0:0:0:0:
186,301,132076,2,0,L|272:301|272:301,2,85
101,301,132719,1,0,0:0:0:0:
221,180,133147,1,0,0:0:0:0:
383,128,133576,1,0,0:0:0:0:
463,277,134005,6,0,B|440:314|400:330|360:354|312:338|264:322|224:274,1,255
202,267,134754,1,0,0:0:0:0:
202,267,134861,1,0,0:0:0:0:
366,84,135504,2,0,P|365:41|368:40,2,42.5
472,232,136147,1,0,0:0:0:0:
317,163,136576,1,0,0:0:0:0:
317,163,136683,1,0,0:0:0:0:
317,163,136790,1,0,0:0:0:0:
317,163,136897,1,0,0:0:0:0:
256,320,137219,5,0,0:0:0:0:
177,348,137433,2,0,L|80:344,1,85
33,284,137861,1,0,0:0:0:0:
94,223,138076,1,0,0:0:0:0:
112,204,138183,1,0,0:0:0:0:
130,185,138290,1,0,0:0:0:0:
128,80,138504,2,0,L|48:32,1,85
56,121,138933,1,0,0:0:0:0:
256,64,139147,5,0,0:0:0:0:
317,124,139361,2,0,L|220:128,1,85
233,212,139789,1,0,0:0:0:0:
319,212,140004,1,0,0:0:0:0:
337,230,140111,1,0,0:0:0:0:
355,248,140218,1,0,0:0:0:0:
454,315,140433,2,0,L|374:363,1,85
296,358,140862,2,0,L|72:296,1,212.5
88,248,141504,6,0,L|48:168,2,85
105,65,142147,2,0,B|153:17|209:17|257:65,1,170
316,123,142790,1,0,0:0:0:0:
318,212,143004,1,0,0:0:0:0:
337,231,143111,1,0,0:0:0:0:
361,242,143218,1,0,0:0:0:0:
387,242,143325,1,0,0:0:0:0:
413,242,143433,1,0,0:0:0:0:
392,307,143647,1,0,0:0:0:0:
256,64,144076,5,0,0:0:0:0:
335,36,144290,2,0,L|432:40,1,85
479,100,144718,1,0,0:0:0:0:
418,161,144933,1,0,0:0:0:0:
399,179,145040,1,0,0:0:0:0:
380,197,145147,1,0,0:0:0:0:
384,304,145361,2,0,L|464:352,1,85
456,263,145790,1,0,0:0:0:0:
256,320,146004,5,0,0:0:0:0:
195,260,146218,2,0,L|292:256,1,85
279,172,146648,1,0,0:0:0:0:
193,172,146861,1,0,0:0:0:0:
174,153,146968,1,0,0:0:0:0:
155,134,147075,1,0,0:0:0:0:
58,69,147290,2,0,L|138:21,1,85
216,26,147719,2,0,L|440:88,1,212.5
424,136,148361,6,0,L|464:216,2,85
407,319,149004,2,0,B|359:367|303:367|255:319,1,170
196,261,149647,1,0,0:0:0:0:
194,172,149861,1,0,0:0:0:0:
175,153,149968,1,0,0:0:0:0:
151,142,150075,1,0,0:0:0:0:
125,142,150182,1,0,0:0:0:0:
99,142,150290,1,0,0:0:0:0:
120,77,150504,5,0,0:0:0:0:
256,64,150933,5,0,0:0:0:0:
177,36,151147,2,0,L|80:40,1,85
33,100,151575,1,0,0:0:0:0:
94,161,151790,1,0,0:0:0:0:
113,179,151897,1,0,0:0:0:0:
132,197,152004,1,0,0:0:0:0:
128,304,152218,2,0,L|48:352,1,85
56,263,152647,1,0,0:0:0:0:
256,320,152861,5,0,0:0:0:0:
317,260,153075,2,0,L|220:256,1,85
233,172,153505,1,0,0:0:0:0:
319,172,153718,1,0,0:0:0:0:
338,153,153825,1,0,0:0:0:0:
357,134,153932,1,0,0:0:0:0:
454,69,154148,2,0,L|374:21,1,85
296,26,154576,2,0,L|72:88,1,212.5
88,136,155219,6,0,L|48:216,2,85
105,319,155861,2,0,B|153:367|209:367|257:319,1,170
316,261,156504,1,0,0:0:0:0:
318,172,156718,1,0,0:0:0:0:
337,153,156825,1,0,0:0:0:0:
361,142,156932,1,0,0:0:0:0:
387,142,157039,1,0,0:0:0:0:
413,142,157147,1,0,0:0:0:0:
392,77,157361,5,0,0:0:0:0:
216,192,158005,5,0,0:0:0:0:
277,131,158220,1,0,0:0:0:0:
232,202,158434,1,0,0:0:0:0:
260,121,158648,1,0,0:0:0:0:
248,208,158862,1,0,0:0:0:0:
248,120,159077,1,0,0:0:0:0:
269,202,159291,1,0,0:0:0:0:
231,126,159505,1,0,0:0:0:0:
392,72,159720,5,0,0:0:0:0:
355,35,159934,1,0,0:0:0:0:
304,35,160148,1,0,0:0:0:0:
267,71,160362,1,0,0:0:0:0:
232,152,160577,1,0,0:0:0:0:
195,188,160791,1,0,0:0:0:0:
144,188,161005,1,0,0:0:0:0:
107,151,161220,1,0,0:0:0:0:
168,248,161434,5,0,0:0:0:0:
176,263,161541,1,0,0:0:0:0:
185,277,161648,1,0,0:0:0:0:
200,286,161755,1,0,0:0:0:0:
216,293,161862,1,0,0:0:0:0:
232,299,161970,1,0,0:0:0:0:
249,303,162077,1,0,0:0:0:0:
266,303,162184,1,0,0:0:0:0:
283,298,162291,1,0,0:0:0:0:
298,289,162398,1,0,0:0:0:0:
311,276,162505,1,0,0:0:0:0:
326,267,162612,1,0,0:0:0:0:
339,254,162720,1,0,0:0:0:0:
352,241,162827,5,0,0:0:0:0:
358,225,162934,1,0,0:0:0:0:
358,208,163041,1,0,0:0:0:0:
360,184,163148,2,0,L|296:48,1,127.5
288,64,163577,2,0,B|224:48|136:64|136:72,1,127.5
144,64,164005,2,0,P|104:112|112:192,1,127.5
104,192,164434,2,0,L|176:312,1,127.5
256,192,164970,12,0,168183,0:0:0:0:
