osu file format v9

[General]
AudioFilename: VocalSyrufit - Replica.mp3
AudioLeadIn: 1000
PreviewTime: -1
Countdown: 1
SampleSet: Normal
StackLeniency: 0.7
Mode: 0
LetterboxInBreaks: 1

[Editor]
Bookmarks: 4140,5420,15509,15811,71307
DistanceSpacing: 0.8
BeatDivisor: 4
GridSize: 8

[Metadata]
Title:VocalSyrufit - Replica
Artist:Poplica
Creator:CherryCherry
Version:Easy
Source:Studio Syrup Confiture
Tags:s o r d a patchouli

[Difficulty]
HPDrainRate:4
CircleSize:3
OverallDifficulty:4
ApproachRate:4
SliderMultiplier:1.2
SliderTickRate:1

[Events]
//Background and Video events
0,0,"BGch.jpg"
//Break Periods
2,139067,148456
2,172633,175309
2,220466,229016
//Storyboard Layer 0 (Background)
//Storyboard Layer 1 (Fail)
//Storyboard Layer 2 (Pass)
//Storyboard Layer 3 (Foreground)
//Storyboard Sound Samples
//Background Colour Transformations
3,100,163,162,255

[TimingPoints]
406,419.58041958042,4,1,0,100,1,0
1958,-100,4,2,0,100,0,0
35645,-125,4,2,0,100,0,0
35745,-100,4,2,0,100,0,0
55573,-100,4,1,0,76,0,0
68370,-100,4,1,0,100,0,0
229897,-142.857142857143,4,1,0,100,0,0
234932,-100,4,1,0,100,0,0
237029,-142.857142857143,4,1,0,100,0,0
239547,-100,4,1,0,100,0,0

[HitObjects]
64,72,2084,1,0
448,80,3762,1,0
448,328,5440,1,0
64,320,7119,1,0
424,192,8797,6,0,B|64:192,2,360
288,56,12154,5,0
112,136,12993,1,0
256,264,13832,1,0
400,136,14671,1,0
224,56,15510,6,0,B|96:56|96:168,2,180
352,192,17608,2,0,B|280:72,1,120
392,72,18867,5,0
392,72,19706,1,0
392,264,20545,1,0
392,264,21385,1,0
256,128,22224,6,0,B|16:128,1,240
192,192,23902,2,0,B|432:192,1,240
288,320,25580,6,0,B|80:192|296:32,1,360
48,192,28937,1,0
240,192,29776,2,0,B|480:192,2,240
376,56,32294,1,0
184,56,33133,2,0,B|184:312,2,240
48,128,35650,5,0
96,312,36489,1,0
288,312,37329,2,2,B|400:280|456:248|488:192,1,240
296,192,39007,6,0,B|168:192,2,120
464,104,40685,2,0,B|336:104,3,120
176,192,42783,1,0
368,192,43622,2,2,B|504:192,4,120
80,192,46559,1,0
272,192,47399,1,0
464,192,48238,1,0
312,304,49077,6,0,B|64:304,1,240
64,112,50755,1,0
256,80,51594,1,0
416,192,52433,2,0,B|416:312|416:312|288:312,1,240
128,224,54112,2,0,B|128:96|128:96|240:96,1,240
264,288,55790,5,0
264,96,56629,1,0
96,192,57468,1,0
264,280,58308,1,0
432,192,59147,1,0
264,96,59986,1,0
96,192,60825,2,0,B|296:192,2,180
264,272,62923,5,0
360,176,63762,1,0
360,64,64601,2,0,B|488:64,2,120
168,56,66280,1,0
168,184,67119,1,0
360,184,67958,2,0,B|488:184,2,120
216,64,69636,6,0,B|88:64|88:64|88:192,1,240
272,136,71315,6,0,B|144:136|144:136|144:264,1,240
328,208,72993,6,0,B|200:208|200:208|200:336,1,240
384,256,74671,5,0
384,256,75510,1,0
384,64,76350,1,0
384,64,77189,2,0,B|120:64,2,240
256,192,79706,1,0
256,192,80545,1,0
256,192,81385,5,0
256,192,82224,1,0
256,192,83063,12,0,85161
248,80,86000,6,0,B|328:184|248:304,2,240
88,192,88517,1,0
256,96,89357,1,0
424,192,90196,1,0
256,288,91035,6,0,B|336:192|256:64,5,240
256,192,96070,12,0,98587
256,192,99426,6,0,B|400:192,1,120
464,192,100266,1,0
288,264,101105,2,0,B|144:264,1,120
72,264,101944,1,0
152,80,102783,5,0
248,80,103203,1,0
344,80,103622,1,0
344,272,104461,5,0
248,272,104881,1,0
152,272,105301,1,0
328,192,106140,6,0,B|448:192|448:192|448:64,1,240
256,80,107818,2,0,B|128:80|128:80|128:208,1,240
256,328,109496,5,0
256,328,109916,1,0
256,232,110336,5,0
256,232,110755,1,0
256,136,111175,6,0,B|176:56|176:56|104:144|104:144|256:144,1,360
336,144,112853,2,0,B|336:280,1,120
248,304,113692,2,0,B|128:304,1,120
40,264,114531,2,0,B|40:120,1,120
96,64,115371,2,0,B|224:64,1,120
344,72,116210,5,8
400,152,116629,2,0,B|488:240,2,120
304,176,117888,1,0
368,248,118308,2,0,B|464:344,2,120
248,72,119566,2,0,B|64:144|288:208|288:272|288:304|192:344,2,360
104,192,122923,5,0
104,96,123343,1,0
192,144,123762,1,0
392,144,124601,1,0
336,64,125021,1,0
432,64,125440,1,0
416,256,126280,6,0,B|288:256,2,120
376,336,127538,1,0
280,336,127958,1,0
184,336,128378,2,0,B|64:336,2,120
184,240,129636,6,0,B|184:184,4,30
104,192,130475,1,0
48,112,130895,1,0
112,40,131315,2,0,B|160:40,4,30
184,112,132154,1,0
368,72,132993,6,0,B|368:312,2,240
296,128,135091,1,0
224,192,135510,1,0
152,256,135930,1,0
256,192,136350,12,0,138867
256,88,149776,6,0,B|352:184|256:312,1,240
96,192,151454,1,0
288,192,152294,2,0,B|416:192,1,120
256,88,153552,6,0,B|168:176|256:312,1,240
96,200,155231,1,0
96,200,156070,1,0
256,296,156909,6,0,B|384:296|384:296|464:192,1,240
256,192,158587,2,0,B|112:192|112:192|16:120,1,240
216,64,160266,2,0,B|352:64|352:64|408:176,1,240
256,288,161944,1,0
256,96,162783,1,0
256,192,163203,12,0,165720
104,80,166559,5,0
256,192,167399,1,0
408,80,168238,1,0
256,192,169077,1,0
104,312,169916,2,0,B|368:312,3,240
360,256,176629,6,0,B|96:256,1,240
120,64,178308,2,0,B|368:64,1,240
216,192,179986,2,0,B|288:192|288:192|288:128,2,120
56,296,181664,2,0,B|128:296|128:296|128:232,2,120
272,208,183343,6,0,B|272:312,2,90
416,208,185021,6,0,B|416:312,2,90
216,72,186699,6,0,B|216:176,2,90
48,240,188378,1,0
120,176,188797,1,0
192,240,189217,1,0
264,176,189636,1,0
344,240,190056,6,0,B|464:240|464:240|464:120,1,240
368,136,191315,1,0
272,136,191734,2,0,B|128:136|128:136|128:32,1,240
320,40,193412,5,0
416,40,193832,1,0
416,136,194252,2,0,B|416:272,1,120
352,328,195091,1,0
280,272,195510,1,0
200,216,195930,2,0,B|112:304,1,120
64,216,196769,5,8
64,120,197189,1,2
136,56,197608,2,0,B|256:56,1,120
352,56,198447,1,8
432,128,198867,1,2
432,224,199287,2,0,B|288:224,1,120
256,304,200126,6,0,B|120:304|120:304|120:184,2,240
232,208,202224,1,0
304,144,202643,1,0
136,64,203482,6,0,B|264:64,1,120
208,144,204322,2,0,B|344:144,1,120
288,232,205161,2,0,B|432:232,2,120
96,240,206839,5,0
96,48,207678,1,0
128,240,208517,1,0
128,48,209357,1,0
312,112,210196,5,0
312,112,210615,1,0
368,192,211035,5,0
368,192,211454,1,0
392,288,211874,5,0
392,288,212294,2,0,B|152:288,1,240
152,192,213552,5,0
344,192,214392,1,0
152,192,215231,5,0
224,128,215650,1,0
296,192,216070,1,0
216,248,216489,1,0
256,192,216909,12,0,220266
56,88,230336,6,0,B|152:88|48:192|176:192,3,167.999995994568
256,96,233692,1,0
352,192,234531,1,0
160,192,235371,2,0,B|288:192,2,120
32,224,237049,6,0,B|128:224|24:328|152:328,3,167.999995994568
336,320,240406,1,0
480,192,241245,1,0
336,64,242084,2,0,B|72:64,1,240
232,192,243762,5,0
80,304,244601,1,0
272,304,245440,2,0,B|416:304|416:304|416:192,1,240
256,104,247119,5,0
184,168,247538,1,0
256,224,247958,2,0,B|384:224,1,120
464,192,248797,1,0
408,112,249217,1,0
360,192,249636,2,0,B|224:192,1,120
120,192,250475,6,0,B|96:192|136:192,4,30
